<?xml version="1.0" standalone="no"?>
<!DOCTYPE svg PUBLIC "-//W3C//DTD SVG 1.1//EN" "http://www.w3.org/Graphics/SVG/1.1/DTD/svg11.dtd" >
<svg xmlns="http://www.w3.org/2000/svg" xmlns:xlink="http://www.w3.org/1999/xlink" version="1.1">
<metadata>
Created by FontForge 20170731 at Fri Nov 25 13:17:56 2022
 By Aleksey,,,
Copyright 2015 The Rubik Project Authors (https://github.com/googlefonts/rubik)
</metadata>
<defs>
<font id="Rubik-SemiBoldItalic" horiz-adv-x="0" >
  <font-face 
    font-family="Rubik SemiBold"
    font-weight="600"
    font-style="italic"
    font-stretch="normal"
    units-per-em="1000"
    panose-1="0 0 0 0 0 0 0 0 0 0"
    ascent="800"
    descent="-200"
    x-height="520"
    cap-height="700"
    bbox="-331.571 -286 1176.04 918"
    underline-thickness="50"
    underline-position="-125"
    slope="-12"
    unicode-range="U+0020-FB4B"
  />
<missing-glyph horiz-adv-x="696" 
d="M23 -117q-21 0 -18 22l190 891q3 22 26 22h491q21 0 18 -22l-190 -891q-3 -22 -26 -22h-491zM114 -59h373l162 762zM85 -9l540 769h-377z" />
    <glyph glyph-name="fi" unicode="fi" horiz-adv-x="643" 
d="M81 0q-10 0 -16 7t-4 18l81 377h-79q-10 0 -15.5 7t-3.5 18l14 68q2 11 11 18t19 7h79l8 36q14 64 45 105t78 60t109 19h243q11 0 16 -7t3 -18l-15 -68q-2 -11 -10.5 -18t-18.5 -7h-220q-37 0 -57 -18t-27 -53l-7 -31h289q11 0 16 -7t3 -18l-100 -470q-2 -11 -10 -18
t-19 -7h-98q-10 0 -16 7t-4 18l80 377h-166l-81 -377q-2 -11 -10 -18t-19 -7h-98z" />
    <glyph glyph-name="fl" unicode="fl" horiz-adv-x="679" 
d="M81 0q-10 0 -16 7t-4 18l81 377h-78q-11 0 -16.5 7t-3.5 18l14 68q2 11 11 18t20 7h78l8 36q14 64 45 105t78 60t109 19h76q11 0 16 -7t3 -18l-14 -68q-2 -11 -10.5 -18t-19.5 -7h-53q-37 0 -57 -18t-27 -53l-7 -31h201l42 195q2 11 10 18t19 7h98q10 0 16 -7t4 -18
l-147 -690q-2 -11 -10.5 -18t-18.5 -7h-98q-11 0 -16.5 7t-3.5 18l80 377h-201l-81 -377q-2 -11 -10 -18t-19 -7h-98z" />
    <glyph glyph-name="f_f" unicode="ff" horiz-adv-x="774" 
d="M663 520h122q11 0 16 -7t3 -18l-14 -68q-2 -11 -10.5 -18t-19.5 -7h-122l-81 -377q-2 -11 -10.5 -18t-18.5 -7h-98q-11 0 -16.5 7t-3.5 18l81 377h-202l-81 -377q-2 -11 -10 -18t-19 -7h-98q-10 0 -16 7t-4 18l81 377h-79q-10 0 -15.5 7t-3.5 18l14 68q2 11 11 18t19 7
h79l8 36q14 64 45 105t78 60t109 19h87q10 0 15.5 -7t3.5 -18l-15 -68q-2 -11 -10.5 -18t-19.5 -7h-63q-37 0 -57 -18t-27 -53l-7 -31h201l8 36q14 64 45 105t78.5 60t109.5 19h86q11 0 16 -7t3 -18l-14 -68q-2 -11 -10.5 -18t-19.5 -7h-63q-37 0 -57.5 -18t-27.5 -53z" />
    <glyph glyph-name="f_f_i" unicode="ffi" horiz-adv-x="991" 
d="M81 0q-10 0 -16 7t-4 18l81 377h-79q-10 0 -15.5 7t-3.5 18l14 68q2 11 11 18t19 7h79l8 36q14 64 45 105t78 60t109 19h87q10 0 15.5 -7t3.5 -18l-15 -68q-2 -11 -10.5 -18t-19.5 -7h-63q-37 0 -57 -18t-27 -53l-7 -31h201l8 36q14 64 45 105t78.5 60t109.5 19h243
q10 0 15.5 -7t3.5 -18l-15 -68q-2 -11 -10.5 -18t-19.5 -7h-219q-37 0 -57.5 -18t-27.5 -53l-6 -31h289q10 0 15.5 -7t3.5 -18l-100 -470q-2 -11 -10.5 -18t-18.5 -7h-98q-11 0 -16.5 7t-3.5 18l79 377h-165l-81 -377q-2 -11 -10.5 -18t-18.5 -7h-98q-11 0 -16.5 7t-3.5 18
l81 377h-202l-81 -377q-2 -11 -10 -18t-19 -7h-98z" />
    <glyph glyph-name="f_f_l" unicode="ffl" horiz-adv-x="1027" 
d="M81 0q-10 0 -16 7t-4 18l81 377h-79q-10 0 -15.5 7t-3.5 18l14 68q2 11 11 18t19 7h79l8 36q14 64 45 105t78 60t109 19h87q10 0 15.5 -7t3.5 -18l-15 -68q-2 -11 -10.5 -18t-19.5 -7h-63q-37 0 -57 -18t-27 -53l-7 -31h201l8 36q14 64 45 105t78.5 60t109.5 19h76
q11 0 16 -7t3 -18l-15 -68q-2 -11 -10.5 -18t-18.5 -7h-53q-37 0 -57.5 -18t-27.5 -53l-6 -31h201l42 195q2 11 10 18t19 7h98q10 0 16 -7t4 -18l-147 -690q-2 -11 -10.5 -18t-18.5 -7h-98q-11 0 -16.5 7t-3.5 18l79 377h-200l-81 -377q-2 -11 -10.5 -18t-18.5 -7h-98
q-11 0 -16.5 7t-3.5 18l81 377h-202l-81 -377q-2 -11 -10 -18t-19 -7h-98z" />
    <glyph glyph-name=".notdef" horiz-adv-x="696" 
d="M23 -117q-21 0 -18 22l190 891q3 22 26 22h491q21 0 18 -22l-190 -891q-3 -22 -26 -22h-491zM114 -59h373l162 762zM85 -9l540 769h-377z" />
    <glyph glyph-name=".null" 
 />
    <glyph glyph-name="nonmarkingreturn" horiz-adv-x="333" 
 />
    <glyph glyph-name="space" unicode=" " horiz-adv-x="225" 
 />
    <glyph glyph-name="exclam" unicode="!" horiz-adv-x="279" 
d="M72 207q-11 0 -16 7t-3 18l95 443q2 11 10 18t19 7h97q11 0 16.5 -7t3.5 -18l-94 -443q-2 -11 -11 -18t-20 -7h-97zM23 0q-10 0 -16 7t-4 18l23 107q2 11 11 18t19 7h108q10 0 15.5 -7t3.5 -18l-22 -107q-2 -11 -10.5 -18t-19.5 -7h-108z" />
    <glyph glyph-name="quotedbl" unicode="&#x22;" horiz-adv-x="431" 
d="M123 457q-13 0 -17 7.5t-3 17.5l21 200q2 13 9.5 20.5t19.5 7.5h100q11 0 16 -7.5t1 -20.5l-63 -200q-3 -10 -10.5 -17.5t-21.5 -7.5h-52zM319 457q-14 0 -17.5 7.5t-2.5 17.5l21 200q1 13 9 20.5t19 7.5h100q12 0 17 -7.5t1 -20.5l-64 -200q-3 -10 -10.5 -17.5
t-21.5 -7.5h-51z" />
    <glyph glyph-name="numbersign" unicode="#" horiz-adv-x="689" 
d="M113 39q-9 0 -14.5 6.5t-2.5 15.5l37 102h-78q-10 0 -15 6.5t-4 16.5l15 68q2 10 10.5 16.5t18.5 6.5h94l51 140h-90q-10 0 -15 6.5t-4 16.5l15 68q2 10 10.5 16.5t18.5 6.5h106l38 103q3 8 10 14.5t17 6.5h68q9 0 14.5 -6.5t2.5 -15.5l-37 -102h114l38 103q3 8 10 14.5
t17 6.5h68q9 0 14.5 -6.5t2.5 -15.5l-37 -102h77q11 0 16 -6.5t3 -16.5l-15 -68q-1 -10 -9 -16.5t-19 -6.5h-94l-50 -140h88q11 0 16 -6.5t3 -16.5l-15 -68q-1 -10 -9 -16.5t-19 -6.5h-106l-37 -103q-4 -9 -11 -15t-17 -6h-68q-9 0 -14 6.5t-3 15.5l37 102h-114l-37 -103
q-4 -9 -11 -15t-17 -6h-68zM288 277h113l51 140h-114z" />
    <glyph glyph-name="dollar" unicode="$" horiz-adv-x="656" 
d="M209 -100q-10 0 -15.5 7t-3.5 18l15 70q-72 10 -117.5 38t-65 68.5t-12.5 85.5q2 8 9.5 14.5t16.5 6.5h107q13 0 19 -5.5t10 -13.5q3 -17 15.5 -33t37 -26.5t61.5 -10.5q65 0 103.5 21t46.5 57q6 26 -8 42t-49.5 29t-94.5 28q-71 16 -117 44.5t-63.5 71.5t-4.5 103
q16 80 79.5 131t166.5 61l16 68q2 11 10.5 18t19.5 7h71q11 0 16 -7t3 -18l-16 -73q63 -12 105.5 -42t61.5 -68t12 -73q-1 -8 -8.5 -14.5t-16.5 -6.5h-113q-9 0 -16.5 4t-10.5 14q0 26 -26 45.5t-69 19.5q-49 0 -83 -18t-42 -55q-5 -24 6.5 -40.5t43 -29t86.5 -27.5
q84 -18 133 -46t66 -70t4 -102q-19 -92 -89 -142t-185 -58l-13 -68q-2 -11 -11 -18t-19 -7h-72z" />
    <glyph glyph-name="percent" unicode="%" horiz-adv-x="824" 
d="M60 0q-15 0 -18.5 10.5t6.5 20.5l631 650q9 9 17 14t22 5h67q15 0 18.5 -10.5t-6.5 -20.5l-631 -650q-9 -9 -17 -14t-22 -5h-67zM576 -5q-41 0 -72.5 17t-47.5 47.5t-10 70.5q3 26 8 45.5t12 47.5q16 60 56.5 96t114.5 36q44 0 75.5 -17.5t46.5 -48t8 -70.5
q-4 -28 -8 -48t-12 -46q-16 -60 -58 -95t-113 -35zM582 77q29 0 45.5 17.5t22.5 38.5q7 23 10.5 41.5t6.5 41.5q3 14 1 26.5t-10.5 20.5t-27.5 8q-30 0 -46 -17t-22 -38q-6 -23 -10 -41.5t-7 -41.5q-2 -14 0 -27t11 -21t26 -8zM209 345q-41 0 -72.5 17t-47 47.5t-10.5 70.5
q4 26 8.5 45.5t11.5 47.5q17 61 57.5 96.5t113.5 35.5q44 0 75.5 -17t46.5 -47.5t9 -71.5q-4 -28 -8.5 -47.5t-11.5 -45.5q-17 -60 -59 -95.5t-113 -35.5zM216 428q28 0 45 17.5t23 37.5q6 24 10 42.5t7 40.5q3 14 1 27t-11 21t-28 8q-30 0 -46 -17.5t-22 -38.5
q-6 -22 -9.5 -40.5t-7.5 -42.5q-1 -13 1 -26t10.5 -21t26.5 -8z" />
    <glyph glyph-name="ampersand" unicode="&#x26;" horiz-adv-x="730" 
d="M245 -10q-75 0 -126 24.5t-72 70.5t-8 108q10 44 34.5 78t61 61.5t82.5 50.5q-32 44 -41.5 80t-1.5 74q10 46 42 85t84 63.5t120 24.5q64 0 104 -23.5t56 -62.5t6 -85q-9 -41 -34 -73.5t-63 -58.5t-84 -50l104 -131q13 17 34.5 47t43.5 77q6 16 24 16h87q9 0 13 -5.5
t2 -14.5q-4 -19 -18 -44.5t-33.5 -53.5t-42 -55t-45.5 -50l86 -110q6 -7 4 -15q-1 -8 -7.5 -13t-15.5 -5h-115q-10 0 -15.5 3.5t-9.5 6.5l-39 48q-47 -33 -100.5 -50.5t-116.5 -17.5zM270 105q32 0 64 10.5t62 34.5l-117 145q-34 -17 -61.5 -40.5t-34.5 -56.5q-6 -29 5 -50
t33 -32t49 -11zM345 440q28 14 51 27.5t39 30t21 37.5q6 31 -10.5 49t-48.5 18q-29 0 -55 -18t-32 -49q-4 -20 3.5 -41.5t31.5 -53.5z" />
    <glyph glyph-name="quotesingle" unicode="'" horiz-adv-x="235" 
d="M123 457q-13 0 -17 7.5t-3 17.5l21 200q2 13 9.5 20.5t19.5 7.5h100q11 0 16 -7.5t1 -20.5l-64 -201q-3 -10 -9.5 -17t-21.5 -7h-52z" />
    <glyph glyph-name="parenleft" unicode="(" horiz-adv-x="371" 
d="M227 -159q-45 0 -82.5 16.5t-65 52t-42 91t-12.5 132t23 176.5q27 125 59.5 213.5t76.5 144.5t103 82.5t138 26.5q10 0 16 -7.5t4 -17.5l-15 -71q-2 -11 -11 -18t-18 -7q-41 -2 -73.5 -24t-57.5 -65.5t-45.5 -107t-39.5 -149.5q-18 -86 -25 -150t0.5 -107t30 -65.5
t63.5 -24.5q9 0 14.5 -7t3.5 -18l-16 -71q-1 -10 -10 -17.5t-19 -7.5z" />
    <glyph glyph-name="parenright" unicode=")" horiz-adv-x="371" 
d="M-49 -159q-10 0 -16 7.5t-5 17.5l16 71q2 11 10.5 18t17.5 7q42 2 74 24t58 65.5t46.5 107.5t38.5 150q18 85 25 149t0 107t-30 65.5t-64 24.5q-9 0 -14.5 7t-3.5 18l15 71q2 10 11 17.5t19 7.5q45 0 82.5 -16.5t65 -52t42 -90.5t12.5 -132t-23 -176q-27 -125 -58 -214
t-74 -145t-103 -82.5t-142 -26.5z" />
    <glyph glyph-name="asterisk" unicode="*" horiz-adv-x="445" 
d="M246 614l-1 86q-1 12 7.5 21t20.5 9h80q14 0 16.5 -10.5t-1.5 -19.5l-39 -86l86 46q9 5 20 4t13 -15l9 -78q2 -13 -7 -20t-20 -8l-92 -9l56 -57q7 -7 5.5 -17.5t-12.5 -18.5l-76 -49q-10 -6 -20.5 -3t-12.5 15l-17 82l-54 -84q-5 -8 -15.5 -13t-20.5 3l-55 49
q-10 9 -5.5 19.5t13.5 16.5l80 58l-87 7q-10 1 -16 10t0 20l43 79q6 11 17 13t17 -3z" />
    <glyph glyph-name="plus" unicode="+" horiz-adv-x="606" 
d="M213 33q-10 0 -16 7t-4 18l40 189h-185q-10 0 -15.5 7t-3.5 17l13 63q2 11 10.5 18t19.5 7h185l39 183q2 11 11 18t19 7h70q11 0 16 -7t3 -18l-39 -183h185q10 0 15.5 -7t3.5 -18l-13 -63q-2 -10 -10.5 -17t-19.5 -7h-185l-40 -189q-2 -11 -10 -18t-19 -7h-70z" />
    <glyph glyph-name="comma" unicode="," horiz-adv-x="277" 
d="M34 129q5 13 15 23t26 10h109q10 0 13.5 -8t-1.5 -16l-111 -186q-6 -10 -15 -18.5t-24 -8.5h-65q-8 0 -13 7t-1 16z" />
    <glyph glyph-name="hyphen" unicode="-" horiz-adv-x="478" 
d="M70 236q-11 0 -16 7t-3 17l17 80q2 10 10.5 17t18.5 7h311q10 0 16 -7t3 -17l-17 -80q-2 -10 -10.5 -17t-19.5 -7h-310z" />
    <glyph glyph-name="period" unicode="." horiz-adv-x="273" 
d="M21 0q-11 0 -16.5 7t-3.5 18l23 112q2 11 11 18t20 7h112q11 0 16.5 -7t3.5 -18l-24 -112q-2 -11 -10.5 -18t-19.5 -7h-112z" />
    <glyph glyph-name="slash" unicode="/" horiz-adv-x="526" 
d="M-34 -84q-11 0 -16 9.5t3 20.5l514 817q4 8 13.5 15.5t24.5 7.5h79q13 0 16.5 -9t-3.5 -21l-516 -817q-4 -7 -13 -15t-25 -8h-77z" />
    <glyph glyph-name="zero" unicode="0" horiz-adv-x="667" 
d="M281 -10q-85 1 -142 32t-81 91t-11 143q5 28 11.5 61.5t14 66.5t15.5 62q21 83 62 142t105 90.5t152 31.5q84 0 141.5 -31.5t83 -90.5t11.5 -142q-5 -29 -11.5 -62t-14 -66.5t-15.5 -61.5q-21 -83 -61.5 -143t-104 -91t-155.5 -32zM293 120q56 0 92.5 34.5t53.5 106.5
q8 29 15 59.5t13 61t11 59.5q12 70 -5.5 105t-75.5 36q-58 -1 -93.5 -36t-52.5 -105q-7 -29 -14.5 -59.5t-13 -61t-11.5 -59.5q-12 -72 5.5 -106.5t75.5 -34.5z" />
    <glyph glyph-name="one" unicode="1" horiz-adv-x="476" 
d="M211 0q-10 0 -16 7t-4 18l104 486l-162 -107q-11 -6 -20 -4.5t-14 10.5l-40 72q-4 9 -0.5 19t14.5 16l265 176q7 4 11.5 5.5t12.5 1.5h107q10 0 16 -7t4 -18l-139 -650q-2 -11 -10.5 -18t-18.5 -7h-110z" />
    <glyph glyph-name="two" unicode="2" horiz-adv-x="634" 
d="M19 0q-11 0 -16 7t-3 18l13 60q2 8 9 21.5t26 26.5l159 131q84 56 138.5 95t83.5 71t35 62q8 39 -8 64.5t-64 25.5q-32 0 -56.5 -13.5t-41 -35.5t-26.5 -48q-6 -13 -16.5 -18t-20.5 -5h-106q-9 0 -13.5 6.5t-3.5 14.5q11 46 38 87t67.5 73t93 50.5t112.5 18.5
q84 0 135.5 -27.5t70 -75.5t5.5 -111q-10 -48 -38.5 -89t-73 -78.5t-104.5 -77.5l-143 -118h272q11 0 16 -7t3 -18l-18 -85q-2 -11 -10.5 -18t-19.5 -7h-495z" />
    <glyph glyph-name="three" unicode="3" horiz-adv-x="644" 
d="M267 -10q-74 0 -123.5 18t-77.5 46t-38 61.5t-4 64.5q2 9 9.5 15t16.5 6h110q11 0 17 -4.5t10 -15.5q2 -23 17 -37t39 -19.5t52 -5.5q55 0 92.5 26t48.5 73q10 48 -16 69t-80 21h-107q-10 0 -16 7t-3 17l10 49q2 12 8.5 20t12.5 12l206 158h-282q-11 0 -16.5 7t-3.5 17
l17 80q2 11 10.5 18t19.5 7h444q11 0 16.5 -7t3.5 -18l-16 -72q-2 -11 -8 -18.5t-12 -11.5l-197 -161l10 -1q57 -6 98.5 -29t59 -65.5t2.5 -107.5q-14 -68 -61.5 -117t-117 -75.5t-151.5 -26.5z" />
    <glyph glyph-name="four" unicode="4" horiz-adv-x="676" 
d="M340 0q-10 0 -16 7t-4 18l26 120h-324q-11 0 -16 7t-4 18l18 81q2 10 6 16.5t9 11.5l381 404q16 17 40 17h137q11 0 16.5 -7t3.5 -18l-85 -397h89q12 0 17 -7t3 -17l-18 -84q-2 -11 -10.5 -18t-19.5 -7h-89l-26 -120q-2 -11 -10 -18t-19 -7h-105zM195 273h182l54 257z
" />
    <glyph glyph-name="five" unicode="5" horiz-adv-x="632" 
d="M258 -11q-87 0 -145 28.5t-83.5 75t-17.5 101.5q2 9 9 15t16 6h113q12 0 19.5 -5.5t7.5 -14.5q1 -27 13.5 -44t33 -25t46.5 -8q33 0 63 13.5t52 39.5t30 64q11 51 -12.5 81t-77.5 30q-26 0 -44.5 -6t-32.5 -14.5t-24.5 -15t-21.5 -6.5h-111q-10 0 -14.5 7.5t-1.5 17.5
l107 342q5 14 15 21.5t22 7.5h388q11 0 16.5 -7t3.5 -18l-17 -80q-3 -10 -11 -17t-19 -7h-289l-46 -147q22 13 52.5 23.5t83.5 10.5q48 0 88.5 -16.5t68.5 -47.5t39 -74t0 -95q-15 -72 -55 -125t-106 -82t-158 -29z" />
    <glyph glyph-name="six" unicode="6" horiz-adv-x="638" 
d="M274 -10q-88 0 -145.5 32t-81 88.5t-8.5 127.5q6 30 21.5 60t34 56.5t36.5 47.5t30 34l232 244q5 5 15 12.5t24 7.5h112q9 0 13.5 -6.5t2.5 -15.5q-1 -4 -2.5 -7.5t-3.5 -5.5l-179 -189q9 2 19.5 3t18.5 1q48 -2 88.5 -20t69 -49.5t39.5 -74.5t0 -96q-14 -67 -60.5 -124
t-117.5 -91.5t-158 -34.5zM300 119q33 0 63.5 13.5t53.5 40.5t31 65q8 39 -3.5 65.5t-36.5 40t-58 13.5t-64 -13.5t-53.5 -40t-30.5 -65.5q-8 -38 3 -65t36.5 -40.5t58.5 -13.5z" />
    <glyph glyph-name="seven" unicode="7" horiz-adv-x="558" 
d="M94 0q-9 0 -13.5 6.5t-2.5 15.5q1 5 4 9l349 535h-307q-10 0 -15.5 7t-3.5 17l18 85q2 11 11 18t19 7h453q12 0 17 -7t3 -18l-16 -75q-3 -15 -8 -24.5t-12 -19.5l-347 -532q-5 -6 -14.5 -15t-25.5 -9h-109z" />
    <glyph glyph-name="eight" unicode="8" horiz-adv-x="664" 
d="M279 -10q-90 0 -150.5 30.5t-86.5 80.5t-14 110q12 57 50 98t86 63q-27 23 -41.5 60t-4.5 84q11 57 49 100.5t98.5 68.5t140.5 25t134.5 -27t80 -72.5t13.5 -101.5q-9 -47 -34 -80t-68 -57q41 -26 58.5 -72t6.5 -98q-13 -61 -52.5 -109t-105.5 -75.5t-160 -27.5zM287 105
q37 0 68.5 13t53.5 36t29 53q10 48 -19 75t-82 27q-35 0 -67.5 -12.5t-54.5 -35t-29 -54.5q-9 -48 20 -75t81 -27zM354 418q32 1 60 12t47.5 30.5t25.5 45.5q9 41 -15 64.5t-74 23.5q-33 0 -61 -11t-47 -30.5t-25 -46.5q-9 -40 13.5 -64t75.5 -24z" />
    <glyph glyph-name="nine" unicode="9" horiz-adv-x="629" 
d="M130 0q-9 0 -13.5 6.5t-2.5 15.5q1 5 3 8t4 5l186 198q-18 -4 -36 -3q-48 2 -87.5 19.5t-66 48.5t-37 73t0.5 93q10 46 37 90t69 79t98.5 56t125.5 21t117.5 -19t77.5 -52.5t38 -77t-2 -92.5q-9 -44 -32.5 -82t-52.5 -71t-57 -64l-218 -232q-5 -5 -14.5 -12.5t-24.5 -7.5
h-113zM335 348q34 0 63.5 14t51 40t28.5 62q8 37 -2.5 63t-34 40t-56.5 14t-62.5 -14t-51 -40t-28.5 -63q-8 -36 2 -62t34 -40t56 -14z" />
    <glyph glyph-name="colon" unicode=":" horiz-adv-x="283" 
d="M97 350q-11 0 -16.5 7t-2.5 18l22 107q2 11 11 18t19 7h113q10 0 16 -7t3 -18l-22 -107q-3 -11 -11.5 -18t-19.5 -7h-112zM23 0q-11 0 -16.5 7t-3.5 18l22 107q2 11 11 18t20 7h112q11 0 16.5 -7t3.5 -18l-23 -107q-2 -11 -10.5 -18t-19.5 -7h-112z" />
    <glyph glyph-name="semicolon" unicode=";" horiz-adv-x="293" 
d="M-1 -75q-9 0 -12.5 6.5t-0.5 15.5l66 182q5 13 15.5 23t26.5 10h104q8 0 12 -5.5t3 -13.5q-1 -3 -5 -12l-108 -179q-7 -10 -16 -18.5t-25 -8.5h-60zM124 350q-11 0 -16.5 7t-3.5 18l23 107q2 11 10.5 18t19.5 7h112q11 0 16.5 -7t3.5 -18l-23 -107q-2 -11 -10.5 -18
t-19.5 -7h-112z" />
    <glyph glyph-name="less" unicode="&#x3c;" horiz-adv-x="510" 
d="M385 11q-4 0 -9 2.5t-8 4.5l-299 238q-12 10 -17 20t-2 24l5 28q4 15 13 24.5t26 19.5l399 237q5 3 11 5.5t10 2.5q8 0 13 -5.5t3 -15.5l-20 -91q-3 -15 -12.5 -23t-21.5 -15l-263 -153l198 -154q9 -6 15.5 -14t2.5 -23l-19 -91q-2 -10 -9.5 -15.5t-15.5 -5.5z" />
    <glyph glyph-name="equal" unicode="=" horiz-adv-x="569" 
d="M52 117q-11 0 -16.5 7t-3.5 18l14 66q2 11 10.5 18t19.5 7h390q11 0 16 -7t3 -18l-14 -66q-2 -11 -10.5 -18t-18.5 -7h-390zM105 367q-11 0 -16.5 7t-3.5 18l14 66q2 11 10.5 18t19.5 7h390q11 0 16 -7t3 -18l-13 -66q-2 -11 -11 -18t-19 -7h-390z" />
    <glyph glyph-name="greater" unicode="&#x3e;" horiz-adv-x="510" 
d="M34 11q-9 0 -13.5 5.5t-2.5 14.5l19 92q4 15 13.5 22.5t21.5 14.5l263 154l-197 153q-9 7 -16 15t-4 23l20 91q2 10 9 15.5t16 5.5q4 0 8.5 -2.5t8.5 -5.5l298 -238q13 -10 18 -19t2 -24l-6 -28q-3 -14 -12 -24t-26 -20l-399 -238q-5 -2 -11 -4.5t-10 -2.5z" />
    <glyph glyph-name="question" unicode="?" horiz-adv-x="580" 
d="M230 199q-8 0 -12.5 6t-3.5 14q1 7 2.5 14t3.5 14q12 37 36 66.5t52.5 54.5t56.5 46.5t48.5 43.5t26.5 44q8 26 -0.5 43.5t-28 27t-43.5 9.5q-44 0 -75.5 -21.5t-50.5 -65.5q-6 -11 -14 -17t-21 -6h-103q-10 0 -15 7t-3 18q10 40 36 78t67 68.5t95 48.5t120 18
q72 0 115.5 -18t66 -46.5t27 -61t-2.5 -61.5q-9 -37 -29.5 -66.5t-46.5 -54.5t-53 -48.5t-50 -47.5t-37 -50q-3 -8 -6 -15.5t-6 -15.5q-7 -13 -14.5 -19.5t-19.5 -6.5h-118zM187 0q-11 0 -16.5 7t-3.5 18l22 100q2 10 10.5 17.5t18.5 7.5h113q10 0 16 -7.5t4 -17.5l-22 -100
q-2 -11 -11 -18t-19 -7h-112z" />
    <glyph glyph-name="at" unicode="@" horiz-adv-x="841" 
d="M348 -127q-89 0 -151 22.5t-98.5 64t-50 99t-5.5 127.5q2 14 6 37t9.5 49t11 49t9.5 36q21 65 58.5 122t91.5 100.5t124.5 68.5t154.5 25q101 0 166 -23t100 -65.5t45 -100.5t0 -127q-3 -22 -8 -46.5t-10.5 -46t-8.5 -34.5q-14 -49 -41.5 -83t-63.5 -51t-76 -17
q-33 0 -55 9.5t-34.5 21.5t-17.5 21q-10 -12 -27 -27t-45 -25t-71 -10q-74 0 -105.5 54.5t-11.5 149.5t74 150t128 55q40 0 60 -13.5t30 -32.5l3 13q3 11 11.5 18t18.5 7h46q10 0 15.5 -7t3.5 -18l-44 -205q-7 -35 4.5 -53t36.5 -18q22 0 36.5 12t22.5 28.5t11 30.5
q5 20 12 50t11 62q12 77 -6 128.5t-73 76.5t-156 25q-84 0 -146.5 -28.5t-104.5 -80t-65 -121.5q-6 -17 -13 -48t-13 -62.5t-8 -50.5q-11 -108 43.5 -168t185.5 -60q65 0 105 8.5t65.5 22t44.5 25.5q9 6 16 10t17 4h63q10 0 15.5 -7t2.5 -18q-1 -4 -3 -7.5t-5 -6.5
q-34 -32 -82.5 -59.5t-112 -44.5t-146.5 -17zM396 159q44 0 69.5 29t37.5 85q8 38 4.5 63t-18.5 38.5t-45 13.5q-41 0 -67.5 -29.5t-39.5 -85.5q-7 -34 -3.5 -60t19 -40t43.5 -14z" />
    <glyph glyph-name="A" unicode="A" horiz-adv-x="708" 
d="M-29 0q-12 0 -16.5 10t1.5 20l374 643q6 11 16 19t27 8h134q16 0 23 -8t8 -19l102 -643q2 -14 -5 -22t-18 -8h-102q-15 0 -21 7t-8 16l-20 109h-282l-67 -112q-5 -7 -13 -13.5t-22 -6.5h-111zM249 261h207l-43 288z" />
    <glyph glyph-name="B" unicode="B" horiz-adv-x="696" 
d="M36 0q-10 0 -16 7t-4 18l138 650q2 11 11 18t19 7h287q78 0 128.5 -24t72 -68t8.5 -103q-8 -39 -27.5 -67t-42.5 -45.5t-43 -25.5q35 -20 56 -60.5t9 -97.5q-14 -63 -47.5 -110t-90.5 -73t-141 -26h-317zM195 117h153q47 0 79 27.5t40 65.5q9 39 -8.5 65.5t-70.5 26.5
h-154zM258 417h142q46 0 76 23.5t39 60.5q8 37 -9 59.5t-63 22.5h-149z" />
    <glyph glyph-name="C" unicode="C" horiz-adv-x="692" 
d="M301 -10q-68 0 -121 17.5t-87 52.5t-47 85.5t-2 115.5q7 41 17.5 88t20.5 90q22 86 66.5 146.5t114 92.5t164.5 32q65 0 118.5 -16.5t90 -48t52 -75t5.5 -97.5q-1 -9 -7.5 -15t-15.5 -6h-116q-12 0 -18.5 6t-7.5 20q3 57 -28.5 80t-83.5 23q-62 0 -107 -34t-64 -113
q-21 -82 -36 -168q-14 -79 14 -113t89 -34q52 0 93.5 22.5t67.5 80.5q8 15 15.5 20.5t19.5 5.5h115q9 0 14.5 -6t3.5 -15q-14 -52 -42 -95.5t-70.5 -75.5t-99 -49t-128.5 -17z" />
    <glyph glyph-name="D" unicode="D" horiz-adv-x="709" 
d="M36 0q-10 0 -16 7t-4 18l138 650q2 11 11 18t19 7h236q66 0 120 -18t90.5 -52.5t51.5 -85.5t3 -117q-8 -44 -15 -77t-18 -76q-23 -93 -64.5 -154t-109 -90.5t-170.5 -29.5h-272zM197 129h117q51 0 85.5 15t57 47.5t34.5 84.5q8 29 13 52t9.5 46t9.5 51q14 75 -14.5 110.5
t-104.5 35.5h-113z" />
    <glyph glyph-name="E" unicode="E" horiz-adv-x="629" 
d="M36 0q-10 0 -16 7t-4 18l138 650q2 11 11 18t19 7h453q11 0 16.5 -7t3.5 -18l-17 -80q-2 -10 -10.5 -17t-19.5 -7h-324l-34 -157h302q11 0 16.5 -7t3.5 -18l-16 -74q-2 -10 -10.5 -17t-19.5 -7h-301l-35 -162h332q11 0 16.5 -7t3.5 -18l-17 -79q-2 -11 -10.5 -18
t-19.5 -7h-461z" />
    <glyph glyph-name="F" unicode="F" horiz-adv-x="610" 
d="M36 0q-10 0 -16 7t-4 18l138 650q2 11 11 18t19 7h447q11 0 16.5 -7t3.5 -18l-19 -85q-2 -11 -10 -18t-19 -7h-315l-37 -169h295q11 0 16.5 -7t3.5 -18l-18 -85q-2 -10 -10.5 -17t-19.5 -7h-295l-51 -237q-2 -11 -10 -18t-19 -7h-107z" />
    <glyph glyph-name="G" unicode="G" horiz-adv-x="710" 
d="M304 -10q-94 0 -154 31.5t-83.5 92t-8.5 146.5q8 43 18.5 92t21.5 93q20 84 69.5 143t123.5 90.5t166 31.5q74 0 126 -19t83.5 -49.5t43.5 -66.5t6 -69q-1 -9 -8.5 -15.5t-17.5 -6.5h-124q-10 0 -14.5 4t-7.5 12q-2 18 -13.5 36.5t-35.5 31.5t-66 13q-62 0 -106 -33
t-62 -108q-11 -43 -20.5 -87t-17.5 -88q-13 -78 17.5 -112t92.5 -34q42 0 77.5 14.5t61 45.5t35.5 79l5 25h-109q-10 0 -15.5 7.5t-3.5 17.5l14 64q2 11 10.5 18t19.5 7h245q11 0 16.5 -7t3.5 -18l-24 -109q-17 -86 -68 -147t-127.5 -93.5t-169.5 -32.5z" />
    <glyph glyph-name="H" unicode="H" horiz-adv-x="737" 
d="M36 0q-10 0 -16 7t-4 18l138 650q2 11 11 18t19 7h109q11 0 16.5 -7t3.5 -18l-53 -250h271l54 250q2 11 10.5 18t18.5 7h109q11 0 16.5 -7t3.5 -18l-138 -650q-2 -11 -10.5 -18t-19.5 -7h-109q-10 0 -16 7t-4 18l55 258h-271l-55 -258q-2 -11 -10.5 -18t-19.5 -7h-109z
" />
    <glyph glyph-name="I" unicode="I" horiz-adv-x="311" 
d="M36 0q-11 0 -16.5 7t-3.5 18l139 650q2 11 10.5 18t18.5 7h114q10 0 16 -7t4 -18l-139 -650q-2 -11 -10.5 -18t-18.5 -7h-114z" />
    <glyph glyph-name="J" unicode="J" horiz-adv-x="657" 
d="M258 -10q-50 0 -98.5 14t-87 42.5t-57 70.5t-9.5 98q2 9 8.5 15.5t16.5 6.5h115q14 0 19.5 -7t6.5 -20q-2 -48 23 -69.5t73 -21.5q62 0 98.5 37t51.5 105l65 306h-332q-10 0 -15.5 7t-3.5 17l18 84q2 11 10 18t19 7h471q11 0 16.5 -7t3.5 -18l-89 -418
q-18 -86 -58 -145.5t-105 -90.5t-160 -31z" />
    <glyph glyph-name="K" unicode="K" horiz-adv-x="639" 
d="M36 0q-10 0 -16 7t-4 18l138 650q2 11 10.5 18t18.5 7h108q11 0 16.5 -7t3.5 -18l-48 -223l242 229q5 6 15 12.5t27 6.5h124q15 0 18.5 -12.5t-5.5 -20.5l-320 -313l206 -321q8 -13 -0.5 -23t-19.5 -10h-118q-16 0 -24 6t-11 13l-170 260l-55 -254q-2 -11 -9.5 -18
t-18.5 -7h-108z" />
    <glyph glyph-name="L" unicode="L" horiz-adv-x="583" 
d="M36 0q-10 0 -16 7t-4 18l139 650q2 11 10.5 18t18.5 7h112q10 0 16 -7t4 -18l-116 -541h310q11 0 16.5 -7t3.5 -18l-18 -84q-2 -11 -10 -18t-19 -7h-447z" />
    <glyph glyph-name="M" unicode="M" horiz-adv-x="820" 
d="M37 0q-11 0 -17 7t-4 18l138 650q2 11 11 18t20 7h93q15 0 21 -8t8 -12l113 -339l257 339q3 4 12 12t24 8h93q11 0 16.5 -7t3.5 -18l-138 -650q-2 -11 -10.5 -18t-19.5 -7h-102q-10 0 -16 7t-4 18l85 396l-173 -230q-7 -9 -16.5 -16t-22.5 -7h-46q-14 0 -20 7t-9 16
l-80 243l-86 -409q-2 -11 -10.5 -18t-18.5 -7h-102z" />
    <glyph glyph-name="N" unicode="N" horiz-adv-x="714" 
d="M36 0q-10 0 -16 7t-4 18l138 650q2 11 10.5 18t19.5 7h90q15 0 21 -6.5t7 -11.5l179 -420l88 413q2 11 10.5 18t19.5 7h101q11 0 16.5 -7t3.5 -18l-138 -650q-2 -10 -10.5 -17.5t-18.5 -7.5h-91q-15 0 -20.5 7t-7.5 11l-181 408l-85 -401q-2 -11 -10.5 -18t-19.5 -7h-102
z" />
    <glyph glyph-name="O" unicode="O" horiz-adv-x="703" 
d="M300 -10q-62 0 -114.5 17t-88 51t-50 85t-2.5 120q7 43 16.5 85.5t19.5 86.5q33 135 118.5 205t226.5 70q62 0 114 -17.5t88 -52.5t50.5 -86t2.5 -119q-8 -44 -17 -86.5t-20 -85.5q-34 -138 -119 -205.5t-225 -67.5zM311 119q60 0 106 35.5t64 113.5q11 44 19.5 82.5
t15.5 81.5q15 78 -12.5 113.5t-88.5 35.5t-106 -35.5t-64 -113.5q-11 -43 -19 -81.5t-16 -82.5q-14 -78 12.5 -113.5t88.5 -35.5z" />
    <glyph glyph-name="P" unicode="P" horiz-adv-x="668" 
d="M36 0q-10 0 -16 7t-4 18l138 650q2 11 11 18t19 7h261q60 0 108 -14t79.5 -42.5t43.5 -71t0 -98.5q-24 -114 -99.5 -168.5t-200.5 -54.5h-148l-48 -226q-2 -11 -10.5 -18t-19.5 -7h-114zM252 375h129q48 0 84.5 25t47.5 75q6 30 2.5 52.5t-23.5 35t-63 12.5h-134z" />
    <glyph glyph-name="Q" unicode="Q" horiz-adv-x="703" 
d="M459 -65q-15 0 -21.5 8.5t-10.5 14.5l-26 48q-46 -16 -101 -16q-91 0 -150.5 30t-83.5 90.5t-8 152.5q8 43 17.5 85.5t19.5 86.5q22 90 73 151.5t124 92.5t161 31t148 -31t85 -92.5t8 -151.5q-7 -44 -16 -86.5t-20 -85.5q-33 -128 -114 -195l50 -102q2 -5 1 -10
q-1 -8 -8.5 -14.5t-16.5 -6.5h-111zM328 119q59 0 104 35.5t63 113.5q11 44 19 82.5t15 81.5q10 52 -0.5 85t-37 48.5t-65.5 15.5q-58 0 -103.5 -35.5t-64.5 -113.5q-10 -43 -18 -81.5t-16 -82.5q-10 -52 0.5 -85t37.5 -48.5t66 -15.5z" />
    <glyph glyph-name="R" unicode="R" horiz-adv-x="682" 
d="M50 0q-11 0 -16 7t-3 18l137 650q2 11 11 18t20 7h265q125 0 184.5 -57.5t36.5 -165.5q-15 -73 -60.5 -122t-109.5 -73l88 -250q1 -3 1.5 -5t-0.5 -6q-2 -8 -9.5 -14.5t-16.5 -6.5h-111q-18 0 -24.5 9.5t-9.5 17.5l-73 229h-121l-50 -231q-2 -11 -10.5 -18t-19.5 -7h-109
zM265 383h129q54 0 86 25t42 70q9 45 -11.5 71t-75.5 26h-129z" />
    <glyph glyph-name="S" unicode="S" horiz-adv-x="651" 
d="M273 -10q-96 0 -157.5 27.5t-88 73t-18.5 96.5q1 8 7.5 14.5t15.5 6.5h109q13 0 19 -5.5t11 -13.5q3 -17 15.5 -33t36.5 -26.5t61 -10.5q66 0 104 21t46 57q6 26 -8 42t-49.5 29t-93.5 28q-72 16 -118 44.5t-63.5 71.5t-4.5 103q19 90 96 142.5t200 52.5q64 0 112.5 -18
t81 -47t46.5 -62t9 -64q-1 -8 -7.5 -14.5t-15.5 -6.5h-114q-10 0 -17 4t-11 14q0 26 -25.5 45.5t-68.5 19.5q-49 0 -83 -18t-43 -55q-5 -24 6.5 -40.5t43 -29t86.5 -27.5q84 -18 133 -46t66.5 -70t4.5 -102q-21 -100 -104 -151.5t-220 -51.5z" />
    <glyph glyph-name="T" unicode="T" horiz-adv-x="614" 
d="M188 0q-10 0 -16 7t-4 18l115 536h-182q-10 0 -16 7t-4 17l19 90q2 11 10.5 18t19.5 7h524q11 0 16.5 -7t3.5 -18l-20 -90q-2 -10 -10 -17t-19 -7h-181l-115 -536q-2 -11 -10.5 -18t-19.5 -7h-111z" />
    <glyph glyph-name="U" unicode="U" horiz-adv-x="719" 
d="M307 -10q-64 0 -116 16.5t-86.5 50.5t-46.5 86t3 124l87 408q2 11 10.5 18t19.5 7h109q11 0 16.5 -7t3.5 -18l-87 -407q-16 -74 7 -110t91 -36q67 0 109.5 36t57.5 110l87 407q2 11 11 18t19 7h110q10 0 15.5 -7t3.5 -18l-86 -408q-31 -143 -112.5 -210t-225.5 -67z" />
    <glyph glyph-name="V" unicode="V" horiz-adv-x="684" 
d="M212 0q-16 0 -24 8.5t-9 20.5l-74 644q-1 13 6 20t18 7h102q15 0 21.5 -8t7.5 -16l52 -489l259 489q3 8 12.5 16t24.5 8h115q12 0 15.5 -9.5t-2.5 -20.5l-345 -641q-6 -12 -17 -20.5t-28 -8.5h-134z" />
    <glyph glyph-name="W" unicode="W" horiz-adv-x="816" 
d="M124 0q-16 0 -23.5 9t-6.5 22l17 646q0 9 7 16t17 7h102q14 0 20 -6t5 -18l-13 -414l135 257q5 8 14 17t24 9h63q16 0 21 -9t6 -17l28 -262l164 422q8 21 34 21h109q12 0 15.5 -8t-0.5 -17l-244 -644q-5 -13 -16.5 -22t-27.5 -9h-83q-17 0 -23.5 8.5t-8.5 17.5l-48 309
l-163 -309q-5 -9 -15 -17.5t-26 -8.5h-83z" />
    <glyph glyph-name="X" unicode="X" horiz-adv-x="676" 
d="M-25 0q-12 0 -17 11.5t4 21.5l301 328l-154 307q-6 11 1 21.5t20 10.5h109q18 0 24.5 -7.5t8.5 -12.5l102 -204l182 204q5 5 13.5 12.5t26.5 7.5h120q13 0 17.5 -11.5t-4.5 -21.5l-286 -328l155 -308q5 -10 -1.5 -20.5t-20.5 -10.5h-108q-17 0 -24 7.5t-9 11.5l-103 202
l-187 -202q-3 -4 -12 -11.5t-27 -7.5h-131z" />
    <glyph glyph-name="Y" unicode="Y" horiz-adv-x="670" 
d="M217 0q-10 0 -16 7t-4 18l47 220l-144 423q-4 12 3.5 22t20.5 10h100q13 0 19.5 -7t8.5 -13l97 -274l214 274q4 6 13.5 13t22.5 7h117q15 0 17 -11t-6 -21l-324 -423l-47 -220q-2 -11 -10.5 -18t-19.5 -7h-109z" />
    <glyph glyph-name="Z" unicode="Z" horiz-adv-x="634" 
d="M-1 0q-10 0 -16 7.5t-4 17.5l19 84q3 14 10.5 23t11.5 13l417 422h-308q-10 0 -15.5 7t-3.5 17l17 84q2 11 10.5 18t19.5 7h491q11 0 16.5 -7t3.5 -18l-18 -83q-2 -11 -8 -19t-12 -15l-410 -424h319q11 0 16.5 -7t3.5 -18l-18 -84q-2 -11 -10 -18t-19 -7h-513z" />
    <glyph glyph-name="bracketleft" unicode="[" horiz-adv-x="368" 
d="M-8 -159q-10 0 -15.5 7t-4.5 18l189 885q2 11 10.5 18t18.5 7h230q10 0 16 -7t4 -18l-16 -73q-2 -10 -10.5 -17t-19.5 -7h-115l-146 -682h116q10 0 16 -7t4 -17l-18 -82q-2 -11 -10.5 -18t-18.5 -7h-230z" />
    <glyph glyph-name="backslash" unicode="\" horiz-adv-x="513" 
d="M323 -84q-16 0 -23 8t-9 18l-168 817q-2 11 4 19t19 8h69q15 0 22 -8t9 -18l167 -817q2 -11 -4 -19t-18 -8h-68z" />
    <glyph glyph-name="bracketright" unicode="]" horiz-adv-x="367" 
d="M380 776q10 0 16 -7t4 -18l-189 -885q-2 -11 -10.5 -18t-18.5 -7h-229q-10 0 -15.5 7t-4.5 18l18 82q2 10 10.5 17t18.5 7h116l145 682h-115q-11 0 -16.5 7t-3.5 17l16 73q2 11 10.5 18t18.5 7h229z" />
    <glyph glyph-name="asciicircum" unicode="^" horiz-adv-x="456" 
d="M143 585q-15 0 -12 14q1 8 11 16l122 104q13 11 21 14t17 3h67q9 0 16 -3t15 -14l78 -104q6 -8 5 -16q-3 -14 -19 -14h-42q-8 0 -16 1.5t-15 5.5l-75 51l-97 -51q-8 -4 -17 -5.5t-17 -1.5h-42z" />
    <glyph glyph-name="underscore" unicode="_" horiz-adv-x="736" 
d="M0 -64q-10 0 -16 7t-4 18l18 79q2 11 10.5 18t18.5 7h591q10 0 15.5 -7t3.5 -18l-17 -79q-2 -11 -10.5 -18t-18.5 -7h-591z" />
    <glyph glyph-name="grave" unicode="`" horiz-adv-x="273" 
d="M173 595q-13 0 -20 3.5t-14 10.5l-105 104q-4 6 -3 13q3 20 22 20h121q13 0 19.5 -3.5t13.5 -15.5l63 -102q4 -6 2 -14q-3 -16 -19 -16h-80z" />
    <glyph glyph-name="a" unicode="a" horiz-adv-x="616" 
d="M197 -10q-50 0 -86.5 16.5t-57.5 48t-27.5 75t2.5 96.5q3 19 6.5 34.5t7.5 33.5q13 52 35 95t54 74.5t74.5 49t95.5 17.5q62 0 94 -18.5t50 -45.5l6 29q2 11 10.5 18t18.5 7h95q11 0 16.5 -7t3.5 -18l-100 -470q-2 -11 -10 -18t-19 -7h-95q-11 0 -16.5 7t-3.5 18l7 34
q-30 -30 -66 -49.5t-95 -19.5zM254 110q38 0 64.5 17t43 43t24.5 56q5 19 9 38t7 37q5 28 0 52.5t-23.5 40.5t-54.5 16q-35 0 -60 -16.5t-41 -43.5t-25 -59q-4 -15 -8 -31t-6 -31q-4 -32 -1.5 -59t19.5 -43.5t52 -16.5z" />
    <glyph glyph-name="b" unicode="b" horiz-adv-x="621" 
d="M307 -10q-57 0 -94.5 19.5t-54.5 49.5l-8 -34q-2 -11 -10.5 -18t-18.5 -7h-96q-10 0 -15.5 7t-3.5 18l140 660q2 11 10.5 18t19.5 7h103q10 0 15.5 -7t3.5 -18l-46 -218q30 28 66 45.5t87 17.5q52 0 88.5 -17t58 -48t28.5 -74t-2 -94q-3 -19 -6.5 -36.5t-8.5 -36.5
q-18 -71 -52.5 -123.5t-85 -81.5t-118.5 -29zM279 110q37 0 62.5 16.5t41.5 43.5t26 59q5 15 8.5 31t4.5 31q5 32 2 59t-20 43.5t-56 16.5q-35 0 -62.5 -16t-44.5 -40.5t-25 -52.5q-5 -18 -9 -37t-6 -38q-5 -30 -0.5 -56t23 -43t55.5 -17z" />
    <glyph glyph-name="c" unicode="c" horiz-adv-x="579" 
d="M236 -10q-68 0 -120.5 27t-77 78.5t-12.5 123.5q3 16 8 40.5t9 40.5q27 109 102.5 169.5t189.5 60.5q65 0 109 -19t70 -47.5t35.5 -59t6.5 -53.5q-1 -11 -9 -18t-18 -7h-109q-10 0 -15.5 5t-7.5 16q-1 35 -19.5 51t-53.5 16q-45 0 -78.5 -29t-48.5 -90q-5 -19 -9 -37.5
t-6 -33.5q-10 -62 7.5 -90t62.5 -28q35 0 62 15t46 50q6 11 12.5 16t17.5 5h108q11 0 16.5 -7.5t2.5 -17.5q-6 -21 -24.5 -51t-52 -59t-84 -48t-120.5 -19z" />
    <glyph glyph-name="d" unicode="d" horiz-adv-x="621" 
d="M199 -10q-50 0 -87 16.5t-58.5 48t-28 75t1.5 96.5q4 19 7 34.5t8 33.5q13 52 35 95t54 74.5t74 49t93 17.5q54 0 90 -17.5t54 -45.5l46 218q2 11 10.5 18t18.5 7h103q11 0 16.5 -7t3.5 -18l-140 -660q-2 -11 -10.5 -18t-19.5 -7h-95q-11 0 -16.5 7t-3.5 18l7 34
q-30 -30 -67 -49.5t-96 -19.5zM256 110q38 0 65 17t44.5 43t24.5 56q5 19 9 38t7 37q6 28 0 52.5t-25 40.5t-55 16q-35 0 -61 -16.5t-42 -43.5t-26 -59q-4 -15 -7.5 -31t-5.5 -31q-4 -32 -1 -59t20.5 -43.5t52.5 -16.5z" />
    <glyph glyph-name="e" unicode="e" horiz-adv-x="583" 
d="M244 -10q-76 0 -126.5 28.5t-69.5 84.5t-5 137q2 8 4.5 21.5t5.5 21.5q20 77 62.5 132.5t105 85t137.5 29.5q84 0 132.5 -34.5t64.5 -94t0 -136.5l-4 -23q-2 -10 -11 -17t-20 -7h-326q0 -1 -0.5 -3.5t-1.5 -4.5q-5 -32 0 -58.5t23.5 -42.5t48.5 -16q24 0 42 7t30.5 17
t19.5 17q11 10 17 12.5t18 2.5h104q10 0 15 -5.5t2 -15.5q-4 -16 -24.5 -39.5t-55.5 -46t-82.5 -37.5t-105.5 -15zM214 309h196v2q9 36 2.5 62.5t-25.5 41.5t-50 15t-56 -15t-41.5 -41.5t-25.5 -62.5v-2z" />
    <glyph glyph-name="f" unicode="f" horiz-adv-x="425" 
d="M81 0q-10 0 -16 7t-4 18l81 377h-79q-10 0 -15.5 7t-3.5 18l14 68q2 11 11 18t19 7h79l8 36q14 64 45 105t78 60t109 19h87q10 0 15.5 -7t3.5 -18l-15 -68q-2 -11 -10.5 -18t-19.5 -7h-63q-37 0 -57 -18t-27 -53l-7 -31h123q10 0 15.5 -7t3.5 -18l-15 -68
q-2 -11 -10.5 -18t-18.5 -7h-123l-81 -377q-2 -11 -10 -18t-19 -7h-98z" />
    <glyph glyph-name="g" unicode="g" horiz-adv-x="623" 
d="M203 -220q-72 0 -117 19.5t-70 47t-33.5 54.5t-5.5 42q2 11 9.5 18t17.5 7h110q9 0 14 -4.5t7 -15.5q2 -12 8 -25.5t22 -22.5t48 -9q30 0 56 10t45.5 34t27.5 65l14 67q-29 -26 -64.5 -43t-88.5 -17q-54 0 -91 16.5t-58 47t-27 73.5t3 97q2 15 4.5 26.5t6.5 26.5
q14 52 36 95t53 74.5t72.5 49t95.5 17.5q55 0 92.5 -21t55.5 -52l8 38q2 10 11 17.5t19 7.5h98q11 0 16.5 -7.5t3.5 -17.5l-102 -481q-11 -56 -34 -99.5t-59 -73.5t-86.5 -45.5t-117.5 -15.5zM259 124q36 0 63 16.5t44.5 42t25.5 53.5q3 11 7 31.5t6 31.5q4 28 -1 53.5
t-23.5 41.5t-54.5 16t-62 -16.5t-42.5 -43.5t-25.5 -59q-3 -11 -5.5 -23.5t-4.5 -23.5q-5 -33 -2 -60t20.5 -43.5t54.5 -16.5z" />
    <glyph glyph-name="h" unicode="h" horiz-adv-x="639" 
d="M25 0q-10 0 -16 7t-4 18l141 660q2 11 10.5 18t18.5 7h108q11 0 16.5 -7t3.5 -18l-48 -225q31 32 70.5 51t93.5 19q64 0 106 -26.5t58 -77t1 -122.5l-60 -279q-2 -11 -10.5 -18t-18.5 -7h-109q-11 0 -16.5 7t-3.5 18l58 273q11 53 -5.5 82.5t-65.5 29.5q-31 0 -58.5 -13
t-47 -38t-27.5 -61l-58 -273q-2 -11 -10 -18t-19 -7h-108z" />
    <glyph glyph-name="i" unicode="i" horiz-adv-x="275" 
d="M25 0q-10 0 -16 7t-4 18l100 470q2 11 11 18t19 7h100q11 0 16 -7t3 -18l-100 -470q-2 -11 -10 -18t-19 -7h-100zM150 600q-11 0 -16.5 7t-3.5 18l17 80q2 11 10.5 18.5t19.5 7.5h105q11 0 16.5 -7.5t3.5 -18.5l-18 -80q-1 -11 -10 -18t-19 -7h-105z" />
    <glyph glyph-name="j" unicode="j" horiz-adv-x="291" 
d="M-127 -190q-10 0 -15.5 7t-3.5 18l15 68q2 11 10.5 18t18.5 7h34q36 0 54.5 22.5t25.5 56.5l104 488q2 11 10.5 18t19.5 7h104q11 0 16 -7t3 -18l-104 -491q-13 -61 -42.5 -104.5t-77.5 -66.5t-117 -23h-55zM160 600q-10 0 -15.5 7t-4.5 18l18 80q2 11 10.5 18.5
t18.5 7.5h110q11 0 16.5 -7.5t3.5 -18.5l-17 -80q-2 -11 -11 -18t-19 -7h-110z" />
    <glyph glyph-name="k" unicode="k" horiz-adv-x="570" 
d="M25 0q-10 0 -16 7t-4 18l141 660q2 11 10.5 18t18.5 7h98q11 0 16.5 -7t3.5 -18l-71 -335l182 153q9 7 17 12t22 5h122q16 0 18 -13.5t-13 -25.5l-235 -203l163 -242q8 -12 1.5 -24t-22.5 -12h-110q-14 0 -20.5 5t-10.5 11l-141 209l-43 -200q-2 -11 -10 -18t-19 -7h-98z
" />
    <glyph glyph-name="l" unicode="l" horiz-adv-x="276" 
d="M25 0q-10 0 -16 7t-4 18l141 660q2 11 10.5 18t18.5 7h100q11 0 16.5 -7t3.5 -18l-141 -660q-2 -11 -10 -18t-19 -7h-100z" />
    <glyph glyph-name="m" unicode="m" horiz-adv-x="909" 
d="M25 0q-10 0 -16 7t-4 18l100 470q2 11 11 18t19 7h93q10 0 15.5 -7t3.5 -18l-7 -34q18 19 38.5 34.5t48 25t64.5 9.5q58 0 94.5 -23t50.5 -65q31 39 72.5 63.5t97.5 24.5q54 0 93 -23.5t55.5 -72t0.5 -124.5l-61 -285q-2 -11 -10.5 -18t-18.5 -7h-99q-10 0 -16 7t-4 18
l60 277q8 41 2.5 64.5t-21.5 33.5t-41 10q-20 0 -43 -10t-42 -33.5t-27 -64.5l-60 -277q-2 -11 -10 -18t-19 -7h-98q-11 0 -16.5 7t-3.5 18l59 277q9 41 3 64.5t-22.5 33.5t-39.5 10q-21 0 -44 -10.5t-41.5 -33.5t-27.5 -63l-59 -278q-2 -11 -10.5 -18t-18.5 -7h-101z" />
    <glyph glyph-name="n" unicode="n" horiz-adv-x="633" 
d="M25 0q-10 0 -16 7t-4 18l100 470q2 11 11 18t19 7h98q11 0 16 -7t3 -18l-8 -39q31 32 74.5 53t98.5 21q66 0 106.5 -26.5t55 -77t-0.5 -122.5l-60 -279q-2 -11 -10.5 -18t-19.5 -7h-106q-10 0 -16 7t-4 18l58 273q12 56 -2.5 84t-66.5 28q-51 0 -86.5 -29.5t-46.5 -82.5
l-58 -273q-2 -11 -10.5 -18t-18.5 -7h-106z" />
    <glyph glyph-name="o" unicode="o" horiz-adv-x="600" 
d="M242 -10q-78 0 -130.5 27.5t-74.5 78.5t-11 119q2 20 7.5 45.5t11.5 44.5q18 69 56 119.5t98 78t142 27.5q77 0 129.5 -27.5t76 -78t11.5 -119.5q-3 -19 -8.5 -44.5t-10.5 -45.5q-18 -68 -55 -119t-97 -78.5t-145 -27.5zM254 100q50 0 83 30.5t48 89.5q4 15 9.5 40
t7.5 40q10 58 -7 89t-66 31t-82 -31t-48 -89q-4 -15 -9.5 -40t-7.5 -40q-10 -59 6.5 -89.5t65.5 -30.5z" />
    <glyph glyph-name="p" unicode="p" horiz-adv-x="621" 
d="M-15 -190q-11 0 -16.5 7t-3.5 18l141 660q2 11 10.5 18t18.5 7h96q10 0 15.5 -7t3.5 -18l-8 -38q31 32 68 52.5t96 20.5q51 0 87.5 -16.5t58 -48t28.5 -75t-2 -96.5q-3 -19 -6.5 -34t-8.5 -34q-13 -51 -35 -94.5t-54 -75t-73.5 -49t-93.5 -17.5q-54 0 -89.5 18.5
t-52.5 50.5l-48 -224q-2 -11 -10.5 -18t-18.5 -7h-103zM279 110q36 0 61.5 16.5t42 43.5t26.5 59q5 15 8 31t5 31q4 32 0.5 59t-20.5 43.5t-53 16.5q-37 0 -64.5 -17t-44.5 -43t-25 -56q-5 -18 -9 -37t-7 -38q-5 -28 0.5 -52.5t24.5 -40.5t55 -16z" />
    <glyph glyph-name="q" unicode="q" horiz-adv-x="622" 
d="M327 -190q-10 0 -15.5 7t-3.5 18l48 224q-30 -32 -67 -50.5t-88 -18.5t-88 17t-58.5 48t-28.5 74t2 94q3 20 7 37t8 36q19 72 53 124t84.5 81t118.5 29q57 0 94.5 -20.5t54.5 -52.5l8 38q2 11 10.5 18t19.5 7h95q11 0 16 -7t3 -18l-139 -660q-2 -11 -11 -18t-20 -7h-103z
M258 110q36 0 63 16t44.5 40.5t24.5 52.5q5 19 9 38t7 37q5 30 0 56t-23 43t-56 17q-36 0 -61.5 -16.5t-42 -43.5t-25.5 -59q-4 -15 -7.5 -31t-5.5 -31q-5 -32 -2 -59t20 -43.5t55 -16.5z" />
    <glyph glyph-name="r" unicode="r" horiz-adv-x="437" 
d="M25 0q-10 0 -16 7t-4 18l100 470q2 10 11 17.5t19 7.5h98q10 0 15.5 -7.5t3.5 -17.5l-8 -40q24 30 60.5 47.5t89.5 17.5h53q10 0 15.5 -7t3.5 -18l-19 -86q-2 -11 -10.5 -18t-18.5 -7h-87q-45 0 -74.5 -24.5t-39.5 -69.5l-57 -265q-2 -11 -10.5 -18t-19.5 -7h-105z" />
    <glyph glyph-name="s" unicode="s" horiz-adv-x="542" 
d="M217 -10q-62 0 -103.5 14.5t-64.5 35.5t-31.5 42.5t-6.5 36.5q2 11 10.5 18t17.5 7h96q4 0 6.5 -1t5.5 -5q11 -9 22.5 -20.5t28.5 -19.5t44 -8q33 0 59 13.5t31 38.5q4 18 -4 30t-35 22t-81 22q-51 12 -84.5 32t-46.5 50.5t-4 73.5q9 39 40.5 75t85 59.5t125.5 23.5
q55 0 94 -13.5t62.5 -34t33 -42t6.5 -37.5q-1 -10 -9.5 -17t-17.5 -7h-88q-5 0 -8.5 1.5t-5.5 4.5q-11 8 -21 18.5t-25.5 18.5t-42.5 8q-33 0 -53.5 -14.5t-25.5 -36.5q-3 -14 3.5 -26t32 -22t80.5 -21q65 -12 100.5 -36t46 -55.5t2.5 -67.5q-9 -47 -45 -83.5t-94 -57
t-136 -20.5z" />
    <glyph glyph-name="t" unicode="t" horiz-adv-x="442" 
d="M256 0q-68 0 -109 20.5t-54.5 63.5t-0.5 108l45 210h-78q-11 0 -16.5 7t-3.5 18l14 68q2 11 11 18t19 7h79l35 165q2 11 10.5 18t19.5 7h98q10 0 16 -7t4 -18l-36 -165h125q11 0 16 -7t3 -18l-14 -68q-2 -11 -10.5 -18t-19.5 -7h-125l-42 -198q-5 -25 -5.5 -43.5t10 -28
t36.5 -9.5h76q10 0 15.5 -7t3.5 -17l-16 -74q-2 -11 -10 -18t-19 -7h-77z" />
    <glyph glyph-name="u" unicode="u" horiz-adv-x="631" 
d="M199 -10q-62 0 -103 26.5t-56 77t1 122.5l59 279q2 11 10.5 18t19.5 7h106q10 0 15.5 -7t3.5 -18l-58 -273q-8 -37 -5 -62t21 -37.5t53 -12.5q48 0 84 29.5t47 82.5l58 273q2 11 11 18t19 7h106q11 0 16 -7t3 -18l-100 -470q-2 -11 -10 -18t-19 -7h-98q-11 0 -16.5 7
t-3.5 18l8 39q-22 -23 -45.5 -40t-53 -25.5t-73.5 -8.5z" />
    <glyph glyph-name="v" unicode="v" horiz-adv-x="584" 
d="M183 0q-15 0 -21 7.5t-8 17.5l-89 467q-2 13 4.5 20.5t19.5 7.5h91q12 0 18 -6.5t8 -16.5l52 -327l194 330q3 6 11 13t21 7h103q12 0 17 -9.5t-3 -21.5l-287 -464q-7 -10 -15 -17.5t-23 -7.5h-93z" />
    <glyph glyph-name="w" unicode="w" horiz-adv-x="830" 
d="M141 0q-14 0 -20 7t-7 18l-46 467q-1 11 6.5 19.5t20.5 8.5h84q13 0 18.5 -6t6.5 -14l27 -309l161 307q4 7 12 14.5t22 7.5h59q14 0 19.5 -7.5t6.5 -14.5l33 -307l157 309q3 6 10.5 13t20.5 7h95q14 0 17 -9.5t-2 -20.5l-242 -465q-5 -11 -14 -18t-23 -7h-78
q-14 0 -20.5 7t-8.5 18l-41 296l-159 -296q-6 -11 -15 -18t-24 -7h-76z" />
    <glyph glyph-name="x" unicode="x" horiz-adv-x="575" 
d="M-20 0q-15 0 -19 13t5 23l222 235l-110 215q-5 11 2 22.5t20 11.5h100q12 0 17.5 -6t8.5 -11l74 -139l134 139q5 5 12.5 11t22.5 6h106q14 0 18.5 -13t-5.5 -23l-213 -226l113 -224q6 -11 0.5 -22.5t-21.5 -11.5h-102q-12 0 -17.5 5.5t-8.5 10.5l-77 145l-140 -145
q-4 -4 -11 -10t-22 -6h-109z" />
    <glyph glyph-name="y" unicode="y" horiz-adv-x="591" 
d="M54 -190q-12 0 -16 10.5t4 21.5l122 192l-98 457q-2 11 4.5 20t21.5 9h91q12 0 17.5 -6t6.5 -14l61 -310l196 310q5 8 12.5 14t20.5 6h102q11 0 16 -9t-2 -21l-426 -660q-4 -8 -12 -14t-21 -6h-100z" />
    <glyph glyph-name="z" unicode="z" horiz-adv-x="540" 
d="M1 0q-11 0 -17 7t-4 18l15 67q2 9 6 15.5t10 11.5l305 285h-222q-10 0 -15.5 7t-3.5 17l14 67q2 11 10.5 18t19.5 7h390q11 0 16 -7t3 -18l-14 -72q-3 -14 -16 -25l-299 -282h245q11 0 16.5 -7t2.5 -17l-14 -67q-2 -11 -10.5 -18t-18.5 -7h-419z" />
    <glyph glyph-name="braceleft" unicode="{" horiz-adv-x="411" 
d="M276 -158q-58 0 -100.5 18t-68 54.5t-31 90.5t10.5 126q9 44 2 73t-32 44l-11 5q-23 15 -18 40l7 32q4 14 11.5 23t23.5 17l13 5q32 16 51 44.5t29 72.5q15 72 43.5 126t68.5 90t90 54t109 19h6q9 0 14 -6.5t3 -15.5l-16 -77q-2 -10 -9.5 -16t-15.5 -6h-4
q-44 -3 -73.5 -22t-49 -58.5t-33.5 -103.5q-12 -62 -41.5 -104t-66.5 -58q20 -10 31.5 -33.5t14 -56.5t-6.5 -72q-13 -63 -10.5 -103t23.5 -59t64 -22h5q8 -1 12.5 -7t2.5 -15l-16 -77q-2 -10 -9.5 -16t-17.5 -6h-5z" />
    <glyph glyph-name="bar" unicode="|" horiz-adv-x="256" 
d="M-18 -208q-10 0 -15.5 7t-3.5 18l224 1054q2 11 11 18t19 7h77q11 0 16 -7t3 -18l-224 -1054q-2 -11 -10.5 -18t-19.5 -7h-77z" />
    <glyph glyph-name="braceright" unicode="}" horiz-adv-x="411" 
d="M168 776q59 -1 101.5 -19t67.5 -54t30.5 -90t-9.5 -126q-10 -45 -3 -73.5t33 -44.5l10 -5q23 -14 18 -39l-7 -33q-5 -25 -35 -39l-13 -6q-31 -15 -50.5 -44t-28.5 -72q-16 -73 -44.5 -126.5t-68.5 -89.5t-90 -54.5t-109 -18.5h-6q-9 0 -14 6t-3 16l16 77q2 9 9.5 15
t16.5 7h4q44 3 73.5 21.5t48.5 58.5t33 103q13 63 42.5 104.5t66.5 58.5q-20 11 -32 34t-14 55.5t6 72.5q14 64 11.5 103.5t-23.5 58.5t-64 21l-5 1q-8 0 -12.5 6t-3.5 16l16 77q2 9 9.5 15.5t17.5 6.5h5z" />
    <glyph glyph-name="asciitilde" unicode="~" horiz-adv-x="556" 
d="M81 221q-11 0 -13.5 7t-0.5 20l14 67q4 17 22 32.5t45 25t58 9.5q34 0 59 -6t46 -13t44 -13t54 -6q27 0 47.5 10.5t31.5 17.5q5 3 9 4.5t9 2.5q11 0 14 -7t-1 -20l-14 -67q-3 -17 -21 -32.5t-45 -25.5t-58 -10q-34 0 -58 6t-45.5 13.5t-45 13.5t-55.5 6q-26 0 -46 -11
t-32 -18q-4 -2 -8.5 -4t-9.5 -2z" />
    <glyph glyph-name="uni00A0" unicode="&#xa0;" horiz-adv-x="225" 
 />
    <glyph glyph-name="exclamdown" unicode="&#xa1;" horiz-adv-x="280" 
d="M207 311q10 0 15.5 -7t3.5 -18l-95 -443q-1 -11 -9.5 -18t-19.5 -7h-97q-11 0 -16.5 7t-3.5 18l94 443q2 11 11 18t19 7h98zM256 518q10 0 16 -7t4 -18l-23 -107q-2 -11 -11 -18t-19 -7h-108q-11 0 -16.5 7t-3.5 18l23 107q2 11 10.5 18t19.5 7h108z" />
    <glyph glyph-name="cent" unicode="&#xa2;" horiz-adv-x="589" 
d="M167 -100q-11 0 -16.5 7t-3.5 18l15 76q-72 18 -109.5 74.5t-22.5 143.5q3 16 8 40.5t9 40.5q23 93 81.5 151.5t146.5 72.5l13 61q2 11 10.5 18t18.5 7h85q10 0 16 -7t3 -18l-13 -64q60 -12 94.5 -42.5t48 -65.5t9.5 -62q-1 -11 -9 -18t-18 -7h-109q-10 0 -15.5 5
t-7.5 16q-1 35 -19.5 51t-53.5 16q-45 0 -78.5 -29t-48.5 -90q-5 -19 -9 -37.5t-6 -33.5q-10 -62 7.5 -90t62.5 -28q35 0 62 15t46 50q6 11 12.5 16t17.5 5h108q11 0 16.5 -7.5t2.5 -17.5q-5 -20 -20.5 -46t-43 -52.5t-67.5 -46.5t-96 -27l-13 -70q-2 -11 -10.5 -18
t-19.5 -7h-84z" />
    <glyph glyph-name="sterling" unicode="&#xa3;" horiz-adv-x="709" 
d="M436 -8q-35 0 -61 8.5t-47 20t-39.5 24t-38 20.5t-42.5 8q-32 0 -50.5 -15.5t-31.5 -42.5q-3 -5 -7.5 -10t-14.5 -5h-90q-8 0 -12 5.5t-3 12.5q16 65 56 108t93 61q4 23 5.5 46.5t2.5 48.5h-76q-10 0 -15.5 7t-3.5 17l14 65q2 11 10.5 18t19.5 7h52q2 13 4.5 26.5
t4.5 28.5q18 80 60 138.5t108 90t153 31.5q83 0 137.5 -29t77.5 -81.5t10 -120.5q-2 -9 -9.5 -15.5t-16.5 -6.5h-114q-11 0 -18 6t-9 19q-1 48 -21 73.5t-64 25.5q-52 0 -84.5 -36t-45.5 -96q-2 -14 -4.5 -27.5t-3.5 -26.5h160q11 0 16 -7t3 -18l-13 -65q-2 -10 -11 -17
t-19 -7h-154q-2 -24 -5 -47.5t-8 -50.5q25 -5 43.5 -15.5t34.5 -21.5t32.5 -19t40.5 -8q35 0 57 18.5t37 46.5q3 4 9 9t13 5h79q9 0 13 -5.5t2 -13.5q-13 -60 -47.5 -102t-79 -64t-89.5 -22z" />
    <glyph glyph-name="currency" unicode="&#xa4;" horiz-adv-x="607" 
d="M69 58l-34 45q-5 7 -3.5 17t10.5 17l54 45q-22 53 -8 118q13 65 59 118l-35 45q-6 7 -4 17t11 17l54 45q9 7 19 7t15 -7l35 -45q29 16 61 25t64 9q33 0 61 -9t51 -25l54 45q8 7 18 7t16 -7l35 -45q5 -7 3.5 -17t-10.5 -17l-54 -45q9 -25 12 -55.5t-4 -62.5
q-7 -33 -22.5 -63t-36.5 -55l35 -45q6 -7 4 -17t-11 -17l-54 -45q-9 -7 -19 -7t-15 7l-35 45q-60 -34 -126 -34q-65 0 -111 34l-54 -45q-9 -7 -19 -7t-16 7zM293 181q33 0 63.5 16t52.5 43t29 60t-3.5 60t-34 43t-56.5 16t-63.5 -16t-52 -43t-29.5 -60q-7 -33 3.5 -60
t34 -43t56.5 -16z" />
    <glyph glyph-name="yen" unicode="&#xa5;" horiz-adv-x="670" 
d="M206 0q-11 0 -16.5 7t-3.5 18l49 231l-135 412q-3 6 -2 11q1 9 8.5 15t17.5 6h100q14 0 20.5 -7t8.5 -13l89 -261l201 261q4 6 13.5 13t23.5 7h114q8 0 13.5 -6.5t3.5 -14.5q-1 -3 -2.5 -5.5t-3.5 -5.5l-310 -411l-50 -232q-1 -11 -9.5 -18t-19.5 -7h-110zM66 77
q-11 0 -16.5 7t-4.5 17l15 68q2 10 11 17t19 7h424q11 0 16 -7t3 -17l-14 -68q-2 -10 -10.5 -17t-18.5 -7h-424zM96 222q-10 0 -15.5 7.5t-3.5 17.5l14 67q2 11 10.5 18t19.5 7h424q11 0 16 -7t3 -18l-14 -67q-2 -10 -10.5 -17.5t-19.5 -7.5h-424z" />
    <glyph glyph-name="brokenbar" unicode="&#xa6;" horiz-adv-x="262" 
d="M130 475q-10 0 -15.5 7t-3.5 18l65 304q2 11 11 18t19 7h77q11 0 16 -7t3 -18l-65 -304q-2 -11 -10.5 -18t-19.5 -7h-77zM30 0q-10 0 -16 7t-4 18l65 304q2 11 11 18t19 7h77q11 0 16 -7t3 -18l-65 -304q-2 -11 -10 -18t-19 -7h-77z" />
    <glyph glyph-name="section" unicode="&#xa7;" horiz-adv-x="596" 
d="M211 -140q-56 0 -95.5 14t-63 36.5t-32.5 48t-6 47.5q2 10 9.5 15.5t16.5 5.5h94q9 0 14 -4t9 -12q3 -11 9.5 -21.5t22 -17t44.5 -6.5q36 0 57.5 19t27.5 45q4 20 -2 34t-29.5 25.5t-74.5 24.5q-69 20 -107.5 46.5t-50.5 63t-1 88.5q9 43 36.5 76t65.5 58q-8 17 -8.5 37
t4.5 43q10 48 43.5 90t87.5 68t126 26q75 0 120 -24t63.5 -57.5t13.5 -63.5q-1 -10 -9 -15.5t-17 -5.5h-94q-10 0 -14.5 4t-8.5 13q-3 10 -10 20t-22 16.5t-43 6.5q-36 0 -58 -19t-28 -45q-4 -20 2 -34t30 -25t74 -25q70 -20 108 -46.5t50 -63t1 -88.5q-9 -43 -36 -76
t-66 -58q8 -17 8.5 -37t-4.5 -43q-10 -48 -43.5 -90t-87.5 -68t-126 -26zM371 196q24 8 38.5 22t18.5 34q5 20 -0.5 35.5t-26.5 28.5t-62 25q-31 10 -51.5 17.5t-39.5 15.5q-24 -8 -38.5 -22.5t-18.5 -33.5t1 -34.5t26 -28.5t64 -27q42 -14 89 -32z" />
    <glyph glyph-name="dieresis" unicode="&#xa8;" horiz-adv-x="374" 
d="M246 611q-10 0 -14.5 6t-3.5 16l18 82q2 10 9.5 16.5t17.5 6.5h82q10 0 15 -6.5t3 -16.5l-17 -82q-2 -10 -10 -16t-18 -6h-82zM49 611q-10 0 -15 6t-3 16l18 82q2 10 9.5 16.5t17.5 6.5h82q10 0 15 -6.5t3 -16.5l-17 -82q-2 -10 -10 -16t-18 -6h-82z" />
    <glyph glyph-name="copyright" unicode="&#xa9;" horiz-adv-x="813" 
d="M349 -10q-73 0 -133 29t-101 79.5t-57 116t0 140.5t56 139.5t97.5 113t128 75.5t146.5 27q73 0 133.5 -29t101.5 -79.5t57 -116t0 -140.5t-56 -139.5t-98 -113t-128.5 -75.5t-146.5 -27zM354 66q59 0 115 22t103 61t80 91t45 110q13 58 2.5 110t-39.5 91t-75 61t-104 22
t-114 -22t-103 -61t-80 -91t-46 -110q-12 -58 -2 -110t39.5 -91t75 -61t103.5 -22zM384 158q-49 0 -84 20.5t-50.5 55.5t-8.5 80q1 8 3.5 22.5t6 29t5.5 22.5q12 45 36.5 80t64 55.5t93.5 20.5q56 0 91 -19t50.5 -46t11.5 -53q-1 -10 -9 -16t-18 -6h-57q-11 0 -15.5 6.5
t-5.5 13.5q-1 19 -13.5 28.5t-40.5 9.5t-45.5 -12t-27.5 -30t-15 -35q-2 -7 -5 -20.5t-5.5 -27t-3.5 -20.5q-3 -17 -2 -35t12 -30t38 -12q28 0 47 9.5t31 28.5q4 7 11 13.5t18 6.5h57q10 0 15 -6t3 -16q-7 -25 -28 -52.5t-60 -46.5t-100 -19z" />
    <glyph glyph-name="ordfeminine" unicode="&#xaa;" horiz-adv-x="356" 
d="M168 429q-44 0 -67.5 23t-18.5 56q7 38 42.5 60.5t91.5 31.5l59 9l2 14t-3.5 12t-20.5 5q-18 0 -27 -4.5t-16 -9t-17 -4.5h-53q-16 0 -13 14q4 12 17 28t40 28.5t72 12.5q60 0 90 -28.5t19 -80.5l-31 -144q-1 -8 -7 -13t-14 -5h-54q-8 0 -12 5t-3 13l3 10
q-13 -15 -34 -24t-45 -9zM194 494q27 0 45 16t23 41l-39 -7q-26 -4 -37.5 -12.5t-13.5 -18.5q-1 -8 4 -13.5t18 -5.5z" />
    <glyph glyph-name="guillemotleft" unicode="&#xab;" horiz-adv-x="618" 
d="M507 71q-3 0 -8 2t-9 7l-161 197q-5 7 -7.5 15t-1.5 16l9 42q2 8 7.5 16t14.5 15l245 197q6 5 12 7t9 2q9 0 13.5 -6.5t2.5 -15.5l-17 -80q-3 -15 -8.5 -23t-17.5 -18l-143 -115l93 -115q8 -10 10.5 -18t-0.5 -23l-17 -80q-2 -9 -9.5 -15.5t-16.5 -6.5zM237 71q-3 0 -8 2
t-9 7l-161 197q-5 7 -7.5 15t-1.5 16l9 42q2 8 7.5 16t14.5 15l245 197q6 5 12 7t9 2q9 0 13.5 -6.5t2.5 -15.5l-17 -80q-3 -15 -8.5 -23t-17.5 -18l-143 -115l93 -115q8 -10 10.5 -18t-0.5 -23l-17 -80q-2 -9 -9.5 -15.5t-16.5 -6.5z" />
    <glyph glyph-name="logicalnot" unicode="&#xac;" horiz-adv-x="574" 
d="M384 140q-10 0 -15.5 7t-3.5 18l21 100h-308q-10 0 -16 7t-4 17l15 67q2 10 10.5 17t19.5 7h400q11 0 16 -7t3 -17l-40 -191q-2 -11 -10.5 -18t-19.5 -7h-68z" />
    <glyph glyph-name="uni00AD" unicode="&#xad;" horiz-adv-x="600" 
d="M70 236q-11 0 -16 7t-3 17l17 80q2 10 10.5 17t18.5 7h311q10 0 16 -7t3 -17l-17 -80q-2 -10 -10.5 -17t-19.5 -7h-310z" />
    <glyph glyph-name="registered" unicode="&#xae;" horiz-adv-x="814" 
d="M349 -10q-73 0 -133 29t-101 79.5t-57 116t0 140.5t56 139.5t97.5 113t128 75.5t146.5 27q73 0 133.5 -29t101.5 -79.5t57 -116t0 -140.5t-55.5 -139.5t-97.5 -113t-128.5 -75.5t-147.5 -27zM355 66q58 0 114 22t103.5 61t80.5 91t46 110q12 58 1.5 110t-40 91t-75.5 61
t-104 22q-57 0 -113 -22t-103.5 -61t-81 -91t-45.5 -110q-13 -58 -2.5 -110t40 -91t75.5 -61t104 -22zM257 168q-10 0 -14.5 6t-2.5 16l68 322q5 22 27 22h127q35 0 69 -11.5t53.5 -38t10.5 -71.5q-8 -40 -31.5 -65.5t-54.5 -37.5l34 -106q1 -3 1.5 -6t-0.5 -8
q-1 -8 -8.5 -15t-18.5 -7h-48q-10 0 -16 4.5t-9 14.5l-30 105h-56l-21 -102q-5 -22 -27 -22h-53zM375 371h61q29 0 43 13t17 29q4 18 -3.5 30.5t-37.5 12.5h-62z" />
    <glyph glyph-name="macron" unicode="&#xaf;" horiz-adv-x="354" 
d="M49 608q-10 0 -15 6.5t-3 16.5l13 60q2 10 9.5 16t17.5 6h265q10 0 14.5 -6t2.5 -16l-12 -60q-2 -10 -9.5 -16.5t-17.5 -6.5h-265z" />
    <glyph glyph-name="degree" unicode="&#xb0;" horiz-adv-x="404" 
d="M222 386q-48 0 -82 21.5t-48.5 58.5t-4.5 82q10 46 39.5 83t71 58t87.5 21q49 0 82.5 -21t48 -58t4.5 -83q-9 -45 -38.5 -82t-71.5 -58.5t-88 -21.5zM235 472q33 0 60.5 21t34.5 55t-8 55t-49 21q-33 0 -60.5 -21t-34.5 -55t7.5 -55t49.5 -21z" />
    <glyph glyph-name="plusminus" unicode="&#xb1;" horiz-adv-x="564" 
d="M227 189q-10 0 -15.5 7t-3.5 18l32 149h-146q-10 0 -15.5 7t-4.5 18l14 63q2 10 10.5 17t18.5 7h146l31 145q2 10 11 17t19 7h70q11 0 16.5 -7t3.5 -17l-31 -145h144q11 0 16.5 -7t3.5 -17l-14 -63q-1 -11 -9.5 -18t-19.5 -7h-145l-32 -149q-2 -11 -10.5 -18t-18.5 -7
h-71zM27 0q-10 0 -16 7t-4 18l13 62q3 11 11.5 18t18.5 7h390q11 0 16.5 -7t2.5 -18l-13 -62q-2 -11 -10 -18t-19 -7h-390z" />
    <glyph glyph-name="uni00B2" unicode="&#xb2;" horiz-adv-x="352" 
d="M75 350q-10 0 -14.5 6t-2.5 16l6 31q2 8 8.5 15.5t22.5 17.5q67 43 109 69t62.5 45t25.5 40q3 17 -5.5 27t-27.5 10q-18 0 -28 -5.5t-15.5 -12.5t-8.5 -12q-9 -11 -14.5 -14.5t-13.5 -3.5h-51q-20 0 -14 19q8 30 32 54t58 38.5t72 14.5q62 0 92 -31.5t20 -80.5
q-7 -32 -27.5 -57.5t-55.5 -50t-86 -55.5h127q10 0 14.5 -6t2.5 -16l-7 -36q-5 -22 -27 -22h-254z" />
    <glyph glyph-name="uni00B3" unicode="&#xb3;" horiz-adv-x="351" 
d="M195 345q-53 0 -81.5 14.5t-38.5 35t-8 39.5q2 10 9.5 14.5t11.5 4.5h36q9 0 16.5 -2.5l13.5 -4.5q7 -4 11.5 -9t13 -9t30.5 -4q25 0 41.5 9t20.5 26q3 19 -9.5 26t-35.5 7h-45q-9 0 -13.5 6t-2.5 15l5 23q2 7 5.5 12t9.5 10l78 59h-118q-10 0 -15 6t-3 16l9 39
q5 22 26 22h219q10 0 15 -6t3 -16l-8 -34q-1 -9 -5 -15.5t-16 -14.5l-76 -54q45 -7 65 -33t11 -70q-7 -34 -31.5 -59t-61 -39t-82.5 -14z" />
    <glyph glyph-name="acute" unicode="&#xb4;" horiz-adv-x="318" 
d="M44 595q-16 0 -13 16q2 8 8 13l107 103q13 12 20.5 15.5t20.5 3.5h115q17 0 15 -18q0 -9 -8 -14l-150 -105q-10 -7 -18.5 -10.5t-21.5 -3.5h-75z" />
    <glyph glyph-name="uni00B5" unicode="&#xb5;" horiz-adv-x="643" 
d="M-17 -199q-10 0 -15.5 7t-3.5 17l142 670q2 11 11 18t19 7h109q11 0 16 -7t3 -18l-58 -273q-7 -35 1 -60t28 -38.5t46 -13.5q27 0 53.5 13.5t47 38.5t27.5 60l58 273q2 11 11 18t19 7h106q11 0 16 -7t3 -18l-100 -470q-2 -11 -10 -18t-19 -7h-98q-10 0 -16 7t-4 18l9 39
q-33 -35 -75 -52.5t-98 -17.5q-34 0 -59 11t-42 28.5t-30 39.5l105 47l-63 -295q-2 -10 -10.5 -17t-19.5 -7h-109z" />
    <glyph glyph-name="paragraph" unicode="&#xb6;" horiz-adv-x="604" 
d="M73 513q11 52 45.5 94t82.5 67.5t99 25.5h293q11 0 17 -7t4 -18l-160 -750q-2 -11 -11 -18t-20 -7h-70q-10 0 -15.5 7t-3.5 18l142 670h-79l-142 -670q-2 -11 -10.5 -18t-19.5 -7h-70q-11 0 -16 7t-3 18l85 400q-51 0 -88.5 25.5t-53.5 68t-6 94.5z" />
    <glyph glyph-name="periodcentered" unicode="&#xb7;" horiz-adv-x="335" 
d="M54 310q7 34 29 61t53.5 43.5t63.5 16.5q34 0 57.5 -16.5t34 -43.5t3.5 -61q-7 -32 -29 -60t-53 -44t-64 -16t-57 16t-34.5 44t-3.5 60z" />
    <glyph glyph-name="cedilla" unicode="&#xb8;" horiz-adv-x="252" 
d="M115 -220q-27 0 -50 9t-32 21t4 21l20 16q10 7 15.5 4t15 -9t29.5 -6q15 0 27 9t15 23q3 13 -5 22t-24 9q-12 0 -23 -3.5t-20 -4.5t-14 6l-17 23q-5 6 -2 14t10 19l49 74h68l-56 -78q7 3 17.5 4.5t17.5 1.5q34 0 50.5 -26t8.5 -64q-7 -38 -33.5 -61.5t-70.5 -23.5z" />
    <glyph glyph-name="uni00B9" unicode="&#xb9;" horiz-adv-x="301" 
d="M173 350q-10 0 -14.5 6t-2.5 16l45 216l-62 -41q-7 -5 -16 -4t-14 9l-17 31q-4 8 -1 16.5t12 14.5l121 79q11 7 24 7h52q10 0 15 -6t3 -16l-65 -306q-5 -22 -27 -22h-53z" />
    <glyph glyph-name="ordmasculine" unicode="&#xba;" horiz-adv-x="353" 
d="M210 429q-60 0 -93.5 29t-24.5 84q1 8 5 25.5t6 24.5q15 56 52 84.5t100 28.5q37 0 65.5 -13t43.5 -38t8 -62q-1 -7 -5 -24.5t-6 -25.5q-9 -37 -27.5 -62t-48.5 -38t-75 -13zM216 499q20 0 32.5 11t18.5 35q2 8 5.5 22.5t4.5 21.5q3 22 -2.5 34t-26.5 12q-20 0 -33 -12
t-19 -34q-2 -7 -5.5 -21.5t-4.5 -22.5q-3 -24 3 -35t27 -11z" />
    <glyph glyph-name="guillemotright" unicode="&#xbb;" horiz-adv-x="618" 
d="M313 71q-9 0 -13.5 6.5t-2.5 15.5l17 80q3 15 9 23t17 18l143 115l-93 115q-7 10 -10 18t0 23l17 80q2 9 9.5 15.5t16.5 6.5q4 0 8.5 -2t8.5 -7l161 -197q6 -7 8 -15t1 -16l-9 -42q-2 -8 -7 -16t-15 -15l-245 -197q-6 -5 -11.5 -7t-9.5 -2zM43 71q-9 0 -13.5 6.5
t-2.5 15.5l17 80q3 15 9 23t17 18l143 115l-93 115q-7 10 -10 18t0 23l17 80q2 9 9.5 15.5t16.5 6.5q4 0 8 -2t9 -7l161 -197q6 -7 8 -15t1 -16l-9 -42q-2 -8 -7 -16t-15 -15l-245 -197q-6 -5 -11.5 -7t-9.5 -2z" />
    <glyph glyph-name="onequarter" unicode="&#xbc;" horiz-adv-x="855" 
d="M173 350q-10 0 -14.5 6t-2.5 16l45 216l-62 -41q-7 -5 -16 -4t-14 9l-17 31q-4 8 -1 16.5t12 14.5l121 79q11 7 24 7h52q10 0 15 -6t3 -16l-65 -306q-5 -22 -27 -22h-53zM66 0q-15 0 -18.5 10.5t6.5 20.5l631 650q9 9 17 14t22 5h52q15 0 18.5 -10.5t-6.5 -20.5
l-631 -650q-9 -9 -17 -14t-22 -5h-52zM655 0q-10 0 -14.5 6t-2.5 16l7 38h-148q-11 0 -15.5 6t-2.5 16l9 41q1 2 3.5 10t14.5 20l171 179q10 11 18 14.5t15 3.5h69q10 0 15 -6t3 -16l-39 -184h35q10 0 14.5 -6t2.5 -16l-8 -40q-5 -22 -27 -22h-35l-8 -38q-5 -22 -27 -22h-50
zM592 142h72l22 102z" />
    <glyph glyph-name="onehalf" unicode="&#xbd;" horiz-adv-x="842" 
d="M173 350q-10 0 -14.5 6t-2.5 16l45 216l-62 -41q-7 -5 -16 -4t-14 9l-17 31q-4 8 -1 16.5t12 14.5l121 79q11 7 24 7h52q10 0 15 -6t3 -16l-65 -306q-5 -22 -27 -22h-53zM66 0q-15 0 -18.5 10.5t6.5 20.5l631 650q9 9 17 14t22 5h52q15 0 18.5 -10.5t-6.5 -20.5
l-631 -650q-9 -9 -17 -14t-22 -5h-52zM490 0q-10 0 -14.5 6t-2.5 16l6 31q2 8 8.5 15.5t22.5 17.5q67 43 109 69t62.5 45t25.5 40q3 17 -5.5 27t-27.5 10q-18 0 -28 -5.5t-15.5 -12.5t-8.5 -12q-9 -11 -14.5 -14.5t-13.5 -3.5h-51q-20 0 -14 19q8 30 32 54t58 38.5t72 14.5
q62 0 92 -31.5t20 -80.5q-7 -32 -27.5 -57.5t-55.5 -50t-86 -55.5h127q10 0 14.5 -6t2.5 -16l-7 -36q-5 -22 -27 -22h-254z" />
    <glyph glyph-name="threequarters" unicode="&#xbe;" horiz-adv-x="905" 
d="M195 345q-53 0 -81.5 14.5t-38.5 35t-8 39.5q2 10 9.5 14.5t11.5 4.5h36q9 0 16.5 -2.5l13.5 -4.5q7 -4 11.5 -9t13 -9t30.5 -4q25 0 41.5 9t20.5 26q3 19 -9.5 26t-35.5 7h-45q-9 0 -13.5 6t-2.5 15l5 23q2 7 5.5 12t9.5 10l78 59h-118q-10 0 -15 6t-3 16l9 39
q5 22 26 22h219q10 0 15 -6t3 -16l-8 -34q-1 -9 -5 -15.5t-16 -14.5l-76 -54q45 -7 65 -33t11 -70q-7 -34 -31.5 -59t-61 -39t-82.5 -14zM116 0q-15 0 -18.5 10.5t6.5 20.5l631 650q9 9 17 14t22 5h52q15 0 18.5 -10.5t-6.5 -20.5l-631 -650q-9 -9 -17 -14t-22 -5h-52z
M705 0q-10 0 -14.5 6t-2.5 16l7 38h-148q-11 0 -15.5 6t-2.5 16l9 41q1 2 3.5 10t14.5 20l171 179q10 11 18 14.5t15 3.5h69q10 0 15 -6t3 -16l-39 -184h35q10 0 14.5 -6t2.5 -16l-8 -40q-5 -22 -27 -22h-35l-8 -38q-5 -22 -27 -22h-50zM642 142h72l22 102z" />
    <glyph glyph-name="questiondown" unicode="&#xbf;" horiz-adv-x="574" 
d="M508 320q9 0 14 -6t3 -14q-2 -7 -3.5 -14t-3.5 -14q-12 -37 -36 -66.5t-52.5 -54.5t-56 -47t-48 -43t-27.5 -44q-8 -25 1 -43t28 -27.5t43 -9.5q44 0 76 21.5t50 65.5q7 12 15.5 17.5t19.5 5.5h104q10 0 15 -7t2 -18q-9 -40 -35.5 -78t-67 -68.5t-95 -48.5t-120.5 -18
q-71 0 -115 18t-66.5 46.5t-27 61t2.5 61.5q10 37 30 66.5t46.5 54.5t53.5 48.5t49.5 47.5t36.5 50q3 8 6 15.5t6 15.5q8 13 15.5 19.5t18.5 6.5h118zM552 519q10 0 15.5 -7t3.5 -18l-21 -100q-2 -10 -10.5 -17.5t-19.5 -7.5h-112q-11 0 -16.5 7.5t-3.5 17.5l21 100
q2 11 11 18t20 7h112z" />
    <glyph glyph-name="Agrave" unicode="&#xc0;" horiz-adv-x="708" 
d="M-29 0q-12 0 -16.5 10t1.5 20l374 643q6 11 16 19t27 8h134q16 0 23 -8t8 -19l102 -643q2 -14 -5 -22t-18 -8h-102q-15 0 -21 7t-8 16l-20 109h-282l-67 -112q-5 -7 -13 -13.5t-22 -6.5h-111zM249 261h207l-43 288zM415 750q-13 0 -20 3.5t-14 10.5l-105 104q-5 5 -3 13
q3 20 23 20h118q13 0 19 -3.5t14 -15.5l63 -103q4 -6 2 -13q-4 -16 -19 -16h-78z" />
    <glyph glyph-name="Aacute" unicode="&#xc1;" horiz-adv-x="708" 
d="M-29 0q-12 0 -16.5 10t1.5 20l374 643q6 11 16 19t27 8h134q16 0 23 -8t8 -19l102 -643q2 -14 -5 -22t-18 -8h-102q-15 0 -21 7t-8 16l-20 109h-282l-67 -112q-5 -7 -13 -13.5t-22 -6.5h-111zM249 261h207l-43 288zM392 750q-16 0 -14 14q1 8 8 14l108 104q12 12 20 15.5
t21 3.5h122q9 0 13 -5.5t3 -12.5q-1 -9 -9 -14l-150 -105q-10 -7 -18.5 -10.5t-21.5 -3.5h-82z" />
    <glyph glyph-name="Acircumflex" unicode="&#xc2;" horiz-adv-x="708" 
d="M-29 0q-12 0 -16.5 10t1.5 20l374 643q6 11 16 19t27 8h134q16 0 23 -8t8 -19l102 -643q2 -14 -5 -22t-18 -8h-102q-15 0 -21 7t-8 16l-20 109h-282l-67 -112q-5 -7 -13 -13.5t-22 -6.5h-111zM249 261h207l-43 288zM275 750q-14 0 -12 13q1 8 8 14l126 107q12 11 20.5 14
t17.5 3h71q10 0 17 -3t14 -14l80 -106q5 -6 3 -14q-2 -14 -17 -14h-42q-8 0 -15 1.5t-13 5.5l-75 51l-96 -51q-8 -4 -15 -5.5t-15 -1.5h-57z" />
    <glyph glyph-name="Atilde" unicode="&#xc3;" horiz-adv-x="708" 
d="M-29 0q-12 0 -16.5 10t1.5 20l374 643q6 11 16 19t27 8h134q16 0 23 -8t8 -19l102 -643q2 -14 -5 -22t-18 -8h-102q-15 0 -21 7t-8 16l-20 109h-282l-67 -112q-5 -7 -13 -13.5t-22 -6.5h-111zM249 261h207l-43 288zM515 745q-26 0 -43 9t-31 17.5t-31 8.5q-16 0 -24 -7
t-14 -15t-17 -8h-53q-7 0 -11 5.5t-3 11.5q3 16 12 36t24 39t37 31.5t50 12.5q27 0 44.5 -9t31 -18t30.5 -9q16 0 24 8t14 15.5t17 7.5h53q8 0 11.5 -5.5t2.5 -12.5q-3 -15 -12 -35t-24.5 -39t-37 -31.5t-50.5 -12.5z" />
    <glyph glyph-name="Adieresis" unicode="&#xc4;" horiz-adv-x="708" 
d="M-29 0q-12 0 -16.5 10t1.5 20l374 643q6 11 16 19t27 8h134q16 0 23 -8t8 -19l102 -643q2 -14 -5 -22t-18 -8h-102q-15 0 -21 7t-8 16l-20 109h-282l-67 -112q-5 -7 -13 -13.5t-22 -6.5h-111zM249 261h207l-43 288zM518 750q-10 0 -15 6t-3 17l17 82q2 10 10 16.5t18 6.5
h82q10 0 15 -6.5t3 -16.5l-17 -82q-2 -11 -10 -17t-18 -6h-82zM291 750q-10 0 -15 6t-3 17l17 82q2 10 10 16.5t18 6.5h82q10 0 15 -6.5t3 -16.5l-17 -82q-2 -11 -10 -17t-18 -6h-82z" />
    <glyph glyph-name="Aring" unicode="&#xc5;" horiz-adv-x="708" 
d="M-29 0q-12 0 -16.5 10t1.5 20l374 643q6 11 16 19t27 8h134q16 0 23 -8t8 -19l102 -643q2 -14 -5 -22t-18 -8h-102q-15 0 -21 7t-8 16l-20 109h-282l-67 -112q-5 -7 -13 -13.5t-22 -6.5h-111zM249 261h207l-43 288zM444 740q-37 0 -59.5 24.5t-14.5 60.5q9 37 39.5 61.5
t67.5 24.5t59.5 -24.5t14.5 -61.5t-39 -61t-68 -24zM452 795q14 0 24.5 8.5t13.5 21.5t-3 21.5t-19 8.5q-14 0 -24.5 -8.5t-13.5 -21.5t3.5 -21.5t18.5 -8.5z" />
    <glyph glyph-name="AE" unicode="&#xc6;" horiz-adv-x="980" 
d="M-22 0q-15 0 -18 11.5t3 20.5l372 642q7 11 17.5 18.5t24.5 7.5h611q11 0 16.5 -7t3.5 -18l-17 -80q-2 -10 -10.5 -17t-19.5 -7h-308l-34 -157h286q11 0 16.5 -7t3.5 -18l-16 -74q-2 -10 -10.5 -17t-19.5 -7h-286l-35 -162h317q11 0 16 -7t3 -18l-16 -79
q-2 -11 -10.5 -18t-19.5 -7h-446q-10 0 -16 7t-4 18l24 107h-217l-67 -112q-4 -7 -12.5 -13.5t-22.5 -6.5h-109zM254 261h178l66 306h-70z" />
    <glyph glyph-name="Ccedilla" unicode="&#xc7;" horiz-adv-x="692" 
d="M237 -220q-26 0 -46 9t-26.5 21t4.5 21l21 16q10 8 16 4.5t15 -9.5t29 -6q15 0 27 9t15 23q3 13 -5 22t-24 9q-12 0 -23 -3.5t-19.5 -4.5t-14.5 6l-15 19q-4 6 -1.5 13.5t9.5 18.5l30 46q-73 9 -119 42.5t-62.5 90t-3.5 134.5q7 41 17 88t21 90q22 86 71 146.5t122 92.5
t165 32q67 0 118.5 -17t85 -49t46 -75t3.5 -96q-2 -9 -9.5 -15t-16.5 -6h-115q-12 0 -17.5 6t-6.5 20q-2 59 -33 81t-83 22q-61 0 -104.5 -34t-63.5 -113q-10 -41 -18.5 -83t-16.5 -85q-14 -79 15 -113t90 -34q53 0 93 22.5t67 80.5q7 15 15 20.5t20 5.5h114q9 0 14 -6
t3 -15q-12 -53 -43.5 -96t-78 -75t-105.5 -49t-126 -17l-29 -41q7 3 18 4.5t18 1.5q35 0 51.5 -24t8.5 -62t-39.5 -63.5t-77.5 -25.5z" />
    <glyph glyph-name="Egrave" unicode="&#xc8;" horiz-adv-x="629" 
d="M36 0q-10 0 -16 7t-4 18l138 650q2 11 11 18t19 7h453q11 0 16.5 -7t3.5 -18l-17 -80q-2 -10 -10.5 -17t-19.5 -7h-324l-34 -157h302q11 0 16.5 -7t3.5 -18l-16 -74q-2 -10 -10.5 -17t-19.5 -7h-301l-35 -162h332q11 0 16.5 -7t3.5 -18l-17 -79q-2 -11 -10.5 -18
t-19.5 -7h-461zM386 750q-13 0 -20 3.5t-14 10.5l-105 104q-5 5 -3 13q3 20 23 20h118q13 0 19 -3.5t14 -15.5l63 -103q4 -6 2 -13q-4 -16 -19 -16h-78z" />
    <glyph glyph-name="Eacute" unicode="&#xc9;" horiz-adv-x="629" 
d="M36 0q-10 0 -16 7t-4 18l138 650q2 11 11 18t19 7h453q11 0 16.5 -7t3.5 -18l-17 -80q-2 -10 -10.5 -17t-19.5 -7h-324l-34 -157h302q11 0 16.5 -7t3.5 -18l-16 -74q-2 -10 -10.5 -17t-19.5 -7h-301l-35 -162h332q11 0 16.5 -7t3.5 -18l-17 -79q-2 -11 -10.5 -18
t-19.5 -7h-461zM362 750q-16 0 -14 14q1 8 8 14l108 104q12 12 20 15.5t21 3.5h122q9 0 13 -5.5t3 -12.5q-1 -9 -9 -14l-150 -105q-10 -7 -18.5 -10.5t-21.5 -3.5h-82z" />
    <glyph glyph-name="Ecircumflex" unicode="&#xca;" horiz-adv-x="629" 
d="M36 0q-10 0 -16 7t-4 18l138 650q2 11 11 18t19 7h453q11 0 16.5 -7t3.5 -18l-17 -80q-2 -10 -10.5 -17t-19.5 -7h-324l-34 -157h302q11 0 16.5 -7t3.5 -18l-16 -74q-2 -10 -10.5 -17t-19.5 -7h-301l-35 -162h332q11 0 16.5 -7t3.5 -18l-17 -79q-2 -11 -10.5 -18
t-19.5 -7h-461zM245 750q-14 0 -12 13q1 8 8 14l126 107q12 11 20.5 14t17.5 3h71q10 0 17 -3t14 -14l80 -106q5 -6 3 -14q-2 -14 -17 -14h-42q-8 0 -15 1.5t-13 5.5l-75 51l-96 -51q-8 -4 -15 -5.5t-15 -1.5h-57z" />
    <glyph glyph-name="Edieresis" unicode="&#xcb;" horiz-adv-x="629" 
d="M36 0q-10 0 -16 7t-4 18l138 650q2 11 11 18t19 7h453q11 0 16.5 -7t3.5 -18l-17 -80q-2 -10 -10.5 -17t-19.5 -7h-324l-34 -157h302q11 0 16.5 -7t3.5 -18l-16 -74q-2 -10 -10.5 -17t-19.5 -7h-301l-35 -162h332q11 0 16.5 -7t3.5 -18l-17 -79q-2 -11 -10.5 -18
t-19.5 -7h-461zM488 750q-10 0 -15 6t-3 17l17 82q2 10 10 16.5t18 6.5h82q10 0 15 -6.5t3 -16.5l-17 -82q-2 -11 -10 -17t-18 -6h-82zM261 750q-10 0 -15 6t-3 17l17 82q2 10 10 16.5t18 6.5h82q10 0 15 -6.5t3 -16.5l-17 -82q-2 -11 -10 -17t-18 -6h-82z" />
    <glyph glyph-name="Igrave" unicode="&#xcc;" horiz-adv-x="311" 
d="M36 0q-11 0 -16.5 7t-3.5 18l139 650q2 11 10.5 18t18.5 7h114q10 0 16 -7t4 -18l-139 -650q-2 -11 -10.5 -18t-18.5 -7h-114zM222 750q-13 0 -20 3.5t-14 10.5l-105 104q-5 5 -3 13q3 20 23 20h118q13 0 19 -3.5t14 -15.5l63 -103q4 -6 2 -13q-4 -16 -19 -16h-78z" />
    <glyph glyph-name="Iacute" unicode="&#xcd;" horiz-adv-x="311" 
d="M36 0q-11 0 -16.5 7t-3.5 18l139 650q2 11 10.5 18t18.5 7h114q10 0 16 -7t4 -18l-139 -650q-2 -11 -10.5 -18t-18.5 -7h-114zM198 750q-16 0 -14 14q1 8 8 14l108 104q12 12 20 15.5t21 3.5h122q9 0 13 -5.5t3 -12.5q-1 -9 -9 -14l-150 -105q-10 -7 -18.5 -10.5
t-21.5 -3.5h-82z" />
    <glyph glyph-name="Icircumflex" unicode="&#xce;" horiz-adv-x="311" 
d="M36 0q-11 0 -16.5 7t-3.5 18l139 650q2 11 10.5 18t18.5 7h114q10 0 16 -7t4 -18l-139 -650q-2 -11 -10.5 -18t-18.5 -7h-114zM81 750q-14 0 -12 13q1 8 8 14l126 107q12 11 20.5 14t17.5 3h71q10 0 17 -3t14 -14l80 -106q5 -6 3 -14q-2 -14 -17 -14h-42q-8 0 -15 1.5
t-13 5.5l-75 51l-96 -51q-8 -4 -15 -5.5t-15 -1.5h-57z" />
    <glyph glyph-name="Idieresis" unicode="&#xcf;" horiz-adv-x="311" 
d="M36 0q-11 0 -16.5 7t-3.5 18l139 650q2 11 10.5 18t18.5 7h114q10 0 16 -7t4 -18l-139 -650q-2 -11 -10.5 -18t-18.5 -7h-114zM325 750q-10 0 -15 6t-3 17l17 82q2 10 10 16.5t18 6.5h82q10 0 15 -6.5t3 -16.5l-17 -82q-2 -11 -10 -17t-18 -6h-82zM98 750q-10 0 -15 6
t-3 17l17 82q2 10 10 16.5t18 6.5h82q10 0 15 -6.5t3 -16.5l-17 -82q-2 -11 -10 -17t-18 -6h-82z" />
    <glyph glyph-name="Eth" unicode="&#xd0;" horiz-adv-x="723" 
d="M51 0q-11 0 -16.5 7t-3.5 18l58 273h-50q-11 0 -16 7t-3 17l12 60q2 11 11 18t19 7h50l57 268q2 11 10.5 18t19.5 7h236q66 0 119.5 -18t90.5 -52.5t52 -85.5t2 -117q-8 -44 -15 -77t-18 -76q-22 -93 -63.5 -154t-109.5 -90.5t-171 -29.5h-271zM212 129h117q50 0 85 15
t57.5 47.5t34.5 84.5q8 29 13 52t9.5 46t9.5 51q14 75 -15 110.5t-105 35.5h-112l-35 -164h102q10 0 15.5 -7t3.5 -18l-12 -60q-2 -10 -11 -17t-19 -7h-102z" />
    <glyph glyph-name="Ntilde" unicode="&#xd1;" horiz-adv-x="714" 
d="M36 0q-10 0 -16 7t-4 18l138 650q2 11 10.5 18t19.5 7h90q15 0 21 -6.5t7 -11.5l179 -420l88 413q2 11 10.5 18t19.5 7h101q11 0 16.5 -7t3.5 -18l-138 -650q-2 -10 -10.5 -17.5t-18.5 -7.5h-91q-15 0 -20.5 7t-7.5 11l-181 408l-85 -401q-2 -11 -10.5 -18t-19.5 -7h-102
zM512 745q-26 0 -43 9t-31 17.5t-31 8.5q-16 0 -24 -7t-14 -15t-17 -8h-53q-7 0 -11 5.5t-3 11.5q3 16 12 36t24 39t37 31.5t50 12.5q27 0 44.5 -9t31 -18t30.5 -9q16 0 24 8t14 15.5t17 7.5h53q8 0 11.5 -5.5t2.5 -12.5q-3 -15 -12 -35t-24.5 -39t-37 -31.5t-50.5 -12.5z
" />
    <glyph glyph-name="Ograve" unicode="&#xd2;" horiz-adv-x="703" 
d="M300 -10q-62 0 -114.5 17t-88 51t-50 85t-2.5 120q7 43 16.5 85.5t19.5 86.5q33 135 118.5 205t226.5 70q62 0 114 -17.5t88 -52.5t50.5 -86t2.5 -119q-8 -44 -17 -86.5t-20 -85.5q-34 -138 -119 -205.5t-225 -67.5zM311 119q60 0 106 35.5t64 113.5q11 44 19.5 82.5
t15.5 81.5q15 78 -12.5 113.5t-88.5 35.5t-106 -35.5t-64 -113.5q-11 -43 -19 -81.5t-16 -82.5q-14 -78 12.5 -113.5t88.5 -35.5zM412 750q-13 0 -20 3.5t-14 10.5l-105 104q-5 5 -3 13q3 20 23 20h118q13 0 19 -3.5t14 -15.5l63 -103q4 -6 2 -13q-4 -16 -19 -16h-78z" />
    <glyph glyph-name="Oacute" unicode="&#xd3;" horiz-adv-x="703" 
d="M300 -10q-62 0 -114.5 17t-88 51t-50 85t-2.5 120q7 43 16.5 85.5t19.5 86.5q33 135 118.5 205t226.5 70q62 0 114 -17.5t88 -52.5t50.5 -86t2.5 -119q-8 -44 -17 -86.5t-20 -85.5q-34 -138 -119 -205.5t-225 -67.5zM311 119q60 0 106 35.5t64 113.5q11 44 19.5 82.5
t15.5 81.5q15 78 -12.5 113.5t-88.5 35.5t-106 -35.5t-64 -113.5q-11 -43 -19 -81.5t-16 -82.5q-14 -78 12.5 -113.5t88.5 -35.5zM388 750q-16 0 -14 14q1 8 8 14l108 104q12 12 20 15.5t21 3.5h122q9 0 13 -5.5t3 -12.5q-1 -9 -9 -14l-150 -105q-10 -7 -18.5 -10.5
t-21.5 -3.5h-82z" />
    <glyph glyph-name="Ocircumflex" unicode="&#xd4;" horiz-adv-x="703" 
d="M300 -10q-62 0 -114.5 17t-88 51t-50 85t-2.5 120q7 43 16.5 85.5t19.5 86.5q33 135 118.5 205t226.5 70q62 0 114 -17.5t88 -52.5t50.5 -86t2.5 -119q-8 -44 -17 -86.5t-20 -85.5q-34 -138 -119 -205.5t-225 -67.5zM311 119q60 0 106 35.5t64 113.5q11 44 19.5 82.5
t15.5 81.5q15 78 -12.5 113.5t-88.5 35.5t-106 -35.5t-64 -113.5q-11 -43 -19 -81.5t-16 -82.5q-14 -78 12.5 -113.5t88.5 -35.5zM271 750q-14 0 -12 13q1 8 8 14l126 107q12 11 20.5 14t17.5 3h71q10 0 17 -3t14 -14l80 -106q5 -6 3 -14q-2 -14 -17 -14h-42q-8 0 -15 1.5
t-13 5.5l-75 51l-96 -51q-8 -4 -15 -5.5t-15 -1.5h-57z" />
    <glyph glyph-name="Otilde" unicode="&#xd5;" horiz-adv-x="703" 
d="M300 -10q-62 0 -114.5 17t-88 51t-50 85t-2.5 120q7 43 16.5 85.5t19.5 86.5q33 135 118.5 205t226.5 70q62 0 114 -17.5t88 -52.5t50.5 -86t2.5 -119q-8 -44 -17 -86.5t-20 -85.5q-34 -138 -119 -205.5t-225 -67.5zM311 119q60 0 106 35.5t64 113.5q11 44 19.5 82.5
t15.5 81.5q15 78 -12.5 113.5t-88.5 35.5t-106 -35.5t-64 -113.5q-11 -43 -19 -81.5t-16 -82.5q-14 -78 12.5 -113.5t88.5 -35.5zM512 745q-26 0 -43 9t-31 17.5t-31 8.5q-16 0 -24 -7t-14 -15t-17 -8h-53q-7 0 -11 5.5t-3 11.5q3 16 12 36t24 39t37 31.5t50 12.5
q27 0 44.5 -9t31 -18t30.5 -9q16 0 24 8t14 15.5t17 7.5h53q8 0 11.5 -5.5t2.5 -12.5q-3 -15 -12 -35t-24.5 -39t-37 -31.5t-50.5 -12.5z" />
    <glyph glyph-name="Odieresis" unicode="&#xd6;" horiz-adv-x="703" 
d="M300 -10q-62 0 -114.5 17t-88 51t-50 85t-2.5 120q7 43 16.5 85.5t19.5 86.5q33 135 118.5 205t226.5 70q62 0 114 -17.5t88 -52.5t50.5 -86t2.5 -119q-8 -44 -17 -86.5t-20 -85.5q-34 -138 -119 -205.5t-225 -67.5zM311 119q60 0 106 35.5t64 113.5q11 44 19.5 82.5
t15.5 81.5q15 78 -12.5 113.5t-88.5 35.5t-106 -35.5t-64 -113.5q-11 -43 -19 -81.5t-16 -82.5q-14 -78 12.5 -113.5t88.5 -35.5zM515 750q-10 0 -15 6t-3 17l17 82q2 10 10 16.5t18 6.5h82q10 0 15 -6.5t3 -16.5l-17 -82q-2 -11 -10 -17t-18 -6h-82zM288 750q-10 0 -15 6
t-3 17l17 82q2 10 10 16.5t18 6.5h82q10 0 15 -6.5t3 -16.5l-17 -82q-2 -11 -10 -17t-18 -6h-82z" />
    <glyph glyph-name="multiply" unicode="&#xd7;" horiz-adv-x="587" 
d="M85 64l-58 73q-5 8 -3 18t11 17l163 133l-103 135q-6 8 -4 17.5t11 17.5l73 59q8 7 18 7t16 -7l104 -136l167 137q9 8 18.5 8t15.5 -8l58 -73q6 -7 4 -17t-11 -17l-166 -136l105 -134q5 -7 3 -17t-10 -17l-73 -59q-9 -7 -18.5 -7t-15.5 7l-106 133l-164 -134
q-9 -7 -19.5 -7t-15.5 7z" />
    <glyph glyph-name="Oslash" unicode="&#xd8;" horiz-adv-x="703" 
d="M300 -10q-62 0 -114.5 17t-88 51t-50 85t-2.5 120q7 43 16.5 85.5t19.5 86.5q33 135 118.5 205t226.5 70q62 0 114 -17.5t88 -52.5t50.5 -86t2.5 -119q-8 -44 -17 -86.5t-20 -85.5q-34 -138 -119 -205.5t-225 -67.5zM311 119q60 0 106 35.5t64 113.5q11 44 19.5 82.5
t15.5 81.5q15 78 -12.5 113.5t-88.5 35.5t-106 -35.5t-64 -113.5q-11 -43 -19 -81.5t-16 -82.5q-14 -78 12.5 -113.5t88.5 -35.5zM33 -65q-12 0 -17.5 11t4.5 23l632 782q2 3 8 8.5t16 5.5h31q12 0 17.5 -10.5t-3.5 -22.5l-633 -782q-2 -3 -8 -9t-17 -6h-30z" />
    <glyph glyph-name="Ugrave" unicode="&#xd9;" horiz-adv-x="719" 
d="M307 -10q-64 0 -116 16.5t-86.5 50.5t-46.5 86t3 124l87 408q2 11 10.5 18t19.5 7h109q11 0 16.5 -7t3.5 -18l-87 -407q-16 -74 7 -110t91 -36q67 0 109.5 36t57.5 110l87 407q2 11 11 18t19 7h110q10 0 15.5 -7t3.5 -18l-86 -408q-31 -143 -112.5 -210t-225.5 -67z
M416 750q-13 0 -20 3.5t-14 10.5l-105 104q-5 5 -3 13q3 20 23 20h118q13 0 19 -3.5t14 -15.5l63 -103q4 -6 2 -13q-4 -16 -19 -16h-78z" />
    <glyph glyph-name="Uacute" unicode="&#xda;" horiz-adv-x="719" 
d="M307 -10q-64 0 -116 16.5t-86.5 50.5t-46.5 86t3 124l87 408q2 11 10.5 18t19.5 7h109q11 0 16.5 -7t3.5 -18l-87 -407q-16 -74 7 -110t91 -36q67 0 109.5 36t57.5 110l87 407q2 11 11 18t19 7h110q10 0 15.5 -7t3.5 -18l-86 -408q-31 -143 -112.5 -210t-225.5 -67z
M392 750q-16 0 -14 14q1 8 8 14l108 104q12 12 20 15.5t21 3.5h122q9 0 13 -5.5t3 -12.5q-1 -9 -9 -14l-150 -105q-10 -7 -18.5 -10.5t-21.5 -3.5h-82z" />
    <glyph glyph-name="Ucircumflex" unicode="&#xdb;" horiz-adv-x="719" 
d="M307 -10q-64 0 -116 16.5t-86.5 50.5t-46.5 86t3 124l87 408q2 11 10.5 18t19.5 7h109q11 0 16.5 -7t3.5 -18l-87 -407q-16 -74 7 -110t91 -36q67 0 109.5 36t57.5 110l87 407q2 11 11 18t19 7h110q10 0 15.5 -7t3.5 -18l-86 -408q-31 -143 -112.5 -210t-225.5 -67z
M275 750q-14 0 -12 13q1 8 8 14l126 107q12 11 20.5 14t17.5 3h71q10 0 17 -3t14 -14l80 -106q5 -6 3 -14q-2 -14 -17 -14h-42q-8 0 -15 1.5t-13 5.5l-75 51l-96 -51q-8 -4 -15 -5.5t-15 -1.5h-57z" />
    <glyph glyph-name="Udieresis" unicode="&#xdc;" horiz-adv-x="719" 
d="M307 -10q-64 0 -116 16.5t-86.5 50.5t-46.5 86t3 124l87 408q2 11 10.5 18t19.5 7h109q11 0 16.5 -7t3.5 -18l-87 -407q-16 -74 7 -110t91 -36q67 0 109.5 36t57.5 110l87 407q2 11 11 18t19 7h110q10 0 15.5 -7t3.5 -18l-86 -408q-31 -143 -112.5 -210t-225.5 -67z
M519 750q-10 0 -15 6t-3 17l17 82q2 10 10 16.5t18 6.5h82q10 0 15 -6.5t3 -16.5l-17 -82q-2 -11 -10 -17t-18 -6h-82zM292 750q-10 0 -15 6t-3 17l17 82q2 10 10 16.5t18 6.5h82q10 0 15 -6.5t3 -16.5l-17 -82q-2 -11 -10 -17t-18 -6h-82z" />
    <glyph glyph-name="Yacute" unicode="&#xdd;" horiz-adv-x="670" 
d="M217 0q-10 0 -16 7t-4 18l47 220l-144 423q-4 12 3.5 22t20.5 10h100q13 0 19.5 -7t8.5 -13l97 -274l214 274q4 6 13.5 13t22.5 7h117q15 0 17 -11t-6 -21l-324 -423l-47 -220q-2 -11 -10.5 -18t-19.5 -7h-109zM356 750q-16 0 -14 14q1 8 8 14l108 104q12 12 20 15.5
t21 3.5h122q9 0 13 -5.5t3 -12.5q-1 -9 -9 -14l-150 -105q-10 -7 -18.5 -10.5t-21.5 -3.5h-82z" />
    <glyph glyph-name="Thorn" unicode="&#xde;" horiz-adv-x="669" 
d="M36 0q-10 0 -16 7t-4 18l139 650q2 11 10.5 18t18.5 7h115q10 0 16 -7t4 -18l-21 -95h122q59 0 107 -14t80 -43t44 -71t0 -99q-24 -113 -99.5 -167.5t-201.5 -54.5h-147l-23 -106q-2 -11 -10.5 -18t-19.5 -7h-114zM227 255h128q48 0 84.5 25t47.5 74q7 30 3 52.5
t-24 35.5t-62 13h-135z" />
    <glyph glyph-name="germandbls" unicode="&#xdf;" horiz-adv-x="626" 
d="M39 0q-11 0 -16 7t-3 18l95 451q14 65 51 117.5t99 84.5t150 32t136 -29t63 -73.5t4 -92.5q-7 -35 -23 -61.5t-36.5 -45.5t-43.5 -32q34 -14 51.5 -38.5t21.5 -56.5t-5 -72q-8 -36 -30 -72.5t-58.5 -67.5t-87.5 -50t-118 -19h-54q-13 0 -18.5 7t-3.5 18l14 65
q2 10 11 17.5t22 6.5h32q55 0 91 29t45 72t-14 72t-81 29h-33q-13 0 -17.5 7t-2.5 17l12 57q2 11 9 18t21 7h29q51 1 82.5 23.5t39.5 62.5q9 38 -14 62.5t-69 24.5t-79.5 -28.5t-45.5 -88.5l-97 -453q-2 -11 -10.5 -18t-19.5 -7h-99z" />
    <glyph glyph-name="agrave" unicode="&#xe0;" horiz-adv-x="616" 
d="M197 -10q-50 0 -86.5 16.5t-57.5 48t-27.5 75t2.5 96.5q3 19 6.5 34.5t7.5 33.5q13 52 35 95t54 74.5t74.5 49t95.5 17.5q62 0 94 -18.5t50 -45.5l6 29q2 11 10.5 18t18.5 7h95q11 0 16.5 -7t3.5 -18l-100 -470q-2 -11 -10 -18t-19 -7h-95q-11 0 -16.5 7t-3.5 18l7 34
q-30 -30 -66 -49.5t-95 -19.5zM254 110q38 0 64.5 17t43 43t24.5 56q5 19 9 38t7 37q5 28 0 52.5t-23.5 40.5t-54.5 16q-35 0 -60 -16.5t-41 -43.5t-25 -59q-4 -15 -8 -31t-6 -31q-4 -32 -1.5 -59t19.5 -43.5t52 -16.5zM339 595q-13 0 -20 3.5t-14 10.5l-105 104q-4 6 -3 13
q3 20 22 20h121q13 0 19.5 -3.5t13.5 -15.5l63 -102q4 -6 2 -14q-3 -16 -19 -16h-80z" />
    <glyph glyph-name="aacute" unicode="&#xe1;" horiz-adv-x="616" 
d="M197 -10q-50 0 -86.5 16.5t-57.5 48t-27.5 75t2.5 96.5q3 19 6.5 34.5t7.5 33.5q13 52 35 95t54 74.5t74.5 49t95.5 17.5q62 0 94 -18.5t50 -45.5l6 29q2 11 10.5 18t18.5 7h95q11 0 16.5 -7t3.5 -18l-100 -470q-2 -11 -10 -18t-19 -7h-95q-11 0 -16.5 7t-3.5 18l7 34
q-30 -30 -66 -49.5t-95 -19.5zM254 110q38 0 64.5 17t43 43t24.5 56q5 19 9 38t7 37q5 28 0 52.5t-23.5 40.5t-54.5 16q-35 0 -60 -16.5t-41 -43.5t-25 -59q-4 -15 -8 -31t-6 -31q-4 -32 -1.5 -59t19.5 -43.5t52 -16.5zM310 595q-16 0 -13 16q2 8 8 13l107 103
q13 12 20.5 15.5t20.5 3.5h115q17 0 15 -18q0 -9 -8 -14l-150 -105q-10 -7 -18.5 -10.5t-21.5 -3.5h-75z" />
    <glyph glyph-name="acircumflex" unicode="&#xe2;" horiz-adv-x="616" 
d="M197 -10q-50 0 -86.5 16.5t-57.5 48t-27.5 75t2.5 96.5q3 19 6.5 34.5t7.5 33.5q13 52 35 95t54 74.5t74.5 49t95.5 17.5q62 0 94 -18.5t50 -45.5l6 29q2 11 10.5 18t18.5 7h95q11 0 16.5 -7t3.5 -18l-100 -470q-2 -11 -10 -18t-19 -7h-95q-11 0 -16.5 7t-3.5 18l7 34
q-30 -30 -66 -49.5t-95 -19.5zM254 110q38 0 64.5 17t43 43t24.5 56q5 19 9 38t7 37q5 28 0 52.5t-23.5 40.5t-54.5 16q-35 0 -60 -16.5t-41 -43.5t-25 -59q-4 -15 -8 -31t-6 -31q-4 -32 -1.5 -59t19.5 -43.5t52 -16.5zM198 595q-14 0 -12 13q1 8 8 14l126 107
q12 11 20.5 14t17.5 3h66q10 0 17 -3t14 -14l80 -106q5 -6 3 -14q-3 -14 -17 -14h-40q-8 0 -14.5 1.5t-13.5 5.5l-74 51l-96 -51q-8 -4 -15 -5.5t-15 -1.5h-55z" />
    <glyph glyph-name="atilde" unicode="&#xe3;" horiz-adv-x="616" 
d="M197 -10q-50 0 -86.5 16.5t-57.5 48t-27.5 75t2.5 96.5q3 19 6.5 34.5t7.5 33.5q13 52 35 95t54 74.5t74.5 49t95.5 17.5q62 0 94 -18.5t50 -45.5l6 29q2 11 10.5 18t18.5 7h95q11 0 16.5 -7t3.5 -18l-100 -470q-2 -11 -10 -18t-19 -7h-95q-11 0 -16.5 7t-3.5 18l7 34
q-30 -30 -66 -49.5t-95 -19.5zM254 110q38 0 64.5 17t43 43t24.5 56q5 19 9 38t7 37q5 28 0 52.5t-23.5 40.5t-54.5 16q-35 0 -60 -16.5t-41 -43.5t-25 -59q-4 -15 -8 -31t-6 -31q-4 -32 -1.5 -59t19.5 -43.5t52 -16.5zM432 590q-26 0 -42.5 9t-29.5 17.5t-30 8.5
q-13 0 -21 -7t-15 -15t-18 -8h-53q-7 0 -11 5.5t-3 11.5q3 16 12 35.5t23.5 38t36.5 30.5t50 12t44 -8.5t29.5 -17.5t29.5 -9q14 0 21.5 8t14 15.5t17.5 7.5h53q9 0 12.5 -5.5t1.5 -12.5q-3 -16 -11.5 -35.5t-23.5 -38t-36.5 -30.5t-50.5 -12z" />
    <glyph glyph-name="adieresis" unicode="&#xe4;" horiz-adv-x="616" 
d="M197 -10q-50 0 -86.5 16.5t-57.5 48t-27.5 75t2.5 96.5q3 19 6.5 34.5t7.5 33.5q13 52 35 95t54 74.5t74.5 49t95.5 17.5q62 0 94 -18.5t50 -45.5l6 29q2 11 10.5 18t18.5 7h95q11 0 16.5 -7t3.5 -18l-100 -470q-2 -11 -10 -18t-19 -7h-95q-11 0 -16.5 7t-3.5 18l7 34
q-30 -30 -66 -49.5t-95 -19.5zM254 110q38 0 64.5 17t43 43t24.5 56q5 19 9 38t7 37q5 28 0 52.5t-23.5 40.5t-54.5 16q-35 0 -60 -16.5t-41 -43.5t-25 -59q-4 -15 -8 -31t-6 -31q-4 -32 -1.5 -59t19.5 -43.5t52 -16.5zM424 611q-10 0 -14.5 6t-3.5 16l18 82q2 10 9.5 16.5
t17.5 6.5h82q10 0 15 -6.5t3 -16.5l-17 -82q-2 -10 -10 -16t-18 -6h-82zM227 611q-10 0 -15 6t-3 16l18 82q2 10 9.5 16.5t17.5 6.5h82q10 0 15 -6.5t3 -16.5l-17 -82q-2 -10 -10 -16t-18 -6h-82z" />
    <glyph glyph-name="aring" unicode="&#xe5;" horiz-adv-x="616" 
d="M197 -10q-50 0 -86.5 16.5t-57.5 48t-27.5 75t2.5 96.5q3 19 6.5 34.5t7.5 33.5q13 52 35 95t54 74.5t74.5 49t95.5 17.5q62 0 94 -18.5t50 -45.5l6 29q2 11 10.5 18t18.5 7h95q11 0 16.5 -7t3.5 -18l-100 -470q-2 -11 -10 -18t-19 -7h-95q-11 0 -16.5 7t-3.5 18l7 34
q-30 -30 -66 -49.5t-95 -19.5zM254 110q38 0 64.5 17t43 43t24.5 56q5 19 9 38t7 37q5 28 0 52.5t-23.5 40.5t-54.5 16q-35 0 -60 -16.5t-41 -43.5t-25 -59q-4 -15 -8 -31t-6 -31q-4 -32 -1.5 -59t19.5 -43.5t52 -16.5zM361 590q-37 0 -59.5 24.5t-14.5 60.5q9 37 39.5 61.5
t67.5 24.5t59.5 -24.5t14.5 -61.5t-39 -61t-68 -24zM369 645q14 0 24.5 8.5t13.5 21.5t-3 21.5t-19 8.5q-14 0 -24.5 -8.5t-13.5 -21.5t3.5 -21.5t18.5 -8.5z" />
    <glyph glyph-name="ae" unicode="&#xe6;" horiz-adv-x="909" 
d="M176 -10q-61 0 -101 20.5t-56 55.5t-7 78q14 71 80.5 113t163.5 56l136 20l3 17q8 39 -5.5 59.5t-58.5 20.5q-27 0 -46.5 -9t-34 -20.5t-27.5 -20.5q-3 -5 -6.5 -7.5t-8.5 -2.5h-92q-10 0 -14.5 6.5t-3.5 15.5q4 17 21.5 40t49.5 45.5t78 37.5t106 15q66 0 102 -17.5
t52 -44.5q35 28 79 45t98 17q57 0 96 -15.5t62 -42t33.5 -60.5t10 -72t-7.5 -75l-5 -23q-2 -10 -11 -17t-19 -7h-322l-1 -8q-8 -42 0 -68t27 -37.5t42 -11.5q24 0 48 10t44 31q11 10 17 12.5t18 2.5h103q9 0 14 -5.5t3 -15.5q-4 -15 -23.5 -38t-53.5 -46t-82 -38.5
t-108 -15.5q-67 0 -109.5 23t-65.5 62q-47 -47 -103.5 -66t-114.5 -19zM228 94q33 0 61.5 14t50 43t30.5 73l4 17l-97 -15q-55 -9 -84 -27t-34 -44q-4 -19 4.5 -33t26 -21t38.5 -7zM541 309h191l1 4q5 36 0.5 62t-21.5 40.5t-50 14.5q-25 0 -50 -12.5t-44 -38.5t-26 -66z
" />
    <glyph glyph-name="ccedilla" unicode="&#xe7;" horiz-adv-x="579" 
d="M199 -220q-27 0 -50 9t-32 21t4 21l20 16q10 7 15.5 4t15 -9t29.5 -6q15 0 27 9t15 23q3 13 -5 22t-24 9q-12 0 -23 -3.5t-20 -4.5t-14 6l-17 23q-5 6 -2 14t10 19l28 43q-52 11 -90 40t-54.5 75.5t-5.5 107.5q3 16 8 40.5t9 40.5q27 109 102.5 169.5t189.5 60.5
q65 0 109 -19t70 -47.5t35.5 -59t6.5 -53.5q-1 -11 -9 -18t-18 -7h-109q-10 0 -15.5 5t-7.5 16q-1 35 -19.5 51t-53.5 16q-45 0 -78.5 -29t-48.5 -90q-5 -19 -9 -37.5t-6 -33.5q-10 -62 7.5 -90t62.5 -28q35 0 62 15t46 50q6 11 12.5 16t17.5 5h108q11 0 16.5 -7.5
t2.5 -17.5q-6 -21 -24.5 -51t-51.5 -58.5t-83 -47.5t-120 -20l-29 -41q7 3 17.5 4.5t17.5 1.5q34 0 50.5 -26t8.5 -64q-7 -38 -33.5 -61.5t-70.5 -23.5z" />
    <glyph glyph-name="egrave" unicode="&#xe8;" horiz-adv-x="583" 
d="M244 -10q-76 0 -126.5 28.5t-69.5 84.5t-5 137q2 8 4.5 21.5t5.5 21.5q20 77 62.5 132.5t105 85t137.5 29.5q84 0 132.5 -34.5t64.5 -94t0 -136.5l-4 -23q-2 -10 -11 -17t-20 -7h-326q0 -1 -0.5 -3.5t-1.5 -4.5q-5 -32 0 -58.5t23.5 -42.5t48.5 -16q24 0 42 7t30.5 17
t19.5 17q11 10 17 12.5t18 2.5h104q10 0 15 -5.5t2 -15.5q-4 -16 -24.5 -39.5t-55.5 -46t-82.5 -37.5t-105.5 -15zM214 309h196v2q9 36 2.5 62.5t-25.5 41.5t-50 15t-56 -15t-41.5 -41.5t-25.5 -62.5v-2zM343 595q-13 0 -20 3.5t-14 10.5l-105 104q-4 6 -3 13q3 20 22 20
h121q13 0 19.5 -3.5t13.5 -15.5l63 -102q4 -6 2 -14q-3 -16 -19 -16h-80z" />
    <glyph glyph-name="eacute" unicode="&#xe9;" horiz-adv-x="583" 
d="M244 -10q-76 0 -126.5 28.5t-69.5 84.5t-5 137q2 8 4.5 21.5t5.5 21.5q20 77 62.5 132.5t105 85t137.5 29.5q84 0 132.5 -34.5t64.5 -94t0 -136.5l-4 -23q-2 -10 -11 -17t-20 -7h-326q0 -1 -0.5 -3.5t-1.5 -4.5q-5 -32 0 -58.5t23.5 -42.5t48.5 -16q24 0 42 7t30.5 17
t19.5 17q11 10 17 12.5t18 2.5h104q10 0 15 -5.5t2 -15.5q-4 -16 -24.5 -39.5t-55.5 -46t-82.5 -37.5t-105.5 -15zM214 309h196v2q9 36 2.5 62.5t-25.5 41.5t-50 15t-56 -15t-41.5 -41.5t-25.5 -62.5v-2zM314 595q-16 0 -13 16q2 8 8 13l107 103q13 12 20.5 15.5t20.5 3.5
h115q17 0 15 -18q0 -9 -8 -14l-150 -105q-10 -7 -18.5 -10.5t-21.5 -3.5h-75z" />
    <glyph glyph-name="ecircumflex" unicode="&#xea;" horiz-adv-x="583" 
d="M244 -10q-76 0 -126.5 28.5t-69.5 84.5t-5 137q2 8 4.5 21.5t5.5 21.5q20 77 62.5 132.5t105 85t137.5 29.5q84 0 132.5 -34.5t64.5 -94t0 -136.5l-4 -23q-2 -10 -11 -17t-20 -7h-326q0 -1 -0.5 -3.5t-1.5 -4.5q-5 -32 0 -58.5t23.5 -42.5t48.5 -16q24 0 42 7t30.5 17
t19.5 17q11 10 17 12.5t18 2.5h104q10 0 15 -5.5t2 -15.5q-4 -16 -24.5 -39.5t-55.5 -46t-82.5 -37.5t-105.5 -15zM214 309h196v2q9 36 2.5 62.5t-25.5 41.5t-50 15t-56 -15t-41.5 -41.5t-25.5 -62.5v-2zM202 595q-14 0 -12 13q1 8 8 14l126 107q12 11 20.5 14t17.5 3h66
q10 0 17 -3t14 -14l80 -106q5 -6 3 -14q-3 -14 -17 -14h-40q-8 0 -14.5 1.5t-13.5 5.5l-74 51l-96 -51q-8 -4 -15 -5.5t-15 -1.5h-55z" />
    <glyph glyph-name="edieresis" unicode="&#xeb;" horiz-adv-x="583" 
d="M244 -10q-76 0 -126.5 28.5t-69.5 84.5t-5 137q2 8 4.5 21.5t5.5 21.5q20 77 62.5 132.5t105 85t137.5 29.5q84 0 132.5 -34.5t64.5 -94t0 -136.5l-4 -23q-2 -10 -11 -17t-20 -7h-326q0 -1 -0.5 -3.5t-1.5 -4.5q-5 -32 0 -58.5t23.5 -42.5t48.5 -16q24 0 42 7t30.5 17
t19.5 17q11 10 17 12.5t18 2.5h104q10 0 15 -5.5t2 -15.5q-4 -16 -24.5 -39.5t-55.5 -46t-82.5 -37.5t-105.5 -15zM214 309h196v2q9 36 2.5 62.5t-25.5 41.5t-50 15t-56 -15t-41.5 -41.5t-25.5 -62.5v-2zM428 611q-10 0 -14.5 6t-3.5 16l18 82q2 10 9.5 16.5t17.5 6.5h82
q10 0 15 -6.5t3 -16.5l-17 -82q-2 -10 -10 -16t-18 -6h-82zM231 611q-10 0 -15 6t-3 16l18 82q2 10 9.5 16.5t17.5 6.5h82q10 0 15 -6.5t3 -16.5l-17 -82q-2 -10 -10 -16t-18 -6h-82z" />
    <glyph glyph-name="igrave" unicode="&#xec;" horiz-adv-x="275" 
d="M25 0q-10 0 -16 7t-4 18l100 470q2 11 11 18t19 7h100q11 0 16 -7t3 -18l-100 -470q-2 -11 -10 -18t-19 -7h-100zM177 595q-13 0 -20 3.5t-14 10.5l-105 104q-4 6 -3 13q3 20 22 20h121q13 0 19.5 -3.5t13.5 -15.5l63 -102q4 -6 2 -14q-3 -16 -19 -16h-80z" />
    <glyph glyph-name="iacute" unicode="&#xed;" horiz-adv-x="275" 
d="M25 0q-10 0 -16 7t-4 18l100 470q2 11 11 18t19 7h100q11 0 16 -7t3 -18l-100 -470q-2 -11 -10 -18t-19 -7h-100zM148 595q-16 0 -13 16q2 8 8 13l107 103q13 12 20.5 15.5t20.5 3.5h115q17 0 15 -18q0 -9 -8 -14l-150 -105q-10 -7 -18.5 -10.5t-21.5 -3.5h-75z" />
    <glyph glyph-name="icircumflex" unicode="&#xee;" horiz-adv-x="275" 
d="M25 0q-10 0 -16 7t-4 18l100 470q2 11 11 18t19 7h100q11 0 16 -7t3 -18l-100 -470q-2 -11 -10 -18t-19 -7h-100zM36 595q-14 0 -12 13q1 8 8 14l126 107q12 11 20.5 14t17.5 3h66q10 0 17 -3t14 -14l80 -106q5 -6 3 -14q-3 -14 -17 -14h-40q-8 0 -14.5 1.5t-13.5 5.5
l-74 51l-96 -51q-8 -4 -15 -5.5t-15 -1.5h-55z" />
    <glyph glyph-name="idieresis" unicode="&#xef;" horiz-adv-x="275" 
d="M25 0q-10 0 -16 7t-4 18l100 470q2 11 11 18t19 7h100q11 0 16 -7t3 -18l-100 -470q-2 -11 -10 -18t-19 -7h-100zM262 611q-10 0 -14.5 6t-3.5 16l18 82q2 10 9.5 16.5t17.5 6.5h82q10 0 15 -6.5t3 -16.5l-17 -82q-2 -10 -10 -16t-18 -6h-82zM65 611q-10 0 -15 6t-3 16
l18 82q2 10 9.5 16.5t17.5 6.5h82q10 0 15 -6.5t3 -16.5l-17 -82q-2 -10 -10 -16t-18 -6h-82z" />
    <glyph glyph-name="eth" unicode="&#xf0;" horiz-adv-x="595" 
d="M244 -10q-80 0 -131 28.5t-70 83t-3 128.5q16 76 59 129.5t106.5 82t140.5 28.5q22 0 38.5 -5t29.5 -14q-4 25 -11 46.5t-18 40.5l-116 -41q-9 -3 -13 -3q-8 0 -12.5 5t-2.5 14l5 24q2 12 8.5 18.5t19.5 10.5l74 26q-14 17 -30.5 34t-34.5 33q-7 6 -9.5 11t-1.5 9
q2 9 9.5 15t16.5 6h106q16 0 25.5 -4t15.5 -9q12 -11 22.5 -22t19.5 -23l99 35q8 3 13 3q8 0 12.5 -5t2.5 -14l-5 -24q-2 -12 -8 -18t-20 -11l-56 -20q34 -56 43.5 -134.5t-11.5 -192.5q-1 -8 -3 -17t-4 -17q-18 -73 -59.5 -126.5t-104 -82t-142.5 -28.5zM267 100
q34 0 59.5 15t42 41.5t23.5 58.5q3 8 4 14.5t3 14.5q6 33 1 59t-23.5 41.5t-53.5 15.5t-60.5 -15.5t-41 -41.5t-22.5 -59q-3 -8 -4.5 -14.5t-2.5 -14.5q-6 -32 -1 -58.5t23.5 -41.5t52.5 -15z" />
    <glyph glyph-name="ntilde" unicode="&#xf1;" horiz-adv-x="633" 
d="M25 0q-10 0 -16 7t-4 18l100 470q2 11 11 18t19 7h98q11 0 16 -7t3 -18l-8 -39q31 32 74.5 53t98.5 21q66 0 106.5 -26.5t55 -77t-0.5 -122.5l-60 -279q-2 -11 -10.5 -18t-19.5 -7h-106q-10 0 -16 7t-4 18l58 273q12 56 -2.5 84t-66.5 28q-51 0 -86.5 -29.5t-46.5 -82.5
l-58 -273q-2 -11 -10.5 -18t-18.5 -7h-106zM446 590q-26 0 -42.5 9t-29.5 17.5t-30 8.5q-13 0 -21 -7t-15 -15t-18 -8h-53q-7 0 -11 5.5t-3 11.5q3 16 12 35.5t23.5 38t36.5 30.5t50 12t44 -8.5t29.5 -17.5t29.5 -9q14 0 21.5 8t14 15.5t17.5 7.5h53q9 0 12.5 -5.5
t1.5 -12.5q-3 -16 -11.5 -35.5t-23.5 -38t-36.5 -30.5t-50.5 -12z" />
    <glyph glyph-name="ograve" unicode="&#xf2;" horiz-adv-x="600" 
d="M242 -10q-78 0 -130.5 27.5t-74.5 78.5t-11 119q2 20 7.5 45.5t11.5 44.5q18 69 56 119.5t98 78t142 27.5q77 0 129.5 -27.5t76 -78t11.5 -119.5q-3 -19 -8.5 -44.5t-10.5 -45.5q-18 -68 -55 -119t-97 -78.5t-145 -27.5zM254 100q50 0 83 30.5t48 89.5q4 15 9.5 40
t7.5 40q10 58 -7 89t-66 31t-82 -31t-48 -89q-4 -15 -9.5 -40t-7.5 -40q-10 -59 6.5 -89.5t65.5 -30.5zM336 595q-13 0 -20 3.5t-14 10.5l-105 104q-4 6 -3 13q3 20 22 20h121q13 0 19.5 -3.5t13.5 -15.5l63 -102q4 -6 2 -14q-3 -16 -19 -16h-80z" />
    <glyph glyph-name="oacute" unicode="&#xf3;" horiz-adv-x="600" 
d="M242 -10q-78 0 -130.5 27.5t-74.5 78.5t-11 119q2 20 7.5 45.5t11.5 44.5q18 69 56 119.5t98 78t142 27.5q77 0 129.5 -27.5t76 -78t11.5 -119.5q-3 -19 -8.5 -44.5t-10.5 -45.5q-18 -68 -55 -119t-97 -78.5t-145 -27.5zM254 100q50 0 83 30.5t48 89.5q4 15 9.5 40
t7.5 40q10 58 -7 89t-66 31t-82 -31t-48 -89q-4 -15 -9.5 -40t-7.5 -40q-10 -59 6.5 -89.5t65.5 -30.5zM307 595q-16 0 -13 16q2 8 8 13l107 103q13 12 20.5 15.5t20.5 3.5h115q17 0 15 -18q0 -9 -8 -14l-150 -105q-10 -7 -18.5 -10.5t-21.5 -3.5h-75z" />
    <glyph glyph-name="ocircumflex" unicode="&#xf4;" horiz-adv-x="600" 
d="M242 -10q-78 0 -130.5 27.5t-74.5 78.5t-11 119q2 20 7.5 45.5t11.5 44.5q18 69 56 119.5t98 78t142 27.5q77 0 129.5 -27.5t76 -78t11.5 -119.5q-3 -19 -8.5 -44.5t-10.5 -45.5q-18 -68 -55 -119t-97 -78.5t-145 -27.5zM254 100q50 0 83 30.5t48 89.5q4 15 9.5 40
t7.5 40q10 58 -7 89t-66 31t-82 -31t-48 -89q-4 -15 -9.5 -40t-7.5 -40q-10 -59 6.5 -89.5t65.5 -30.5zM196 595q-14 0 -12 13q1 8 8 14l126 107q12 11 20.5 14t17.5 3h66q10 0 17 -3t14 -14l80 -106q5 -6 3 -14q-3 -14 -17 -14h-40q-8 0 -14.5 1.5t-13.5 5.5l-74 51
l-96 -51q-8 -4 -15 -5.5t-15 -1.5h-55z" />
    <glyph glyph-name="otilde" unicode="&#xf5;" horiz-adv-x="600" 
d="M242 -10q-78 0 -130.5 27.5t-74.5 78.5t-11 119q2 20 7.5 45.5t11.5 44.5q18 69 56 119.5t98 78t142 27.5q77 0 129.5 -27.5t76 -78t11.5 -119.5q-3 -19 -8.5 -44.5t-10.5 -45.5q-18 -68 -55 -119t-97 -78.5t-145 -27.5zM254 100q50 0 83 30.5t48 89.5q4 15 9.5 40
t7.5 40q10 58 -7 89t-66 31t-82 -31t-48 -89q-4 -15 -9.5 -40t-7.5 -40q-10 -59 6.5 -89.5t65.5 -30.5zM429 590q-26 0 -42.5 9t-29.5 17.5t-30 8.5q-13 0 -21 -7t-15 -15t-18 -8h-53q-7 0 -11 5.5t-3 11.5q3 16 12 35.5t23.5 38t36.5 30.5t50 12t44 -8.5t29.5 -17.5
t29.5 -9q14 0 21.5 8t14 15.5t17.5 7.5h53q9 0 12.5 -5.5t1.5 -12.5q-3 -16 -11.5 -35.5t-23.5 -38t-36.5 -30.5t-50.5 -12z" />
    <glyph glyph-name="odieresis" unicode="&#xf6;" horiz-adv-x="600" 
d="M242 -10q-78 0 -130.5 27.5t-74.5 78.5t-11 119q2 20 7.5 45.5t11.5 44.5q18 69 56 119.5t98 78t142 27.5q77 0 129.5 -27.5t76 -78t11.5 -119.5q-3 -19 -8.5 -44.5t-10.5 -45.5q-18 -68 -55 -119t-97 -78.5t-145 -27.5zM254 100q50 0 83 30.5t48 89.5q4 15 9.5 40
t7.5 40q10 58 -7 89t-66 31t-82 -31t-48 -89q-4 -15 -9.5 -40t-7.5 -40q-10 -59 6.5 -89.5t65.5 -30.5zM421 611q-10 0 -14.5 6t-3.5 16l18 82q2 10 9.5 16.5t17.5 6.5h82q10 0 15 -6.5t3 -16.5l-17 -82q-2 -10 -10 -16t-18 -6h-82zM224 611q-10 0 -15 6t-3 16l18 82
q2 10 9.5 16.5t17.5 6.5h82q10 0 15 -6.5t3 -16.5l-17 -82q-2 -10 -10 -16t-18 -6h-82z" />
    <glyph glyph-name="divide" unicode="&#xf7;" horiz-adv-x="537" 
d="M173 51q-11 0 -16.5 7t-3.5 18l17 82q2 10 10.5 17.5t19.5 7.5h87q10 0 16 -7.5t4 -17.5l-18 -82q-2 -11 -10.5 -18t-18.5 -7h-87zM250 419q-10 0 -15.5 7t-3.5 17l17 82q2 11 11 18t19 7h87q11 0 16.5 -7t3.5 -18l-17 -82q-2 -10 -11 -17t-20 -7h-87zM61 243
q-10 0 -15.5 7t-3.5 17l15 67q2 10 10.5 17t18.5 7h391q10 0 15.5 -7t3.5 -17l-14 -67q-2 -10 -11 -17t-19 -7h-391z" />
    <glyph glyph-name="oslash" unicode="&#xf8;" horiz-adv-x="600" 
d="M242 -10q-78 0 -130.5 27.5t-74.5 78.5t-11 119q2 20 7.5 45.5t11.5 44.5q18 69 56 119.5t98 78t142 27.5q77 0 129.5 -27.5t76 -78t11.5 -119.5q-3 -19 -8.5 -44.5t-10.5 -45.5q-18 -68 -55 -119t-97 -78.5t-145 -27.5zM254 100q50 0 83 30.5t48 89.5q4 15 9.5 40
t7.5 40q10 58 -7 89t-66 31t-82 -31t-48 -89q-4 -15 -9.5 -40t-7.5 -40q-10 -59 6.5 -89.5t65.5 -30.5zM7 -28q-6 0 -12 5t-6 12q0 8 9 17l532 526q7 6 13.5 10.5t17.5 4.5h28q6 0 11.5 -5t5.5 -12q0 -9 -7 -17l-533 -526q-6 -6 -13 -10.5t-18 -4.5h-28z" />
    <glyph glyph-name="ugrave" unicode="&#xf9;" horiz-adv-x="631" 
d="M199 -10q-62 0 -103 26.5t-56 77t1 122.5l59 279q2 11 10.5 18t19.5 7h106q10 0 15.5 -7t3.5 -18l-58 -273q-8 -37 -5 -62t21 -37.5t53 -12.5q48 0 84 29.5t47 82.5l58 273q2 11 11 18t19 7h106q11 0 16 -7t3 -18l-100 -470q-2 -11 -10 -18t-19 -7h-98q-11 0 -16.5 7
t-3.5 18l8 39q-22 -23 -45.5 -40t-53 -25.5t-73.5 -8.5zM343 595q-13 0 -20 3.5t-14 10.5l-105 104q-4 6 -3 13q3 20 22 20h121q13 0 19.5 -3.5t13.5 -15.5l63 -102q4 -6 2 -14q-3 -16 -19 -16h-80z" />
    <glyph glyph-name="uacute" unicode="&#xfa;" horiz-adv-x="631" 
d="M199 -10q-62 0 -103 26.5t-56 77t1 122.5l59 279q2 11 10.5 18t19.5 7h106q10 0 15.5 -7t3.5 -18l-58 -273q-8 -37 -5 -62t21 -37.5t53 -12.5q48 0 84 29.5t47 82.5l58 273q2 11 11 18t19 7h106q11 0 16 -7t3 -18l-100 -470q-2 -11 -10 -18t-19 -7h-98q-11 0 -16.5 7
t-3.5 18l8 39q-22 -23 -45.5 -40t-53 -25.5t-73.5 -8.5zM314 595q-16 0 -13 16q2 8 8 13l107 103q13 12 20.5 15.5t20.5 3.5h115q17 0 15 -18q0 -9 -8 -14l-150 -105q-10 -7 -18.5 -10.5t-21.5 -3.5h-75z" />
    <glyph glyph-name="ucircumflex" unicode="&#xfb;" horiz-adv-x="631" 
d="M199 -10q-62 0 -103 26.5t-56 77t1 122.5l59 279q2 11 10.5 18t19.5 7h106q10 0 15.5 -7t3.5 -18l-58 -273q-8 -37 -5 -62t21 -37.5t53 -12.5q48 0 84 29.5t47 82.5l58 273q2 11 11 18t19 7h106q11 0 16 -7t3 -18l-100 -470q-2 -11 -10 -18t-19 -7h-98q-11 0 -16.5 7
t-3.5 18l8 39q-22 -23 -45.5 -40t-53 -25.5t-73.5 -8.5zM203 595q-14 0 -12 13q1 8 8 14l126 107q12 11 20.5 14t17.5 3h66q10 0 17 -3t14 -14l80 -106q5 -6 3 -14q-3 -14 -17 -14h-40q-8 0 -14.5 1.5t-13.5 5.5l-74 51l-96 -51q-8 -4 -15 -5.5t-15 -1.5h-55z" />
    <glyph glyph-name="udieresis" unicode="&#xfc;" horiz-adv-x="631" 
d="M199 -10q-62 0 -103 26.5t-56 77t1 122.5l59 279q2 11 10.5 18t19.5 7h106q10 0 15.5 -7t3.5 -18l-58 -273q-8 -37 -5 -62t21 -37.5t53 -12.5q48 0 84 29.5t47 82.5l58 273q2 11 11 18t19 7h106q11 0 16 -7t3 -18l-100 -470q-2 -11 -10 -18t-19 -7h-98q-11 0 -16.5 7
t-3.5 18l8 39q-22 -23 -45.5 -40t-53 -25.5t-73.5 -8.5zM428 611q-10 0 -14.5 6t-3.5 16l18 82q2 10 9.5 16.5t17.5 6.5h82q10 0 15 -6.5t3 -16.5l-17 -82q-2 -10 -10 -16t-18 -6h-82zM231 611q-10 0 -15 6t-3 16l18 82q2 10 9.5 16.5t17.5 6.5h82q10 0 15 -6.5t3 -16.5
l-17 -82q-2 -10 -10 -16t-18 -6h-82z" />
    <glyph glyph-name="yacute" unicode="&#xfd;" horiz-adv-x="591" 
d="M54 -190q-12 0 -16 10.5t4 21.5l122 192l-98 457q-2 11 4.5 20t21.5 9h91q12 0 17.5 -6t6.5 -14l61 -310l196 310q5 8 12.5 14t20.5 6h102q11 0 16 -9t-2 -21l-426 -660q-4 -8 -12 -14t-21 -6h-100zM306 595q-16 0 -13 16q2 8 8 13l107 103q13 12 20.5 15.5t20.5 3.5h115
q17 0 15 -18q0 -9 -8 -14l-150 -105q-10 -7 -18.5 -10.5t-21.5 -3.5h-75z" />
    <glyph glyph-name="thorn" unicode="&#xfe;" horiz-adv-x="621" 
d="M-15 -190q-11 0 -16.5 7t-3.5 18l182 850q2 11 10 18t19 7h103q10 0 16 -7t4 -18l-48 -223q25 28 60.5 48t94.5 20q51 0 87.5 -16.5t58 -48t28.5 -75t-2 -96.5q-3 -19 -6.5 -34t-8.5 -34q-13 -51 -35 -94.5t-54 -75t-73.5 -49t-93.5 -17.5q-54 0 -89.5 19t-52.5 50
l-48 -224q-2 -11 -10.5 -18t-18.5 -7h-103zM279 110q36 0 61.5 16.5t42 43.5t26.5 59q5 15 8 31t5 31q4 32 0.5 59t-20.5 43.5t-53 16.5q-37 0 -64.5 -17t-44.5 -43t-25 -56q-5 -18 -9 -37t-7 -38q-5 -28 0.5 -52.5t24.5 -40.5t55 -16z" />
    <glyph glyph-name="ydieresis" unicode="&#xff;" horiz-adv-x="591" 
d="M54 -190q-12 0 -16 10.5t4 21.5l122 192l-98 457q-2 11 4.5 20t21.5 9h91q12 0 17.5 -6t6.5 -14l61 -310l196 310q5 8 12.5 14t20.5 6h102q11 0 16 -9t-2 -21l-426 -660q-4 -8 -12 -14t-21 -6h-100zM420 611q-10 0 -14.5 6t-3.5 16l18 82q2 10 9.5 16.5t17.5 6.5h82
q10 0 15 -6.5t3 -16.5l-17 -82q-2 -10 -10 -16t-18 -6h-82zM223 611q-10 0 -15 6t-3 16l18 82q2 10 9.5 16.5t17.5 6.5h82q10 0 15 -6.5t3 -16.5l-17 -82q-2 -10 -10 -16t-18 -6h-82z" />
    <glyph glyph-name="Amacron" unicode="&#x100;" horiz-adv-x="708" 
d="M-29 0q-12 0 -16.5 10t1.5 20l374 643q6 11 16 19t27 8h134q16 0 23 -8t8 -19l102 -643q2 -14 -5 -22t-18 -8h-102q-15 0 -21 7t-8 16l-20 109h-282l-67 -112q-5 -7 -13 -13.5t-22 -6.5h-111zM249 261h207l-43 288zM300 750q-10 0 -14.5 6.5t-2.5 16.5l13 64q2 10 10 16
t18 6h290q10 0 14.5 -6t2.5 -16l-13 -64q-1 -10 -9 -16.5t-18 -6.5h-291z" />
    <glyph glyph-name="amacron" unicode="&#x101;" horiz-adv-x="616" 
d="M197 -10q-50 0 -86.5 16.5t-57.5 48t-27.5 75t2.5 96.5q3 19 6.5 34.5t7.5 33.5q13 52 35 95t54 74.5t74.5 49t95.5 17.5q62 0 94 -18.5t50 -45.5l6 29q2 11 10.5 18t18.5 7h95q11 0 16.5 -7t3.5 -18l-100 -470q-2 -11 -10 -18t-19 -7h-95q-11 0 -16.5 7t-3.5 18l7 34
q-30 -30 -66 -49.5t-95 -19.5zM254 110q38 0 64.5 17t43 43t24.5 56q5 19 9 38t7 37q5 28 0 52.5t-23.5 40.5t-54.5 16q-35 0 -60 -16.5t-41 -43.5t-25 -59q-4 -15 -8 -31t-6 -31q-4 -32 -1.5 -59t19.5 -43.5t52 -16.5zM233 608q-10 0 -15 6.5t-3 16.5l13 60q2 10 9.5 16
t17.5 6h265q10 0 14.5 -6t2.5 -16l-12 -60q-2 -10 -9.5 -16.5t-17.5 -6.5h-265z" />
    <glyph glyph-name="Abreve" unicode="&#x102;" horiz-adv-x="708" 
d="M-29 0q-12 0 -16.5 10t1.5 20l374 643q6 11 16 19t27 8h134q16 0 23 -8t8 -19l102 -643q2 -14 -5 -22t-18 -8h-102q-15 0 -21 7t-8 16l-20 109h-282l-67 -112q-5 -7 -13 -13.5t-22 -6.5h-111zM249 261h207l-43 288zM450 743q-48 0 -79 18.5t-43 49.5t-4 68q2 8 8 13.5
t15 5.5h58q9 0 13 -5.5t2 -13.5q-4 -23 2 -41.5t35 -18.5t44 18.5t21 41.5q2 8 8 13.5t15 5.5h58q9 0 13 -5.5t2 -13.5q-8 -37 -26.5 -68t-52.5 -49.5t-89 -18.5z" />
    <glyph glyph-name="abreve" unicode="&#x103;" horiz-adv-x="616" 
d="M197 -10q-50 0 -86.5 16.5t-57.5 48t-27.5 75t2.5 96.5q3 19 6.5 34.5t7.5 33.5q13 52 35 95t54 74.5t74.5 49t95.5 17.5q62 0 94 -18.5t50 -45.5l6 29q2 11 10.5 18t18.5 7h95q11 0 16.5 -7t3.5 -18l-100 -470q-2 -11 -10 -18t-19 -7h-95q-11 0 -16.5 7t-3.5 18l7 34
q-30 -30 -66 -49.5t-95 -19.5zM254 110q38 0 64.5 17t43 43t24.5 56q5 19 9 38t7 37q5 28 0 52.5t-23.5 40.5t-54.5 16q-35 0 -60 -16.5t-41 -43.5t-25 -59q-4 -15 -8 -31t-6 -31q-4 -32 -1.5 -59t19.5 -43.5t52 -16.5zM371 590q-45 0 -75 19t-42 50t-4 68q2 8 8 13.5
t15 5.5h55q9 0 13 -5.5t2 -13.5q-4 -23 1.5 -42t33.5 -19q29 0 43 19t19 42q2 8 8 13.5t15 5.5h56q9 0 13 -5.5t2 -13.5q-8 -37 -26 -68t-51.5 -50t-85.5 -19z" />
    <glyph glyph-name="Aogonek" unicode="&#x104;" horiz-adv-x="704" 
d="M532 -220q-51 0 -80.5 20t-39 55t0.5 80q7 35 27.5 59t47.5 33q-7 2 -9.5 7t-2.5 10l-14 88h-285l-66 -112q-4 -6 -12.5 -13t-23.5 -7h-106q-8 0 -13 6.5t-3 14.5q0 2 1 4.5t2 4.5l376 643q5 11 15.5 19t27.5 8h128q16 0 23.5 -8t8.5 -19l102 -643q1 -2 0.5 -4.5
t-1.5 -4.5q-2 -8 -9.5 -14.5t-16.5 -6.5h-30q-29 -1 -48.5 -20t-24.5 -45q-6 -27 5.5 -46t43.5 -19h12q11 0 16.5 -7t3.5 -17l-9 -41q-2 -11 -11 -18t-19 -7h-17zM242 261h209l-43 288z" />
    <glyph glyph-name="aogonek" unicode="&#x105;" horiz-adv-x="616" 
d="M417 -220q-57 0 -86 31t-29 79q0 26 10 54t30 54t50 43l-1 -41h-19q-11 0 -17.5 6t-3.5 20l7 33q-30 -30 -66 -49.5t-95 -19.5q-51 0 -87.5 17t-57.5 48.5t-26.5 75t2.5 95.5q3 19 6.5 34.5t7.5 33.5q13 52 35 95t54 74.5t74.5 49t95.5 17.5q62 0 94 -18.5t50 -45.5l6 29
q2 11 10.5 18t18.5 7h95q11 0 16.5 -7t3.5 -18l-100 -472q-1 -9 -8 -16.5t-16 -9.5l-5 -1q-28 -6 -48 -29.5t-20 -55.5q0 -18 10.5 -29.5t31.5 -11.5h8q10 0 15.5 -7t3.5 -17l-9 -41q-2 -11 -10.5 -18t-19.5 -7h-11zM254 110q38 0 64.5 17t43 43t24.5 56q5 19 9 38t7 37
q4 19 2.5 38.5t-10 35t-25.5 25.5t-45 10q-35 0 -60 -16.5t-41 -43.5t-25 -59q-4 -15 -8 -31t-6 -31q-2 -22 -2 -43.5t6.5 -38.5t22 -27t43.5 -10z" />
    <glyph glyph-name="Cacute" unicode="&#x106;" horiz-adv-x="692" 
d="M301 -10q-68 0 -121 17.5t-87 52.5t-47 85.5t-2 115.5q7 41 17.5 88t20.5 90q22 86 66.5 146.5t114 92.5t164.5 32q65 0 118.5 -16.5t90 -48t52 -75t5.5 -97.5q-1 -9 -7.5 -15t-15.5 -6h-116q-12 0 -18.5 6t-7.5 20q3 57 -28.5 80t-83.5 23q-62 0 -107 -34t-64 -113
q-21 -82 -36 -168q-14 -79 14 -113t89 -34q52 0 93.5 22.5t67.5 80.5q8 15 15.5 20.5t19.5 5.5h115q9 0 14.5 -6t3.5 -15q-14 -52 -42 -95.5t-70.5 -75.5t-99 -49t-128.5 -17zM394 750q-16 0 -14 14q1 8 8 14l108 104q12 12 20 15.5t21 3.5h122q9 0 13 -5.5t3 -12.5
q-1 -9 -9 -14l-150 -105q-10 -7 -18.5 -10.5t-21.5 -3.5h-82z" />
    <glyph glyph-name="cacute" unicode="&#x107;" horiz-adv-x="579" 
d="M236 -10q-68 0 -120.5 27t-77 78.5t-12.5 123.5q3 16 8 40.5t9 40.5q27 109 102.5 169.5t189.5 60.5q65 0 109 -19t70 -47.5t35.5 -59t6.5 -53.5q-1 -11 -9 -18t-18 -7h-109q-10 0 -15.5 5t-7.5 16q-1 35 -19.5 51t-53.5 16q-45 0 -78.5 -29t-48.5 -90q-5 -19 -9 -37.5
t-6 -33.5q-10 -62 7.5 -90t62.5 -28q35 0 62 15t46 50q6 11 12.5 16t17.5 5h108q11 0 16.5 -7.5t2.5 -17.5q-6 -21 -24.5 -51t-52 -59t-84 -48t-120.5 -19zM299 595q-16 0 -13 16q2 8 8 13l107 103q13 12 20.5 15.5t20.5 3.5h115q17 0 15 -18q0 -9 -8 -14l-150 -105
q-10 -7 -18.5 -10.5t-21.5 -3.5h-75z" />
    <glyph glyph-name="Ccircumflex" unicode="&#x108;" horiz-adv-x="692" 
d="M301 -10q-68 0 -121 17.5t-87 52.5t-47 85.5t-2 115.5q7 41 17.5 88t20.5 90q22 86 66.5 146.5t114 92.5t164.5 32q65 0 118.5 -16.5t90 -48t52 -75t5.5 -97.5q-1 -9 -7.5 -15t-15.5 -6h-116q-12 0 -18.5 6t-7.5 20q3 57 -28.5 80t-83.5 23q-62 0 -107 -34t-64 -113
q-21 -82 -36 -168q-14 -79 14 -113t89 -34q52 0 93.5 22.5t67.5 80.5q8 15 15.5 20.5t19.5 5.5h115q9 0 14.5 -6t3.5 -15q-14 -52 -42 -95.5t-70.5 -75.5t-99 -49t-128.5 -17zM277 750q-14 0 -12 13q1 8 8 14l126 107q12 11 20.5 14t17.5 3h71q10 0 17 -3t14 -14l80 -106
q5 -6 3 -14q-2 -14 -17 -14h-42q-8 0 -15 1.5t-13 5.5l-75 51l-96 -51q-8 -4 -15 -5.5t-15 -1.5h-57z" />
    <glyph glyph-name="ccircumflex" unicode="&#x109;" horiz-adv-x="579" 
d="M236 -10q-68 0 -120.5 27t-77 78.5t-12.5 123.5q3 16 8 40.5t9 40.5q27 109 102.5 169.5t189.5 60.5q65 0 109 -19t70 -47.5t35.5 -59t6.5 -53.5q-1 -11 -9 -18t-18 -7h-109q-10 0 -15.5 5t-7.5 16q-1 35 -19.5 51t-53.5 16q-45 0 -78.5 -29t-48.5 -90q-5 -19 -9 -37.5
t-6 -33.5q-10 -62 7.5 -90t62.5 -28q35 0 62 15t46 50q6 11 12.5 16t17.5 5h108q11 0 16.5 -7.5t2.5 -17.5q-6 -21 -24.5 -51t-52 -59t-84 -48t-120.5 -19zM187 595q-14 0 -12 13q1 8 8 14l126 107q12 11 20.5 14t17.5 3h66q10 0 17 -3t14 -14l80 -106q5 -6 3 -14
q-3 -14 -17 -14h-40q-8 0 -14.5 1.5t-13.5 5.5l-74 51l-96 -51q-8 -4 -15 -5.5t-15 -1.5h-55z" />
    <glyph glyph-name="Cdotaccent" unicode="&#x10a;" horiz-adv-x="692" 
d="M301 -10q-68 0 -121 17.5t-87 52.5t-47 85.5t-2 115.5q7 41 17.5 88t20.5 90q22 86 66.5 146.5t114 92.5t164.5 32q65 0 118.5 -16.5t90 -48t52 -75t5.5 -97.5q-1 -9 -7.5 -15t-15.5 -6h-116q-12 0 -18.5 6t-7.5 20q3 57 -28.5 80t-83.5 23q-62 0 -107 -34t-64 -113
q-21 -82 -36 -168q-14 -79 14 -113t89 -34q52 0 93.5 22.5t67.5 80.5q8 15 15.5 20.5t19.5 5.5h115q9 0 14.5 -6t3.5 -15q-14 -52 -42 -95.5t-70.5 -75.5t-99 -49t-128.5 -17zM401 750q-10 0 -15 6t-3 17l20 93q2 10 9.5 16.5t17.5 6.5h93q10 0 15 -6.5t3 -16.5l-19 -93
q-2 -11 -10 -17t-18 -6h-93z" />
    <glyph glyph-name="cdotaccent" unicode="&#x10b;" horiz-adv-x="579" 
d="M236 -10q-68 0 -120.5 27t-77 78.5t-12.5 123.5q3 16 8 40.5t9 40.5q27 109 102.5 169.5t189.5 60.5q65 0 109 -19t70 -47.5t35.5 -59t6.5 -53.5q-1 -11 -9 -18t-18 -7h-109q-10 0 -15.5 5t-7.5 16q-1 35 -19.5 51t-53.5 16q-45 0 -78.5 -29t-48.5 -90q-5 -19 -9 -37.5
t-6 -33.5q-10 -62 7.5 -90t62.5 -28q35 0 62 15t46 50q6 11 12.5 16t17.5 5h108q11 0 16.5 -7.5t2.5 -17.5q-6 -21 -24.5 -51t-52 -59t-84 -48t-120.5 -19zM307 606q-10 0 -15 6t-3 16l20 91q2 10 9.5 16.5t17.5 6.5h90q10 0 15.5 -6.5t3.5 -16.5l-20 -91q-2 -10 -9.5 -16
t-17.5 -6h-91z" />
    <glyph glyph-name="Ccaron" unicode="&#x10c;" horiz-adv-x="692" 
d="M301 -10q-68 0 -121 17.5t-87 52.5t-47 85.5t-2 115.5q7 41 17.5 88t20.5 90q22 86 66.5 146.5t114 92.5t164.5 32q65 0 118.5 -16.5t90 -48t52 -75t5.5 -97.5q-1 -9 -7.5 -15t-15.5 -6h-116q-12 0 -18.5 6t-7.5 20q3 57 -28.5 80t-83.5 23q-62 0 -107 -34t-64 -113
q-21 -82 -36 -168q-14 -79 14 -113t89 -34q52 0 93.5 22.5t67.5 80.5q8 15 15.5 20.5t19.5 5.5h115q9 0 14.5 -6t3.5 -15q-14 -52 -42 -95.5t-70.5 -75.5t-99 -49t-128.5 -17zM412 750q-9 0 -16 3.5t-15 13.5l-80 106q-5 6 -3 14q3 14 17 14h42q8 0 15 -1.5t13 -5.5l75 -51
l96 51q8 4 15 5.5t15 1.5h57q14 0 12 -14q-1 -7 -8 -14l-126 -106q-12 -10 -20 -13.5t-18 -3.5h-71z" />
    <glyph glyph-name="ccaron" unicode="&#x10d;" horiz-adv-x="579" 
d="M236 -10q-68 0 -120.5 27t-77 78.5t-12.5 123.5q3 16 8 40.5t9 40.5q27 109 102.5 169.5t189.5 60.5q65 0 109 -19t70 -47.5t35.5 -59t6.5 -53.5q-1 -11 -9 -18t-18 -7h-109q-10 0 -15.5 5t-7.5 16q-1 35 -19.5 51t-53.5 16q-45 0 -78.5 -29t-48.5 -90q-5 -19 -9 -37.5
t-6 -33.5q-10 -62 7.5 -90t62.5 -28q35 0 62 15t46 50q6 11 12.5 16t17.5 5h108q11 0 16.5 -7.5t2.5 -17.5q-6 -21 -24.5 -51t-52 -59t-84 -48t-120.5 -19zM320 595q-9 0 -16 3.5t-15 13.5l-80 106q-5 6 -3 12q1 8 6 12t11 4h40q8 0 14.5 -1.5t13.5 -5.5l74 -51l96 51
q8 4 15 5.5t15 1.5h55q13 0 12 -14q-1 -7 -9 -14l-125 -106q-12 -10 -20 -13.5t-18 -3.5h-66z" />
    <glyph glyph-name="Dcaron" unicode="&#x10e;" horiz-adv-x="709" 
d="M36 0q-10 0 -16 7t-4 18l138 650q2 11 11 18t19 7h236q66 0 120 -18t90.5 -52.5t51.5 -85.5t3 -117q-8 -44 -15 -77t-18 -76q-23 -93 -64.5 -154t-109 -90.5t-170.5 -29.5h-272zM197 129h117q51 0 85.5 15t57 47.5t34.5 84.5q8 29 13 52t9.5 46t9.5 51q14 75 -14.5 110.5
t-104.5 35.5h-113zM374 750q-9 0 -16 3.5t-15 13.5l-80 106q-5 6 -3 14q3 14 17 14h42q8 0 15 -1.5t13 -5.5l75 -51l96 51q8 4 15 5.5t15 1.5h57q14 0 12 -14q-1 -7 -8 -14l-126 -106q-12 -10 -20 -13.5t-18 -3.5h-71z" />
    <glyph glyph-name="dcaron" unicode="&#x10f;" horiz-adv-x="708" 
d="M199 -10q-50 0 -87 16.5t-58.5 48t-28 75t1.5 96.5q4 19 7 34.5t8 33.5q13 52 35 95t54 74.5t74 49t93 17.5q54 0 90 -17.5t54 -45.5l46 218q2 11 10.5 18t18.5 7h103q11 0 16.5 -7t3.5 -18l-140 -660q-2 -11 -10.5 -18t-19.5 -7h-95q-11 0 -16.5 7t-3.5 18l7 34
q-30 -30 -67 -49.5t-96 -19.5zM256 110q38 0 65 17t44.5 43t24.5 56q5 19 9 38t7 37q6 28 0 52.5t-25 40.5t-55 16q-35 0 -61 -16.5t-42 -43.5t-26 -59q-4 -15 -7.5 -31t-5.5 -31q-4 -32 -1 -59t20.5 -43.5t52.5 -16.5zM675 529q-9 0 -12.5 6.5t-1.5 15.5l46 126
q5 13 15.5 23t26.5 10h93q8 0 12.5 -6t2.5 -13l-2 -6t-4 -6l-73 -123q-7 -10 -16 -18.5t-24 -8.5h-63z" />
    <glyph glyph-name="Dcroat" unicode="&#x110;" horiz-adv-x="723" 
d="M51 0q-11 0 -16.5 7t-3.5 18l58 273h-50q-11 0 -16 7t-3 17l12 60q2 11 11 18t19 7h50l57 268q2 11 10.5 18t19.5 7h236q66 0 119.5 -18t90.5 -52.5t52 -85.5t2 -117q-8 -44 -15 -77t-18 -76q-22 -93 -63.5 -154t-109.5 -90.5t-171 -29.5h-271zM212 129h117q50 0 85 15
t57.5 47.5t34.5 84.5q8 29 13 52t9.5 46t9.5 51q14 75 -15 110.5t-105 35.5h-112l-35 -164h102q10 0 15.5 -7t3.5 -18l-12 -60q-2 -10 -11 -17t-19 -7h-102z" />
    <glyph glyph-name="dcroat" unicode="&#x111;" horiz-adv-x="622" 
d="M190 -10q-54 0 -90 18t-54.5 50t-22.5 75.5t5 92.5q3 19 6.5 34.5t7.5 33.5q12 48 34 90.5t55 75.5t76.5 51.5t97.5 18.5q52 0 85.5 -17.5t51.5 -45.5l20 92h-44q-11 0 -16 7t-3 18l7 33q2 10 10.5 17t18.5 7h44l10 44q2 11 10 18t19 7h103q10 0 16 -7t4 -18l-10 -44h44
q10 0 16 -7t4 -17l-7 -33q-2 -11 -11 -18t-19 -7h-44l-114 -534q-2 -11 -10.5 -18t-18.5 -7h-96q-10 0 -16 7t-4 18l9 38q-30 -32 -73.5 -52.5t-100.5 -20.5zM261 110q38 0 64 17t42 43t24 56q5 19 9 38t7 37q5 28 -1 52.5t-25.5 40.5t-55.5 16q-37 0 -62.5 -16.5t-41 -43.5
t-24.5 -59q-4 -15 -7.5 -31t-5.5 -31q-5 -32 -1.5 -59t22.5 -43.5t56 -16.5z" />
    <glyph glyph-name="Emacron" unicode="&#x112;" horiz-adv-x="629" 
d="M36 0q-10 0 -16 7t-4 18l138 650q2 11 11 18t19 7h453q11 0 16.5 -7t3.5 -18l-17 -80q-2 -10 -10.5 -17t-19.5 -7h-324l-34 -157h302q11 0 16.5 -7t3.5 -18l-16 -74q-2 -10 -10.5 -17t-19.5 -7h-301l-35 -162h332q11 0 16.5 -7t3.5 -18l-17 -79q-2 -11 -10.5 -18
t-19.5 -7h-461zM270 750q-10 0 -14.5 6.5t-2.5 16.5l13 64q2 10 10 16t18 6h290q10 0 14.5 -6t2.5 -16l-13 -64q-1 -10 -9 -16.5t-18 -6.5h-291z" />
    <glyph glyph-name="emacron" unicode="&#x113;" horiz-adv-x="583" 
d="M244 -10q-76 0 -126.5 28.5t-69.5 84.5t-5 137q2 8 4.5 21.5t5.5 21.5q20 77 62.5 132.5t105 85t137.5 29.5q84 0 132.5 -34.5t64.5 -94t0 -136.5l-4 -23q-2 -10 -11 -17t-20 -7h-326q0 -1 -0.5 -3.5t-1.5 -4.5q-5 -32 0 -58.5t23.5 -42.5t48.5 -16q24 0 42 7t30.5 17
t19.5 17q11 10 17 12.5t18 2.5h104q10 0 15 -5.5t2 -15.5q-4 -16 -24.5 -39.5t-55.5 -46t-82.5 -37.5t-105.5 -15zM214 309h196v2q9 36 2.5 62.5t-25.5 41.5t-50 15t-56 -15t-41.5 -41.5t-25.5 -62.5v-2zM236 608q-10 0 -15 6.5t-3 16.5l13 60q2 10 9.5 16t17.5 6h265
q10 0 14.5 -6t2.5 -16l-12 -60q-2 -10 -9.5 -16.5t-17.5 -6.5h-265z" />
    <glyph glyph-name="Ebreve" unicode="&#x114;" horiz-adv-x="629" 
d="M36 0q-10 0 -16 7t-4 18l138 650q2 11 11 18t19 7h453q11 0 16.5 -7t3.5 -18l-17 -80q-2 -10 -10.5 -17t-19.5 -7h-324l-34 -157h302q11 0 16.5 -7t3.5 -18l-16 -74q-2 -10 -10.5 -17t-19.5 -7h-301l-35 -162h332q11 0 16.5 -7t3.5 -18l-17 -79q-2 -11 -10.5 -18
t-19.5 -7h-461zM420 743q-48 0 -79 18.5t-43 49.5t-4 68q2 8 8 13.5t15 5.5h58q9 0 13 -5.5t2 -13.5q-4 -23 2 -41.5t35 -18.5t44 18.5t21 41.5q2 8 8 13.5t15 5.5h58q9 0 13 -5.5t2 -13.5q-8 -37 -26.5 -68t-52.5 -49.5t-89 -18.5z" />
    <glyph glyph-name="ebreve" unicode="&#x115;" horiz-adv-x="583" 
d="M244 -10q-76 0 -126.5 28.5t-69.5 84.5t-5 137q2 8 4.5 21.5t5.5 21.5q20 77 62.5 132.5t105 85t137.5 29.5q84 0 132.5 -34.5t64.5 -94t0 -136.5l-4 -23q-2 -10 -11 -17t-20 -7h-326q0 -1 -0.5 -3.5t-1.5 -4.5q-5 -32 0 -58.5t23.5 -42.5t48.5 -16q24 0 42 7t30.5 17
t19.5 17q11 10 17 12.5t18 2.5h104q10 0 15 -5.5t2 -15.5q-4 -16 -24.5 -39.5t-55.5 -46t-82.5 -37.5t-105.5 -15zM214 309h196v2q9 36 2.5 62.5t-25.5 41.5t-50 15t-56 -15t-41.5 -41.5t-25.5 -62.5v-2zM375 590q-45 0 -75 19t-42 50t-4 68q2 8 8 13.5t15 5.5h55
q9 0 13 -5.5t2 -13.5q-4 -23 1.5 -42t33.5 -19q29 0 43 19t19 42q2 8 8 13.5t15 5.5h56q9 0 13 -5.5t2 -13.5q-8 -37 -26 -68t-51.5 -50t-85.5 -19z" />
    <glyph glyph-name="Edotaccent" unicode="&#x116;" horiz-adv-x="629" 
d="M36 0q-10 0 -16 7t-4 18l138 650q2 11 11 18t19 7h453q11 0 16.5 -7t3.5 -18l-17 -80q-2 -10 -10.5 -17t-19.5 -7h-324l-34 -157h302q11 0 16.5 -7t3.5 -18l-16 -74q-2 -10 -10.5 -17t-19.5 -7h-301l-35 -162h332q11 0 16.5 -7t3.5 -18l-17 -79q-2 -11 -10.5 -18
t-19.5 -7h-461zM369 750q-10 0 -15 6t-3 17l20 93q2 10 9.5 16.5t17.5 6.5h93q10 0 15 -6.5t3 -16.5l-19 -93q-2 -11 -10 -17t-18 -6h-93z" />
    <glyph glyph-name="edotaccent" unicode="&#x117;" horiz-adv-x="583" 
d="M244 -10q-76 0 -126.5 28.5t-69.5 84.5t-5 137q2 8 4.5 21.5t5.5 21.5q20 77 62.5 132.5t105 85t137.5 29.5q84 0 132.5 -34.5t64.5 -94t0 -136.5l-4 -23q-2 -10 -11 -17t-20 -7h-326q0 -1 -0.5 -3.5t-1.5 -4.5q-5 -32 0 -58.5t23.5 -42.5t48.5 -16q24 0 42 7t30.5 17
t19.5 17q11 10 17 12.5t18 2.5h104q10 0 15 -5.5t2 -15.5q-4 -16 -24.5 -39.5t-55.5 -46t-82.5 -37.5t-105.5 -15zM214 309h196v2q9 36 2.5 62.5t-25.5 41.5t-50 15t-56 -15t-41.5 -41.5t-25.5 -62.5v-2zM322 606q-10 0 -15 6t-3 16l20 91q2 10 9.5 16.5t17.5 6.5h90
q10 0 15.5 -6.5t3.5 -16.5l-20 -91q-2 -10 -9.5 -16t-17.5 -6h-91z" />
    <glyph glyph-name="Eogonek" unicode="&#x118;" horiz-adv-x="629" 
d="M439 -220q-50 0 -81.5 21.5t-42 57.5t-1.5 81q4 17 10 32.5t15 27.5h-303q-10 0 -16 7t-4 18l138 650q2 11 11 18t19 7h453q11 0 16.5 -7t3.5 -18l-17 -80q-2 -10 -10.5 -17t-19.5 -7h-324l-34 -157h302q11 0 16.5 -7t3.5 -18l-16 -74q-2 -10 -10.5 -17t-19.5 -7h-301
l-35 -162h332q11 0 16.5 -7t3.5 -18l-17 -79q-2 -11 -10.5 -18t-19.5 -7h-18q-29 -1 -47 -20t-24 -45q-5 -27 6.5 -46t42.5 -19h13q10 0 15.5 -7t3.5 -17l-9 -41q-2 -11 -10.5 -18t-18.5 -7h-12z" />
    <glyph glyph-name="eogonek" unicode="&#x119;" horiz-adv-x="586" 
d="M252 -220q-51 0 -80.5 20t-39 55t0.5 80q4 18 10 35t16 31q-72 21 -102 82t-13 157q1 8 4 21t5 21q20 77 63 132.5t105 85.5t137 30q85 0 134 -34.5t64.5 -94t-0.5 -136.5l-5 -23q-2 -10 -11 -17t-19 -7h-327l-1 -8q-6 -32 -0.5 -58.5t23.5 -42.5t49 -16q24 0 42 7t30 17
t19 17q12 10 18 12.5t17 2.5h105q9 0 14 -5.5t3 -15.5q-5 -19 -32 -46.5t-72.5 -52t-107.5 -34.5q-32 -6 -50.5 -20.5t-24.5 -39.5q-6 -27 6 -46t43 -19h13q10 0 15.5 -7t3.5 -17l-9 -41q-2 -11 -11 -18t-19 -7h-16zM214 309h196v2q8 36 1.5 62.5t-25 41.5t-49.5 15
t-56.5 -15t-42 -41.5t-24.5 -62.5v-2z" />
    <glyph glyph-name="Ecaron" unicode="&#x11a;" horiz-adv-x="629" 
d="M36 0q-10 0 -16 7t-4 18l138 650q2 11 11 18t19 7h453q11 0 16.5 -7t3.5 -18l-17 -80q-2 -10 -10.5 -17t-19.5 -7h-324l-34 -157h302q11 0 16.5 -7t3.5 -18l-16 -74q-2 -10 -10.5 -17t-19.5 -7h-301l-35 -162h332q11 0 16.5 -7t3.5 -18l-17 -79q-2 -11 -10.5 -18
t-19.5 -7h-461zM380 750q-9 0 -16 3.5t-15 13.5l-80 106q-5 6 -3 14q3 14 17 14h42q8 0 15 -1.5t13 -5.5l75 -51l96 51q8 4 15 5.5t15 1.5h57q14 0 12 -14q-1 -7 -8 -14l-126 -106q-12 -10 -20 -13.5t-18 -3.5h-71z" />
    <glyph glyph-name="ecaron" unicode="&#x11b;" horiz-adv-x="583" 
d="M244 -10q-76 0 -126.5 28.5t-69.5 84.5t-5 137q2 8 4.5 21.5t5.5 21.5q20 77 62.5 132.5t105 85t137.5 29.5q84 0 132.5 -34.5t64.5 -94t0 -136.5l-4 -23q-2 -10 -11 -17t-20 -7h-326q0 -1 -0.5 -3.5t-1.5 -4.5q-5 -32 0 -58.5t23.5 -42.5t48.5 -16q24 0 42 7t30.5 17
t19.5 17q11 10 17 12.5t18 2.5h104q10 0 15 -5.5t2 -15.5q-4 -16 -24.5 -39.5t-55.5 -46t-82.5 -37.5t-105.5 -15zM214 309h196v2q9 36 2.5 62.5t-25.5 41.5t-50 15t-56 -15t-41.5 -41.5t-25.5 -62.5v-2zM335 595q-9 0 -16 3.5t-15 13.5l-80 106q-5 6 -3 12q1 8 6 12t11 4
h40q8 0 14.5 -1.5t13.5 -5.5l74 -51l96 51q8 4 15 5.5t15 1.5h55q13 0 12 -14q-1 -7 -9 -14l-125 -106q-12 -10 -20 -13.5t-18 -3.5h-66z" />
    <glyph glyph-name="Gcircumflex" unicode="&#x11c;" horiz-adv-x="710" 
d="M304 -10q-94 0 -154 31.5t-83.5 92t-8.5 146.5q8 43 18.5 92t21.5 93q20 84 69.5 143t123.5 90.5t166 31.5q74 0 126 -19t83.5 -49.5t43.5 -66.5t6 -69q-1 -9 -8.5 -15.5t-17.5 -6.5h-124q-10 0 -14.5 4t-7.5 12q-2 18 -13.5 36.5t-35.5 31.5t-66 13q-62 0 -106 -33
t-62 -108q-11 -43 -20.5 -87t-17.5 -88q-13 -78 17.5 -112t92.5 -34q42 0 77.5 14.5t61 45.5t35.5 79l5 25h-109q-10 0 -15.5 7.5t-3.5 17.5l14 64q2 11 10.5 18t19.5 7h245q11 0 16.5 -7t3.5 -18l-24 -109q-17 -86 -68 -147t-127.5 -93.5t-169.5 -32.5zM282 750
q-14 0 -12 13q1 8 8 14l126 107q12 11 20.5 14t17.5 3h71q10 0 17 -3t14 -14l80 -106q5 -6 3 -14q-2 -14 -17 -14h-42q-8 0 -15 1.5t-13 5.5l-75 51l-96 -51q-8 -4 -15 -5.5t-15 -1.5h-57z" />
    <glyph glyph-name="gcircumflex" unicode="&#x11d;" horiz-adv-x="623" 
d="M203 -220q-72 0 -117 19.5t-70 47t-33.5 54.5t-5.5 42q2 11 9.5 18t17.5 7h110q9 0 14 -4.5t7 -15.5q2 -12 8 -25.5t22 -22.5t48 -9q30 0 56 10t45.5 34t27.5 65l14 67q-29 -26 -64.5 -43t-88.5 -17q-54 0 -91 16.5t-58 47t-27 73.5t3 97q2 15 4.5 26.5t6.5 26.5
q14 52 36 95t53 74.5t72.5 49t95.5 17.5q55 0 92.5 -21t55.5 -52l8 38q2 10 11 17.5t19 7.5h98q11 0 16.5 -7.5t3.5 -17.5l-102 -481q-11 -56 -34 -99.5t-59 -73.5t-86.5 -45.5t-117.5 -15.5zM259 124q36 0 63 16.5t44.5 42t25.5 53.5q3 11 7 31.5t6 31.5q4 28 -1 53.5
t-23.5 41.5t-54.5 16t-62 -16.5t-42.5 -43.5t-25.5 -59q-3 -11 -5.5 -23.5t-4.5 -23.5q-5 -33 -2 -60t20.5 -43.5t54.5 -16.5zM197 595q-14 0 -12 13q1 8 8 14l126 107q12 11 20.5 14t17.5 3h66q10 0 17 -3t14 -14l80 -106q5 -6 3 -14q-3 -14 -17 -14h-40q-8 0 -14.5 1.5
t-13.5 5.5l-74 51l-96 -51q-8 -4 -15 -5.5t-15 -1.5h-55z" />
    <glyph glyph-name="Gbreve" unicode="&#x11e;" horiz-adv-x="710" 
d="M304 -10q-94 0 -154 31.5t-83.5 92t-8.5 146.5q8 43 18.5 92t21.5 93q20 84 69.5 143t123.5 90.5t166 31.5q74 0 126 -19t83.5 -49.5t43.5 -66.5t6 -69q-1 -9 -8.5 -15.5t-17.5 -6.5h-124q-10 0 -14.5 4t-7.5 12q-2 18 -13.5 36.5t-35.5 31.5t-66 13q-62 0 -106 -33
t-62 -108q-11 -43 -20.5 -87t-17.5 -88q-13 -78 17.5 -112t92.5 -34q42 0 77.5 14.5t61 45.5t35.5 79l5 25h-109q-10 0 -15.5 7.5t-3.5 17.5l14 64q2 11 10.5 18t19.5 7h245q11 0 16.5 -7t3.5 -18l-24 -109q-17 -86 -68 -147t-127.5 -93.5t-169.5 -32.5zM457 743
q-48 0 -79 18.5t-43 49.5t-4 68q2 8 8 13.5t15 5.5h58q9 0 13 -5.5t2 -13.5q-4 -23 2 -41.5t35 -18.5t44 18.5t21 41.5q2 8 8 13.5t15 5.5h58q9 0 13 -5.5t2 -13.5q-8 -37 -26.5 -68t-52.5 -49.5t-89 -18.5z" />
    <glyph glyph-name="gbreve" unicode="&#x11f;" horiz-adv-x="623" 
d="M203 -220q-72 0 -117 19.5t-70 47t-33.5 54.5t-5.5 42q2 11 9.5 18t17.5 7h110q9 0 14 -4.5t7 -15.5q2 -12 8 -25.5t22 -22.5t48 -9q30 0 56 10t45.5 34t27.5 65l14 67q-29 -26 -64.5 -43t-88.5 -17q-54 0 -91 16.5t-58 47t-27 73.5t3 97q2 15 4.5 26.5t6.5 26.5
q14 52 36 95t53 74.5t72.5 49t95.5 17.5q55 0 92.5 -21t55.5 -52l8 38q2 10 11 17.5t19 7.5h98q11 0 16.5 -7.5t3.5 -17.5l-102 -481q-11 -56 -34 -99.5t-59 -73.5t-86.5 -45.5t-117.5 -15.5zM259 124q36 0 63 16.5t44.5 42t25.5 53.5q3 11 7 31.5t6 31.5q4 28 -1 53.5
t-23.5 41.5t-54.5 16t-62 -16.5t-42.5 -43.5t-25.5 -59q-3 -11 -5.5 -23.5t-4.5 -23.5q-5 -33 -2 -60t20.5 -43.5t54.5 -16.5zM370 590q-45 0 -75 19t-42 50t-4 68q2 8 8 13.5t15 5.5h55q9 0 13 -5.5t2 -13.5q-4 -23 1.5 -42t33.5 -19q29 0 43 19t19 42q2 8 8 13.5t15 5.5
h56q9 0 13 -5.5t2 -13.5q-8 -37 -26 -68t-51.5 -50t-85.5 -19z" />
    <glyph glyph-name="Gdotaccent" unicode="&#x120;" horiz-adv-x="710" 
d="M304 -10q-94 0 -154 31.5t-83.5 92t-8.5 146.5q8 43 18.5 92t21.5 93q20 84 69.5 143t123.5 90.5t166 31.5q74 0 126 -19t83.5 -49.5t43.5 -66.5t6 -69q-1 -9 -8.5 -15.5t-17.5 -6.5h-124q-10 0 -14.5 4t-7.5 12q-2 18 -13.5 36.5t-35.5 31.5t-66 13q-62 0 -106 -33
t-62 -108q-11 -43 -20.5 -87t-17.5 -88q-13 -78 17.5 -112t92.5 -34q42 0 77.5 14.5t61 45.5t35.5 79l5 25h-109q-10 0 -15.5 7.5t-3.5 17.5l14 64q2 11 10.5 18t19.5 7h245q11 0 16.5 -7t3.5 -18l-24 -109q-17 -86 -68 -147t-127.5 -93.5t-169.5 -32.5zM406 750
q-10 0 -15 6t-3 17l20 93q2 10 9.5 16.5t17.5 6.5h93q10 0 15 -6.5t3 -16.5l-19 -93q-2 -11 -10 -17t-18 -6h-93z" />
    <glyph glyph-name="gdotaccent" unicode="&#x121;" horiz-adv-x="623" 
d="M203 -220q-72 0 -117 19.5t-70 47t-33.5 54.5t-5.5 42q2 11 9.5 18t17.5 7h110q9 0 14 -4.5t7 -15.5q2 -12 8 -25.5t22 -22.5t48 -9q30 0 56 10t45.5 34t27.5 65l14 67q-29 -26 -64.5 -43t-88.5 -17q-54 0 -91 16.5t-58 47t-27 73.5t3 97q2 15 4.5 26.5t6.5 26.5
q14 52 36 95t53 74.5t72.5 49t95.5 17.5q55 0 92.5 -21t55.5 -52l8 38q2 10 11 17.5t19 7.5h98q11 0 16.5 -7.5t3.5 -17.5l-102 -481q-11 -56 -34 -99.5t-59 -73.5t-86.5 -45.5t-117.5 -15.5zM259 124q36 0 63 16.5t44.5 42t25.5 53.5q3 11 7 31.5t6 31.5q4 28 -1 53.5
t-23.5 41.5t-54.5 16t-62 -16.5t-42.5 -43.5t-25.5 -59q-3 -11 -5.5 -23.5t-4.5 -23.5q-5 -33 -2 -60t20.5 -43.5t54.5 -16.5zM317 606q-10 0 -15 6t-3 16l20 91q2 10 9.5 16.5t17.5 6.5h90q10 0 15.5 -6.5t3.5 -16.5l-20 -91q-2 -10 -9.5 -16t-17.5 -6h-91z" />
    <glyph glyph-name="uni0122" unicode="&#x122;" horiz-adv-x="710" 
d="M304 -10q-94 0 -154 31.5t-83.5 92t-8.5 146.5q8 43 18.5 92t21.5 93q20 84 69.5 143t123.5 90.5t166 31.5q74 0 126 -19t83.5 -49.5t43.5 -66.5t6 -69q-1 -9 -8.5 -15.5t-17.5 -6.5h-124q-10 0 -14.5 4t-7.5 12q-2 18 -13.5 36.5t-35.5 31.5t-66 13q-62 0 -106 -33
t-62 -108q-11 -43 -20.5 -87t-17.5 -88q-13 -78 17.5 -112t92.5 -34q42 0 77.5 14.5t61 45.5t35.5 79l5 25h-109q-10 0 -15.5 7.5t-3.5 17.5l14 64q2 11 10.5 18t19.5 7h245q11 0 16.5 -7t3.5 -18l-24 -109q-17 -86 -68 -147t-127.5 -93.5t-169.5 -32.5zM168 -231
q-9 0 -13.5 7t-0.5 16l46 125q5 13 15 23t26 10h100q7 0 11 -5.5t3 -11.5q-1 -7 -5 -14l-74 -123q-6 -10 -15.5 -18.5t-24.5 -8.5h-68z" />
    <glyph glyph-name="uni0123" unicode="&#x123;" horiz-adv-x="623" 
d="M203 -220q-72 0 -117 19.5t-70 47t-33.5 54.5t-5.5 42q2 11 9.5 18t17.5 7h110q9 0 14 -4.5t7 -15.5q2 -12 8 -25.5t22 -22.5t48 -9q30 0 56 10t45.5 34t27.5 65l14 67q-29 -26 -64.5 -43t-88.5 -17q-54 0 -91 16.5t-58 47t-27 73.5t3 97q2 15 4.5 26.5t6.5 26.5
q14 52 36 95t53 74.5t72.5 49t95.5 17.5q55 0 92.5 -21t55.5 -52l8 38q2 10 11 17.5t19 7.5h98q11 0 16.5 -7.5t3.5 -17.5l-102 -481q-11 -56 -34 -99.5t-59 -73.5t-86.5 -45.5t-117.5 -15.5zM259 124q36 0 63 16.5t44.5 42t25.5 53.5q3 11 7 31.5t6 31.5q4 28 -1 53.5
t-23.5 41.5t-54.5 16t-62 -16.5t-42.5 -43.5t-25.5 -59q-3 -11 -5.5 -23.5t-4.5 -23.5q-5 -33 -2 -60t20.5 -43.5t54.5 -16.5zM305 595q-8 0 -11.5 6t-2.5 13l2 6t3 6l73 123q7 10 16 18.5t25 8.5h62q9 0 12.5 -6.5t1.5 -15.5l-46 -126q-4 -12 -15 -22.5t-27 -10.5h-93z" />
    <glyph glyph-name="Hcircumflex" unicode="&#x124;" horiz-adv-x="737" 
d="M36 0q-10 0 -16 7t-4 18l138 650q2 11 11 18t19 7h109q11 0 16.5 -7t3.5 -18l-53 -250h271l54 250q2 11 10.5 18t18.5 7h109q11 0 16.5 -7t3.5 -18l-138 -650q-2 -11 -10.5 -18t-19.5 -7h-109q-10 0 -16 7t-4 18l55 258h-271l-55 -258q-2 -11 -10.5 -18t-19.5 -7h-109z
M284 750q-14 0 -12 13q1 8 8 14l126 107q12 11 20.5 14t17.5 3h71q10 0 17 -3t14 -14l80 -106q5 -6 3 -14q-2 -14 -17 -14h-42q-8 0 -15 1.5t-13 5.5l-75 51l-96 -51q-8 -4 -15 -5.5t-15 -1.5h-57z" />
    <glyph glyph-name="hcircumflex" unicode="&#x125;" horiz-adv-x="639" 
d="M25 0q-10 0 -16 7t-4 18l141 660q2 11 10.5 18t18.5 7h108q11 0 16.5 -7t3.5 -18l-48 -225q31 32 70.5 51t93.5 19q64 0 106 -26.5t58 -77t1 -122.5l-60 -279q-2 -11 -10.5 -18t-18.5 -7h-109q-11 0 -16.5 7t-3.5 18l58 273q11 53 -5.5 82.5t-65.5 29.5q-31 0 -58.5 -13
t-47 -38t-27.5 -61l-58 -273q-2 -11 -10 -18t-19 -7h-108zM223 751q-14 0 -12 13q1 8 8 14l126 107q12 11 20.5 14t17.5 3h66q10 0 17 -3t14 -14l80 -106q5 -6 3 -14q-3 -14 -17 -14h-40q-8 0 -14.5 1.5t-13.5 5.5l-74 51l-96 -51q-8 -4 -15 -5.5t-15 -1.5h-55z" />
    <glyph glyph-name="Hbar" unicode="&#x126;" horiz-adv-x="741" 
d="M110 516q-11 0 -16 7t-3 18l8 42q2 11 11 18t19 7h610q11 0 16.5 -7t3.5 -18l-9 -42q-2 -11 -10.5 -18t-19.5 -7h-610zM36 0q-10 0 -16 7t-4 18l138 650q2 11 11 18t19 7h109q11 0 16.5 -7t3.5 -18l-53 -250h271l54 250q2 11 10.5 18t18.5 7h109q11 0 16.5 -7t3.5 -18
l-138 -650q-2 -11 -10.5 -18t-19.5 -7h-109q-10 0 -16 7t-4 18l55 258h-271l-55 -258q-2 -11 -10.5 -18t-19.5 -7h-109z" />
    <glyph glyph-name="hbar" unicode="&#x127;" horiz-adv-x="639" 
d="M76 554q-10 0 -15.5 7t-3.5 18l7 33q2 10 10.5 17t18.5 7h240q11 0 16.5 -7t3.5 -17l-7 -33q-3 -11 -11.5 -18t-18.5 -7h-240zM25 0q-10 0 -16 7t-4 18l141 660q2 11 10.5 18t18.5 7h108q11 0 16.5 -7t3.5 -18l-48 -225q31 32 70.5 51t93.5 19q64 0 106 -26.5t58 -77
t1 -122.5l-60 -279q-2 -11 -10.5 -18t-18.5 -7h-109q-11 0 -16.5 7t-3.5 18l58 273q11 53 -5.5 82.5t-65.5 29.5q-31 0 -58.5 -13t-47 -38t-27.5 -61l-58 -273q-2 -11 -10 -18t-19 -7h-108z" />
    <glyph glyph-name="Itilde" unicode="&#x128;" horiz-adv-x="311" 
d="M36 0q-11 0 -16.5 7t-3.5 18l139 650q2 11 10.5 18t18.5 7h114q10 0 16 -7t4 -18l-139 -650q-2 -11 -10.5 -18t-18.5 -7h-114zM321 745q-26 0 -43 9t-31 17.5t-31 8.5q-16 0 -24 -7t-14 -15t-17 -8h-53q-7 0 -11 5.5t-3 11.5q3 16 12 36t24 39t37 31.5t50 12.5
q27 0 44.5 -9t31 -18t30.5 -9q16 0 24 8t14 15.5t17 7.5h53q8 0 11.5 -5.5t2.5 -12.5q-3 -15 -12 -35t-24.5 -39t-37 -31.5t-50.5 -12.5z" />
    <glyph glyph-name="itilde" unicode="&#x129;" horiz-adv-x="275" 
d="M25 0q-10 0 -16 7t-4 18l100 470q2 11 11 18t19 7h100q11 0 16 -7t3 -18l-100 -470q-2 -11 -10 -18t-19 -7h-100zM270 590q-26 0 -42.5 9t-29.5 17.5t-30 8.5q-13 0 -21 -7t-15 -15t-18 -8h-53q-7 0 -11 5.5t-3 11.5q3 16 12 35.5t23.5 38t36.5 30.5t50 12t44 -8.5
t29.5 -17.5t29.5 -9q14 0 21.5 8t14 15.5t17.5 7.5h53q9 0 12.5 -5.5t1.5 -12.5q-3 -16 -11.5 -35.5t-23.5 -38t-36.5 -30.5t-50.5 -12z" />
    <glyph glyph-name="Imacron" unicode="&#x12a;" horiz-adv-x="311" 
d="M36 0q-11 0 -16.5 7t-3.5 18l139 650q2 11 10.5 18t18.5 7h114q10 0 16 -7t4 -18l-139 -650q-2 -11 -10.5 -18t-18.5 -7h-114zM106 750q-10 0 -14.5 6.5t-2.5 16.5l13 64q2 10 10 16t18 6h290q10 0 14.5 -6t2.5 -16l-13 -64q-1 -10 -9 -16.5t-18 -6.5h-291z" />
    <glyph glyph-name="imacron" unicode="&#x12b;" horiz-adv-x="275" 
d="M25 0q-10 0 -16 7t-4 18l100 470q2 11 11 18t19 7h100q11 0 16 -7t3 -18l-100 -470q-2 -11 -10 -18t-19 -7h-100zM71 608q-10 0 -15 6.5t-3 16.5l13 60q2 10 9.5 16t17.5 6h265q10 0 14.5 -6t2.5 -16l-12 -60q-2 -10 -9.5 -16.5t-17.5 -6.5h-265z" />
    <glyph glyph-name="Ibreve" unicode="&#x12c;" horiz-adv-x="311" 
d="M36 0q-11 0 -16.5 7t-3.5 18l139 650q2 11 10.5 18t18.5 7h114q10 0 16 -7t4 -18l-139 -650q-2 -11 -10.5 -18t-18.5 -7h-114zM257 743q-48 0 -79 18.5t-43 49.5t-4 68q2 8 8 13.5t15 5.5h58q9 0 13 -5.5t2 -13.5q-4 -23 2 -41.5t35 -18.5t44 18.5t21 41.5q2 8 8 13.5
t15 5.5h58q9 0 13 -5.5t2 -13.5q-8 -37 -26.5 -68t-52.5 -49.5t-89 -18.5z" />
    <glyph glyph-name="ibreve" unicode="&#x12d;" horiz-adv-x="275" 
d="M25 0q-10 0 -16 7t-4 18l100 470q2 11 11 18t19 7h100q11 0 16 -7t3 -18l-100 -470q-2 -11 -10 -18t-19 -7h-100zM209 590q-45 0 -75 19t-42 50t-4 68q2 8 8 13.5t15 5.5h55q9 0 13 -5.5t2 -13.5q-4 -23 1.5 -42t33.5 -19q29 0 43 19t19 42q2 8 8 13.5t15 5.5h56
q9 0 13 -5.5t2 -13.5q-8 -37 -26 -68t-51.5 -50t-85.5 -19z" />
    <glyph glyph-name="Iogonek" unicode="&#x12e;" horiz-adv-x="320" 
d="M109 -221q-51 0 -80.5 20t-39 55.5t0.5 79.5q7 36 27.5 59.5t47.5 33.5l-11 4q-5 1 -8 6.5t-1 12.5l132 625q2 11 11 18t19 7h114q11 0 16 -7t3 -18l-138 -650q-2 -11 -10.5 -18t-19.5 -7h-12q-31 0 -51 -19.5t-25 -46.5q-6 -26 5.5 -45.5t42.5 -19.5h13q10 0 15.5 -7
t3.5 -17l-9 -41q-2 -11 -10.5 -18t-19.5 -7h-16z" />
    <glyph glyph-name="iogonek" unicode="&#x12f;" horiz-adv-x="284" 
d="M93 -206q-72 0 -100.5 41t-15.5 105q7 32 25.5 54.5t44.5 31.5l-3 2q-6 1 -9 6t-1 11l95 450q2 11 11 18t19 7h100q11 0 16 -7t3 -18l-100 -470q-2 -11 -10.5 -18t-19.5 -7h-7q-31 0 -50.5 -17t-24.5 -43q-6 -27 6.5 -43.5t43.5 -16.5h12q10 0 16 -7.5t3 -17.5l-8 -36
q-2 -11 -10.5 -18t-19.5 -7h-16zM173 600q-11 0 -16 7t-3 18l17 80q2 11 11 18.5t19 7.5h105q11 0 16.5 -7.5t3.5 -18.5l-17 -80q-2 -11 -11 -18t-20 -7h-105z" />
    <glyph glyph-name="Idotaccent" unicode="&#x130;" horiz-adv-x="311" 
d="M36 0q-11 0 -16.5 7t-3.5 18l139 650q2 11 10.5 18t18.5 7h114q10 0 16 -7t4 -18l-139 -650q-2 -11 -10.5 -18t-18.5 -7h-114zM205 750q-10 0 -15 6t-3 17l20 93q2 10 9.5 16.5t17.5 6.5h93q10 0 15 -6.5t3 -16.5l-19 -93q-2 -11 -10 -17t-18 -6h-93z" />
    <glyph glyph-name="dotlessi" unicode="&#x131;" horiz-adv-x="275" 
d="M25 0q-10 0 -16 7t-4 18l100 470q2 11 11 18t19 7h100q11 0 16 -7t3 -18l-100 -470q-2 -11 -10 -18t-19 -7h-100z" />
    <glyph glyph-name="IJ" unicode="&#x132;" horiz-adv-x="701" 
d="M276 -10q-11 0 -16 7t-3 18l19 89q2 11 10.5 18t19.5 7q64 0 104 38.5t55 110.5l85 397q2 11 10.5 18t18.5 7h114q11 0 16.5 -7t3.5 -18l-89 -418q-19 -93 -60 -152t-111 -87t-177 -28zM36 0q-10 0 -16 7t-4 18l139 650q2 11 10.5 18t18.5 7h114q10 0 16 -7t4 -18
l-139 -650q-2 -11 -10.5 -18t-18.5 -7h-114z" />
    <glyph glyph-name="ij" unicode="&#x133;" horiz-adv-x="566" 
d="M25 0q-10 0 -16 7t-4 18l100 470q2 11 11 18t19 7h100q11 0 16 -7t3 -18l-100 -470q-2 -11 -10 -18t-19 -7h-100zM150 600q-11 0 -16.5 7t-3.5 18l17 80q2 11 10.5 18.5t19.5 7.5h105q11 0 16.5 -7.5t3.5 -18.5l-18 -80q-1 -11 -10 -18t-19 -7h-105zM148 -190
q-10 0 -15.5 7t-3.5 18l15 68q2 11 10.5 18t18.5 7h34q36 0 54.5 22.5t25.5 56.5l104 488q2 11 10.5 18t19.5 7h104q11 0 16 -7t3 -18l-104 -491q-13 -61 -42.5 -104.5t-77.5 -66.5t-117 -23h-55zM435 600q-10 0 -15.5 7t-4.5 18l18 80q2 11 10.5 18.5t18.5 7.5h110
q11 0 16.5 -7.5t3.5 -18.5l-17 -80q-2 -11 -11 -18t-19 -7h-110z" />
    <glyph glyph-name="Jcircumflex" unicode="&#x134;" horiz-adv-x="657" 
d="M258 -10q-50 0 -98.5 14t-87 42.5t-57 70.5t-9.5 98q2 9 8.5 15.5t16.5 6.5h115q14 0 19.5 -7t6.5 -20q-2 -48 23 -69.5t73 -21.5q62 0 98.5 37t51.5 105l65 306h-332q-10 0 -15.5 7t-3.5 17l18 84q2 11 10 18t19 7h471q11 0 16.5 -7t3.5 -18l-89 -418
q-18 -86 -58 -145.5t-105 -90.5t-160 -31zM255 750q-14 0 -12 13q1 8 8 14l126 107q12 11 20.5 14t17.5 3h71q10 0 17 -3t14 -14l80 -106q5 -6 3 -14q-2 -14 -17 -14h-42q-8 0 -15 1.5t-13 5.5l-75 51l-96 -51q-8 -4 -15 -5.5t-15 -1.5h-57z" />
    <glyph glyph-name="jcircumflex" unicode="&#x135;" horiz-adv-x="376" 
d="M-65 -190q-10 0 -15 7t-3 18l18 86q2 11 10 18t19 7h53q28 0 44 10.5t25.5 28.5t13.5 40l80 373h-114q-10 0 -15.5 7t-3.5 17l15 73q2 11 11 18t19 7h244q10 0 15.5 -7t3.5 -18l-100 -470q-14 -65 -47.5 -113t-84.5 -75t-118 -27h-70zM65 595q-14 0 -12 13q1 8 8 14
l126 107q12 11 20.5 14t17.5 3h66q10 0 17 -3t14 -14l80 -106q5 -6 3 -14q-3 -14 -17 -14h-40q-8 0 -14.5 1.5t-13.5 5.5l-74 51l-96 -51q-8 -4 -15 -5.5t-15 -1.5h-55z" />
    <glyph glyph-name="uni0136" unicode="&#x136;" horiz-adv-x="639" 
d="M36 0q-10 0 -16 7t-4 18l138 650q2 11 10.5 18t18.5 7h108q11 0 16.5 -7t3.5 -18l-48 -223l242 229q5 6 15 12.5t27 6.5h124q15 0 18.5 -12.5t-5.5 -20.5l-320 -313l206 -321q8 -13 -0.5 -23t-19.5 -10h-118q-16 0 -24 6t-11 13l-170 260l-55 -254q-2 -11 -9.5 -18
t-18.5 -7h-108zM140 -231q-9 0 -13.5 7t-0.5 16l46 125q5 13 15 23t26 10h100q7 0 11 -5.5t3 -11.5q-1 -7 -5 -14l-74 -123q-6 -10 -15.5 -18.5t-24.5 -8.5h-68z" />
    <glyph glyph-name="uni0137" unicode="&#x137;" horiz-adv-x="570" 
d="M25 0q-10 0 -16 7t-4 18l141 660q2 11 10.5 18t18.5 7h98q11 0 16.5 -7t3.5 -18l-71 -335l182 153q9 7 17 12t22 5h122q16 0 18 -13.5t-13 -25.5l-235 -203l163 -242q8 -12 1.5 -24t-22.5 -12h-110q-14 0 -20.5 5t-10.5 11l-141 209l-43 -200q-2 -11 -10 -18t-19 -7h-98z
M101 -231q-8 0 -12 6.5t-1 15.5l45 126q5 13 15.5 23t26.5 10h94q8 0 12 -6t2 -13l-2 -6t-4 -6l-73 -123q-6 -10 -15.5 -18.5t-24.5 -8.5h-63z" />
    <glyph glyph-name="kgreenlandic" unicode="&#x138;" horiz-adv-x="567" 
d="M38 0q-10 0 -15.5 7t-3.5 18l100 470q2 11 11 18t19 7h98q11 0 16 -7t3 -18l-37 -176l201 184q10 7 18 12t22 5h106q10 0 14.5 -6.5t2.5 -15.5q-1 -4 -4 -9t-9 -8l-238 -218l167 -225q3 -3 5 -7t0 -9q-1 -9 -9 -15.5t-18 -6.5h-116q-15 0 -21 5.5t-12 11.5l-135 182
l-37 -174q-2 -11 -10.5 -18t-19.5 -7h-98z" />
    <glyph glyph-name="Lacute" unicode="&#x139;" horiz-adv-x="583" 
d="M36 0q-10 0 -16 7t-4 18l139 650q2 11 10.5 18t18.5 7h112q10 0 16 -7t4 -18l-116 -541h310q11 0 16.5 -7t3.5 -18l-18 -84q-2 -11 -10 -18t-19 -7h-447zM199 750q-16 0 -14 14q1 8 8 14l108 104q12 12 20 15.5t21 3.5h122q9 0 13 -5.5t3 -12.5q-1 -9 -9 -14l-150 -105
q-10 -7 -18.5 -10.5t-21.5 -3.5h-82z" />
    <glyph glyph-name="lacute" unicode="&#x13a;" horiz-adv-x="276" 
d="M25 0q-10 0 -16 7t-4 18l141 660q2 11 10.5 18t18.5 7h100q11 0 16.5 -7t3.5 -18l-141 -660q-2 -11 -10 -18t-19 -7h-100zM191 750q-16 0 -13 16q2 8 8 13l107 103q13 12 20.5 15.5t20.5 3.5h115q17 0 15 -18q0 -9 -8 -14l-150 -105q-10 -7 -18.5 -10.5t-21.5 -3.5h-75z
" />
    <glyph glyph-name="uni013B" unicode="&#x13b;" horiz-adv-x="583" 
d="M36 0q-10 0 -16 7t-4 18l139 650q2 11 10.5 18t18.5 7h112q10 0 16 -7t4 -18l-116 -541h310q11 0 16.5 -7t3.5 -18l-18 -84q-2 -11 -10 -18t-19 -7h-447zM118 -231q-9 0 -13.5 7t-0.5 16l46 125q5 13 15 23t26 10h100q7 0 11 -5.5t3 -11.5q-1 -7 -5 -14l-74 -123
q-6 -10 -15.5 -18.5t-24.5 -8.5h-68z" />
    <glyph glyph-name="uni013C" unicode="&#x13c;" horiz-adv-x="276" 
d="M25 0q-10 0 -16 7t-4 18l141 660q2 11 10.5 18t18.5 7h100q11 0 16.5 -7t3.5 -18l-141 -660q-2 -11 -10 -18t-19 -7h-100zM-51 -231q-8 0 -12 6.5t-1 15.5l45 126q5 13 15.5 23t26.5 10h94q8 0 12 -6t2 -13l-2 -6t-4 -6l-73 -123q-6 -10 -15.5 -18.5t-24.5 -8.5h-63z" />
    <glyph glyph-name="Lcaron" unicode="&#x13d;" horiz-adv-x="586" 
d="M384 529q-9 0 -13.5 7t-0.5 16l46 125q5 13 15 23t26 10h100q7 0 11 -5.5t3 -11.5q-1 -7 -5 -14l-74 -123q-6 -10 -15.5 -18.5t-24.5 -8.5h-68zM36 0q-10 0 -16 7t-4 18l139 650q2 11 10.5 18t18.5 7h112q10 0 16 -7t4 -18l-116 -541h310q11 0 16.5 -7t3.5 -18l-18 -84
q-2 -11 -10 -18t-19 -7h-447z" />
    <glyph glyph-name="lcaron" unicode="&#x13e;" horiz-adv-x="368" 
d="M25 0q-10 0 -16 7t-4 18l141 660q2 11 10.5 18t18.5 7h100q11 0 16.5 -7t3.5 -18l-141 -660q-2 -11 -10 -18t-19 -7h-100zM331 529q-9 0 -12.5 6.5t-1.5 15.5l46 126q5 13 15.5 23t26.5 10h93q8 0 12.5 -6t2.5 -13l-2 -6t-4 -6l-73 -123q-7 -10 -16 -18.5t-24 -8.5h-63z
" />
    <glyph glyph-name="Ldot" unicode="&#x13f;" horiz-adv-x="586" 
d="M36 0q-10 0 -16 7t-4 18l139 650q2 11 10.5 18t18.5 7h112q10 0 16 -7t4 -18l-116 -541h310q11 0 16.5 -7t3.5 -18l-18 -84q-2 -11 -10 -18t-19 -7h-447zM401 311q-10 0 -15 6t-3 16l20 94q3 10 10 16.5t17 6.5h94q9 0 14.5 -6.5t3.5 -16.5l-20 -94q-2 -10 -10 -16
t-18 -6h-93z" />
    <glyph glyph-name="ldot" unicode="&#x140;" horiz-adv-x="413" 
d="M25 0q-10 0 -16 7t-4 18l141 660q2 11 10.5 18t18.5 7h100q11 0 16.5 -7t3.5 -18l-141 -660q-2 -11 -10 -18t-19 -7h-100zM298 292q-10 0 -15 6t-3 16l20 91q2 10 9.5 16.5t17.5 6.5h90q10 0 15.5 -6.5t3.5 -16.5l-20 -91q-2 -10 -9.5 -16t-17.5 -6h-91z" />
    <glyph glyph-name="Lslash" unicode="&#x141;" horiz-adv-x="591" 
d="M44 0q-10 0 -16 7t-4 18l50 233l-41 -15q-9 -3 -13 -3q-8 0 -12.5 5.5t-2.5 14.5l14 65q2 12 8.5 18.5t19.5 10.5l51 18l65 303q2 11 10.5 18t18.5 7h112q10 0 16 -7t4 -18l-52 -240l157 57q9 3 13 3q9 0 13.5 -5.5t2.5 -14.5l-14 -64q-2 -12 -8.5 -18t-19.5 -11
l-168 -61l-40 -187h311q10 0 16 -7t3 -17l-18 -85q-2 -11 -10 -18t-19 -7h-447z" />
    <glyph glyph-name="lslash" unicode="&#x142;" horiz-adv-x="325" 
d="M64 0q-10 0 -15.5 7t-3.5 18l53 247l-35 -12q-9 -3 -13 -3q-9 0 -13.5 5t-2.5 14l14 65q2 13 8.5 19t19.5 10l46 16l63 299q3 11 11.5 18t18.5 7h100q11 0 16.5 -7t3.5 -18l-51 -241l35 13q9 3 13 3q9 0 13.5 -5.5t2.5 -14.5l-14 -64q-3 -12 -9 -18t-19 -11l-47 -17
l-64 -305q-2 -11 -11 -18t-20 -7h-100z" />
    <glyph glyph-name="Nacute" unicode="&#x143;" horiz-adv-x="714" 
d="M36 0q-10 0 -16 7t-4 18l138 650q2 11 10.5 18t19.5 7h90q15 0 21 -6.5t7 -11.5l179 -420l88 413q2 11 10.5 18t19.5 7h101q11 0 16.5 -7t3.5 -18l-138 -650q-2 -10 -10.5 -17.5t-18.5 -7.5h-91q-15 0 -20.5 7t-7.5 11l-181 408l-85 -401q-2 -11 -10.5 -18t-19.5 -7h-102
zM389 750q-16 0 -14 14q1 8 8 14l108 104q12 12 20 15.5t21 3.5h122q9 0 13 -5.5t3 -12.5q-1 -9 -9 -14l-150 -105q-10 -7 -18.5 -10.5t-21.5 -3.5h-82z" />
    <glyph glyph-name="nacute" unicode="&#x144;" horiz-adv-x="633" 
d="M25 0q-10 0 -16 7t-4 18l100 470q2 11 11 18t19 7h98q11 0 16 -7t3 -18l-8 -39q31 32 74.5 53t98.5 21q66 0 106.5 -26.5t55 -77t-0.5 -122.5l-60 -279q-2 -11 -10.5 -18t-19.5 -7h-106q-10 0 -16 7t-4 18l58 273q12 56 -2.5 84t-66.5 28q-51 0 -86.5 -29.5t-46.5 -82.5
l-58 -273q-2 -11 -10.5 -18t-18.5 -7h-106zM324 595q-16 0 -13 16q2 8 8 13l107 103q13 12 20.5 15.5t20.5 3.5h115q17 0 15 -18q0 -9 -8 -14l-150 -105q-10 -7 -18.5 -10.5t-21.5 -3.5h-75z" />
    <glyph glyph-name="uni0145" unicode="&#x145;" horiz-adv-x="714" 
d="M36 0q-10 0 -16 7t-4 18l138 650q2 11 10.5 18t19.5 7h90q15 0 21 -6.5t7 -11.5l179 -420l88 413q2 11 10.5 18t19.5 7h101q11 0 16.5 -7t3.5 -18l-138 -650q-2 -10 -10.5 -17.5t-18.5 -7.5h-91q-15 0 -20.5 7t-7.5 11l-181 408l-85 -401q-2 -11 -10.5 -18t-19.5 -7h-102
zM173 -231q-9 0 -13.5 7t-0.5 16l46 125q5 13 15 23t26 10h100q7 0 11 -5.5t3 -11.5q-1 -7 -5 -14l-74 -123q-6 -10 -15.5 -18.5t-24.5 -8.5h-68z" />
    <glyph glyph-name="uni0146" unicode="&#x146;" horiz-adv-x="633" 
d="M25 0q-10 0 -16 7t-4 18l100 470q2 11 11 18t19 7h98q11 0 16 -7t3 -18l-8 -39q31 32 74.5 53t98.5 21q66 0 106.5 -26.5t55 -77t-0.5 -122.5l-60 -279q-2 -11 -10.5 -18t-19.5 -7h-106q-10 0 -16 7t-4 18l58 273q12 56 -2.5 84t-66.5 28q-51 0 -86.5 -29.5t-46.5 -82.5
l-58 -273q-2 -11 -10.5 -18t-18.5 -7h-106zM131 -231q-8 0 -12 6.5t-1 15.5l45 126q5 13 15.5 23t26.5 10h94q8 0 12 -6t2 -13l-2 -6t-4 -6l-73 -123q-6 -10 -15.5 -18.5t-24.5 -8.5h-63z" />
    <glyph glyph-name="Ncaron" unicode="&#x147;" horiz-adv-x="714" 
d="M36 0q-10 0 -16 7t-4 18l138 650q2 11 10.5 18t19.5 7h90q15 0 21 -6.5t7 -11.5l179 -420l88 413q2 11 10.5 18t19.5 7h101q11 0 16.5 -7t3.5 -18l-138 -650q-2 -10 -10.5 -17.5t-18.5 -7.5h-91q-15 0 -20.5 7t-7.5 11l-181 408l-85 -401q-2 -11 -10.5 -18t-19.5 -7h-102
zM407 750q-9 0 -16 3.5t-15 13.5l-80 106q-5 6 -3 14q3 14 17 14h42q8 0 15 -1.5t13 -5.5l75 -51l96 51q8 4 15 5.5t15 1.5h57q14 0 12 -14q-1 -7 -8 -14l-126 -106q-12 -10 -20 -13.5t-18 -3.5h-71z" />
    <glyph glyph-name="ncaron" unicode="&#x148;" horiz-adv-x="633" 
d="M25 0q-10 0 -16 7t-4 18l100 470q2 11 11 18t19 7h98q11 0 16 -7t3 -18l-8 -39q31 32 74.5 53t98.5 21q66 0 106.5 -26.5t55 -77t-0.5 -122.5l-60 -279q-2 -11 -10.5 -18t-19.5 -7h-106q-10 0 -16 7t-4 18l58 273q12 56 -2.5 84t-66.5 28q-51 0 -86.5 -29.5t-46.5 -82.5
l-58 -273q-2 -11 -10.5 -18t-18.5 -7h-106zM346 595q-9 0 -16 3.5t-15 13.5l-80 106q-5 6 -3 12q1 8 6 12t11 4h40q8 0 14.5 -1.5t13.5 -5.5l74 -51l96 51q8 4 15 5.5t15 1.5h55q13 0 12 -14q-1 -7 -9 -14l-125 -106q-12 -10 -20 -13.5t-18 -3.5h-66z" />
    <glyph glyph-name="napostrophe" unicode="&#x149;" horiz-adv-x="633" 
d="M1 560q-9 0 -12.5 6t-1.5 15l46 126q5 13 15.5 23t26.5 10h93q8 0 12 -5.5t2 -13.5q-1 -2 -2 -5.5t-3 -6.5l-73 -123q-7 -10 -16 -18t-25 -8h-62zM25 0q-10 0 -16 7t-4 18l100 470q2 11 11 18t19 7h98q11 0 16 -7t3 -18l-8 -39q31 32 74.5 53t98.5 21q66 0 106.5 -26.5
t55 -77t-0.5 -122.5l-60 -279q-2 -11 -10.5 -18t-19.5 -7h-106q-10 0 -16 7t-4 18l58 273q12 56 -2.5 84t-66.5 28q-51 0 -86.5 -29.5t-46.5 -82.5l-58 -273q-2 -11 -10.5 -18t-18.5 -7h-106z" />
    <glyph glyph-name="Eng" unicode="&#x14a;" horiz-adv-x="713" 
d="M291 -225q-11 0 -16 7t-3 18l18 84q2 10 10.5 17t19.5 7h22q30 0 49 11t30 29.5t16 42.5l7 32l-178 399l-84 -397q-2 -11 -11 -18t-20 -7h-101q-11 0 -16 7t-3 18l137 650q2 11 11 18t20 7h91q15 0 20.5 -7t6.5 -11l178 -417l87 410q2 11 11 18t19 7h102q11 0 16 -7
t3 -18l-146 -689q-14 -67 -52.5 -114t-97.5 -72t-136 -25h-10z" />
    <glyph glyph-name="eng" unicode="&#x14b;" horiz-adv-x="633" 
d="M210 -225q-11 0 -16.5 7t-3.5 18l17 83q2 10 11 17t19 7h22q31 0 50.5 11.5t31 32.5t17.5 51l62 296q12 56 -2.5 84t-66.5 28q-51 0 -86.5 -29.5t-46.5 -82.5l-58 -273q-2 -11 -10.5 -18t-18.5 -7h-106q-10 0 -16 7t-4 18l100 470q2 11 11 18t19 7h98q11 0 16 -7t3 -18
l-8 -39q31 32 74.5 53t98.5 21q66 0 106.5 -26.5t55 -77t-0.5 -122.5l-66 -307q-15 -72 -49.5 -121.5t-91.5 -75t-140 -25.5h-21z" />
    <glyph glyph-name="Omacron" unicode="&#x14c;" horiz-adv-x="703" 
d="M300 -10q-62 0 -114.5 17t-88 51t-50 85t-2.5 120q7 43 16.5 85.5t19.5 86.5q33 135 118.5 205t226.5 70q62 0 114 -17.5t88 -52.5t50.5 -86t2.5 -119q-8 -44 -17 -86.5t-20 -85.5q-34 -138 -119 -205.5t-225 -67.5zM311 119q60 0 106 35.5t64 113.5q11 44 19.5 82.5
t15.5 81.5q15 78 -12.5 113.5t-88.5 35.5t-106 -35.5t-64 -113.5q-11 -43 -19 -81.5t-16 -82.5q-14 -78 12.5 -113.5t88.5 -35.5zM296 750q-10 0 -14.5 6.5t-2.5 16.5l13 64q2 10 10 16t18 6h290q10 0 14.5 -6t2.5 -16l-13 -64q-1 -10 -9 -16.5t-18 -6.5h-291z" />
    <glyph glyph-name="omacron" unicode="&#x14d;" horiz-adv-x="600" 
d="M242 -10q-78 0 -130.5 27.5t-74.5 78.5t-11 119q2 20 7.5 45.5t11.5 44.5q18 69 56 119.5t98 78t142 27.5q77 0 129.5 -27.5t76 -78t11.5 -119.5q-3 -19 -8.5 -44.5t-10.5 -45.5q-18 -68 -55 -119t-97 -78.5t-145 -27.5zM254 100q50 0 83 30.5t48 89.5q4 15 9.5 40
t7.5 40q10 58 -7 89t-66 31t-82 -31t-48 -89q-4 -15 -9.5 -40t-7.5 -40q-10 -59 6.5 -89.5t65.5 -30.5zM230 608q-10 0 -15 6.5t-3 16.5l13 60q2 10 9.5 16t17.5 6h265q10 0 14.5 -6t2.5 -16l-12 -60q-2 -10 -9.5 -16.5t-17.5 -6.5h-265z" />
    <glyph glyph-name="Obreve" unicode="&#x14e;" horiz-adv-x="703" 
d="M300 -10q-62 0 -114.5 17t-88 51t-50 85t-2.5 120q7 43 16.5 85.5t19.5 86.5q33 135 118.5 205t226.5 70q62 0 114 -17.5t88 -52.5t50.5 -86t2.5 -119q-8 -44 -17 -86.5t-20 -85.5q-34 -138 -119 -205.5t-225 -67.5zM311 119q60 0 106 35.5t64 113.5q11 44 19.5 82.5
t15.5 81.5q15 78 -12.5 113.5t-88.5 35.5t-106 -35.5t-64 -113.5q-11 -43 -19 -81.5t-16 -82.5q-14 -78 12.5 -113.5t88.5 -35.5zM447 743q-48 0 -79 18.5t-43 49.5t-4 68q2 8 8 13.5t15 5.5h58q9 0 13 -5.5t2 -13.5q-4 -23 2 -41.5t35 -18.5t44 18.5t21 41.5q2 8 8 13.5
t15 5.5h58q9 0 13 -5.5t2 -13.5q-8 -37 -26.5 -68t-52.5 -49.5t-89 -18.5z" />
    <glyph glyph-name="obreve" unicode="&#x14f;" horiz-adv-x="600" 
d="M242 -10q-78 0 -130.5 27.5t-74.5 78.5t-11 119q2 20 7.5 45.5t11.5 44.5q18 69 56 119.5t98 78t142 27.5q77 0 129.5 -27.5t76 -78t11.5 -119.5q-3 -19 -8.5 -44.5t-10.5 -45.5q-18 -68 -55 -119t-97 -78.5t-145 -27.5zM254 100q50 0 83 30.5t48 89.5q4 15 9.5 40
t7.5 40q10 58 -7 89t-66 31t-82 -31t-48 -89q-4 -15 -9.5 -40t-7.5 -40q-10 -59 6.5 -89.5t65.5 -30.5zM368 590q-45 0 -75 19t-42 50t-4 68q2 8 8 13.5t15 5.5h55q9 0 13 -5.5t2 -13.5q-4 -23 1.5 -42t33.5 -19q29 0 43 19t19 42q2 8 8 13.5t15 5.5h56q9 0 13 -5.5t2 -13.5
q-8 -37 -26 -68t-51.5 -50t-85.5 -19z" />
    <glyph glyph-name="Ohungarumlaut" unicode="&#x150;" horiz-adv-x="703" 
d="M300 -10q-62 0 -114.5 17t-88 51t-50 85t-2.5 120q7 43 16.5 85.5t19.5 86.5q33 135 118.5 205t226.5 70q62 0 114 -17.5t88 -52.5t50.5 -86t2.5 -119q-8 -44 -17 -86.5t-20 -85.5q-34 -138 -119 -205.5t-225 -67.5zM311 119q60 0 106 35.5t64 113.5q11 44 19.5 82.5
t15.5 81.5q15 78 -12.5 113.5t-88.5 35.5t-106 -35.5t-64 -113.5q-11 -43 -19 -81.5t-16 -82.5q-14 -78 12.5 -113.5t88.5 -35.5zM500 750q-15 0 -14 14q1 3 3 7t4 7l69 104q7 10 16 14.5t25 4.5h100q19 0 16 -17q-1 -8 -8 -15l-116 -105q-16 -14 -35 -14h-60zM302 750
q-15 0 -13 14q0 3 2.5 7t4.5 7l68 104q7 10 16 14.5t25 4.5h100q19 0 16 -17q0 -8 -8 -15l-116 -105q-16 -14 -35 -14h-60z" />
    <glyph glyph-name="ohungarumlaut" unicode="&#x151;" horiz-adv-x="600" 
d="M242 -10q-78 0 -130.5 27.5t-74.5 78.5t-11 119q2 20 7.5 45.5t11.5 44.5q18 69 56 119.5t98 78t142 27.5q77 0 129.5 -27.5t76 -78t11.5 -119.5q-3 -19 -8.5 -44.5t-10.5 -45.5q-18 -68 -55 -119t-97 -78.5t-145 -27.5zM254 100q50 0 83 30.5t48 89.5q4 15 9.5 40
t7.5 40q10 58 -7 89t-66 31t-82 -31t-48 -89q-4 -15 -9.5 -40t-7.5 -40q-10 -59 6.5 -89.5t65.5 -30.5zM422 595q-15 0 -14 14q1 3 3 7t4 7l69 104q7 10 16 14.5t25 4.5h93q18 0 16 -17q-1 -8 -8 -15l-116 -105q-16 -14 -36 -14h-52zM221 595q-15 0 -13 14q0 3 2.5 7t4.5 7
l68 104q7 10 16 14.5t25 4.5h93q18 0 16 -17q-1 -8 -8 -15l-116 -105q-16 -14 -35 -14h-53z" />
    <glyph glyph-name="OE" unicode="&#x152;" horiz-adv-x="950" 
d="M308 0q-66 0 -119.5 17t-89.5 51t-50.5 85.5t-1.5 119.5q8 43 15.5 76.5t17.5 77.5q22 91 64 151.5t111.5 91t170.5 30.5h532q11 0 17 -7t4 -18l-17 -80q-3 -10 -11 -17t-19 -7h-295l-34 -157h273q11 0 16.5 -7t3.5 -18l-16 -74q-2 -10 -10.5 -17t-19.5 -7h-272l-35 -162
h302q11 0 16.5 -7t3.5 -18l-17 -79q-2 -11 -10.5 -18t-19.5 -7h-510zM325 129h65l94 442h-65q-49 0 -85 -15t-58.5 -47t-35.5 -84q-7 -29 -12.5 -51.5t-10 -45.5t-9.5 -52q-14 -75 14 -111t103 -36z" />
    <glyph glyph-name="oe" unicode="&#x153;" horiz-adv-x="947" 
d="M250 -10q-82 0 -132 27.5t-69 78.5t-8 119q3 20 8.5 45.5t10.5 44.5q18 69 59.5 119.5t104 78t141.5 27.5q61 0 103 -19.5t64 -53.5q38 35 86 54t103 19q85 0 134 -34.5t64.5 -94t-0.5 -136.5l-5 -23q-2 -10 -11 -17t-19 -7h-327l-1 -8q-6 -32 -0.5 -58.5t23.5 -42.5
t49 -16q22 0 39.5 7t30 17t19.5 17q11 10 17 12.5t18 2.5h104q10 0 15 -5.5t2 -15.5q-4 -16 -24.5 -39.5t-55 -46t-82 -37.5t-104.5 -15q-56 0 -96.5 18.5t-62.5 52.5q-37 -34 -86.5 -52.5t-111.5 -18.5zM273 100q49 0 80.5 30.5t47.5 89.5q4 15 9 40t7 40q10 58 -8 89
t-67 31t-80.5 -31t-47.5 -89q-4 -15 -9 -40t-7 -40q-10 -59 8.5 -89.5t66.5 -30.5zM577 309h196v2q8 36 2 62.5t-25 41.5t-50 15t-56 -15t-42 -41.5t-25 -62.5v-2z" />
    <glyph glyph-name="Racute" unicode="&#x154;" horiz-adv-x="682" 
d="M50 0q-11 0 -16 7t-3 18l137 650q2 11 11 18t20 7h265q125 0 184.5 -57.5t36.5 -165.5q-15 -73 -60.5 -122t-109.5 -73l88 -250q1 -3 1.5 -5t-0.5 -6q-2 -8 -9.5 -14.5t-16.5 -6.5h-111q-18 0 -24.5 9.5t-9.5 17.5l-73 229h-121l-50 -231q-2 -11 -10.5 -18t-19.5 -7h-109
zM265 383h129q54 0 86 25t42 70q9 45 -11.5 71t-75.5 26h-129zM355 750q-16 0 -14 14q1 8 8 14l108 104q12 12 20 15.5t21 3.5h122q9 0 13 -5.5t3 -12.5q-1 -9 -9 -14l-150 -105q-10 -7 -18.5 -10.5t-21.5 -3.5h-82z" />
    <glyph glyph-name="racute" unicode="&#x155;" horiz-adv-x="437" 
d="M25 0q-10 0 -16 7t-4 18l100 470q2 10 11 17.5t19 7.5h98q10 0 15.5 -7.5t3.5 -17.5l-8 -40q24 30 60.5 47.5t89.5 17.5h53q10 0 15.5 -7t3.5 -18l-19 -86q-2 -11 -10.5 -18t-18.5 -7h-87q-45 0 -74.5 -24.5t-39.5 -69.5l-57 -265q-2 -11 -10.5 -18t-19.5 -7h-105z
M244 595q-16 0 -13 16q2 8 8 13l107 103q13 12 20.5 15.5t20.5 3.5h115q17 0 15 -18q0 -9 -8 -14l-150 -105q-10 -7 -18.5 -10.5t-21.5 -3.5h-75z" />
    <glyph glyph-name="uni0156" unicode="&#x156;" horiz-adv-x="682" 
d="M50 0q-11 0 -16 7t-3 18l137 650q2 11 11 18t20 7h265q125 0 184.5 -57.5t36.5 -165.5q-15 -73 -60.5 -122t-109.5 -73l88 -250q1 -3 1.5 -5t-0.5 -6q-2 -8 -9.5 -14.5t-16.5 -6.5h-111q-18 0 -24.5 9.5t-9.5 17.5l-73 229h-121l-50 -231q-2 -11 -10.5 -18t-19.5 -7h-109
zM265 383h129q54 0 86 25t42 70q9 45 -11.5 71t-75.5 26h-129zM158 -231q-9 0 -13.5 7t-0.5 16l46 125q5 13 15 23t26 10h100q7 0 11 -5.5t3 -11.5q-1 -7 -5 -14l-74 -123q-6 -10 -15.5 -18.5t-24.5 -8.5h-68z" />
    <glyph glyph-name="uni0157" unicode="&#x157;" horiz-adv-x="437" 
d="M25 0q-10 0 -16 7t-4 18l100 470q2 10 11 17.5t19 7.5h98q10 0 15.5 -7.5t3.5 -17.5l-8 -40q24 30 60.5 47.5t89.5 17.5h53q10 0 15.5 -7t3.5 -18l-19 -86q-2 -11 -10.5 -18t-18.5 -7h-87q-45 0 -74.5 -24.5t-39.5 -69.5l-57 -265q-2 -11 -10.5 -18t-19.5 -7h-105z
M-47 -231q-8 0 -12 6.5t-1 15.5l45 126q5 13 15.5 23t26.5 10h94q8 0 12 -6t2 -13l-2 -6t-4 -6l-73 -123q-6 -10 -15.5 -18.5t-24.5 -8.5h-63z" />
    <glyph glyph-name="Rcaron" unicode="&#x158;" horiz-adv-x="682" 
d="M50 0q-11 0 -16 7t-3 18l137 650q2 11 11 18t20 7h265q125 0 184.5 -57.5t36.5 -165.5q-15 -73 -60.5 -122t-109.5 -73l88 -250q1 -3 1.5 -5t-0.5 -6q-2 -8 -9.5 -14.5t-16.5 -6.5h-111q-18 0 -24.5 9.5t-9.5 17.5l-73 229h-121l-50 -231q-2 -11 -10.5 -18t-19.5 -7h-109
zM265 383h129q54 0 86 25t42 70q9 45 -11.5 71t-75.5 26h-129zM373 750q-9 0 -16 3.5t-15 13.5l-80 106q-5 6 -3 14q3 14 17 14h42q8 0 15 -1.5t13 -5.5l75 -51l96 51q8 4 15 5.5t15 1.5h57q14 0 12 -14q-1 -7 -8 -14l-126 -106q-12 -10 -20 -13.5t-18 -3.5h-71z" />
    <glyph glyph-name="rcaron" unicode="&#x159;" horiz-adv-x="437" 
d="M25 0q-10 0 -16 7t-4 18l100 470q2 10 11 17.5t19 7.5h98q10 0 15.5 -7.5t3.5 -17.5l-8 -40q24 30 60.5 47.5t89.5 17.5h53q10 0 15.5 -7t3.5 -18l-19 -86q-2 -11 -10.5 -18t-18.5 -7h-87q-45 0 -74.5 -24.5t-39.5 -69.5l-57 -265q-2 -11 -10.5 -18t-19.5 -7h-105z
M266 595q-9 0 -16 3.5t-15 13.5l-80 106q-5 6 -3 12q1 8 6 12t11 4h40q8 0 14.5 -1.5t13.5 -5.5l74 -51l96 51q8 4 15 5.5t15 1.5h55q13 0 12 -14q-1 -7 -9 -14l-125 -106q-12 -10 -20 -13.5t-18 -3.5h-66z" />
    <glyph glyph-name="Sacute" unicode="&#x15a;" horiz-adv-x="651" 
d="M273 -10q-96 0 -157.5 27.5t-88 73t-18.5 96.5q1 8 7.5 14.5t15.5 6.5h109q13 0 19 -5.5t11 -13.5q3 -17 15.5 -33t36.5 -26.5t61 -10.5q66 0 104 21t46 57q6 26 -8 42t-49.5 29t-93.5 28q-72 16 -118 44.5t-63.5 71.5t-4.5 103q19 90 96 142.5t200 52.5q64 0 112.5 -18
t81 -47t46.5 -62t9 -64q-1 -8 -7.5 -14.5t-15.5 -6.5h-114q-10 0 -17 4t-11 14q0 26 -25.5 45.5t-68.5 19.5q-49 0 -83 -18t-43 -55q-5 -24 6.5 -40.5t43 -29t86.5 -27.5q84 -18 133 -46t66.5 -70t4.5 -102q-21 -100 -104 -151.5t-220 -51.5zM359 750q-16 0 -14 14q1 8 8 14
l108 104q12 12 20 15.5t21 3.5h122q9 0 13 -5.5t3 -12.5q-1 -9 -9 -14l-150 -105q-10 -7 -18.5 -10.5t-21.5 -3.5h-82z" />
    <glyph glyph-name="sacute" unicode="&#x15b;" horiz-adv-x="542" 
d="M217 -10q-62 0 -103.5 14.5t-64.5 35.5t-31.5 42.5t-6.5 36.5q2 11 10.5 18t17.5 7h96q4 0 6.5 -1t5.5 -5q11 -9 22.5 -20.5t28.5 -19.5t44 -8q33 0 59 13.5t31 38.5q4 18 -4 30t-35 22t-81 22q-51 12 -84.5 32t-46.5 50.5t-4 73.5q9 39 40.5 75t85 59.5t125.5 23.5
q55 0 94 -13.5t62.5 -34t33 -42t6.5 -37.5q-1 -10 -9.5 -17t-17.5 -7h-88q-5 0 -8.5 1.5t-5.5 4.5q-11 8 -21 18.5t-25.5 18.5t-42.5 8q-33 0 -53.5 -14.5t-25.5 -36.5q-3 -14 3.5 -26t32 -22t80.5 -21q65 -12 100.5 -36t46 -55.5t2.5 -67.5q-9 -47 -45 -83.5t-94 -57
t-136 -20.5zM273 595q-16 0 -13 16q2 8 8 13l107 103q13 12 20.5 15.5t20.5 3.5h115q17 0 15 -18q0 -9 -8 -14l-150 -105q-10 -7 -18.5 -10.5t-21.5 -3.5h-75z" />
    <glyph glyph-name="Scircumflex" unicode="&#x15c;" horiz-adv-x="651" 
d="M273 -10q-96 0 -157.5 27.5t-88 73t-18.5 96.5q1 8 7.5 14.5t15.5 6.5h109q13 0 19 -5.5t11 -13.5q3 -17 15.5 -33t36.5 -26.5t61 -10.5q66 0 104 21t46 57q6 26 -8 42t-49.5 29t-93.5 28q-72 16 -118 44.5t-63.5 71.5t-4.5 103q19 90 96 142.5t200 52.5q64 0 112.5 -18
t81 -47t46.5 -62t9 -64q-1 -8 -7.5 -14.5t-15.5 -6.5h-114q-10 0 -17 4t-11 14q0 26 -25.5 45.5t-68.5 19.5q-49 0 -83 -18t-43 -55q-5 -24 6.5 -40.5t43 -29t86.5 -27.5q84 -18 133 -46t66.5 -70t4.5 -102q-21 -100 -104 -151.5t-220 -51.5zM242 750q-14 0 -12 13q1 8 8 14
l126 107q12 11 20.5 14t17.5 3h71q10 0 17 -3t14 -14l80 -106q5 -6 3 -14q-2 -14 -17 -14h-42q-8 0 -15 1.5t-13 5.5l-75 51l-96 -51q-8 -4 -15 -5.5t-15 -1.5h-57z" />
    <glyph glyph-name="scircumflex" unicode="&#x15d;" horiz-adv-x="542" 
d="M217 -10q-62 0 -103.5 14.5t-64.5 35.5t-31.5 42.5t-6.5 36.5q2 11 10.5 18t17.5 7h96q4 0 6.5 -1t5.5 -5q11 -9 22.5 -20.5t28.5 -19.5t44 -8q33 0 59 13.5t31 38.5q4 18 -4 30t-35 22t-81 22q-51 12 -84.5 32t-46.5 50.5t-4 73.5q9 39 40.5 75t85 59.5t125.5 23.5
q55 0 94 -13.5t62.5 -34t33 -42t6.5 -37.5q-1 -10 -9.5 -17t-17.5 -7h-88q-5 0 -8.5 1.5t-5.5 4.5q-11 8 -21 18.5t-25.5 18.5t-42.5 8q-33 0 -53.5 -14.5t-25.5 -36.5q-3 -14 3.5 -26t32 -22t80.5 -21q65 -12 100.5 -36t46 -55.5t2.5 -67.5q-9 -47 -45 -83.5t-94 -57
t-136 -20.5zM161 595q-14 0 -12 13q1 8 8 14l126 107q12 11 20.5 14t17.5 3h66q10 0 17 -3t14 -14l80 -106q5 -6 3 -14q-3 -14 -17 -14h-40q-8 0 -14.5 1.5t-13.5 5.5l-74 51l-96 -51q-8 -4 -15 -5.5t-15 -1.5h-55z" />
    <glyph glyph-name="Scedilla" unicode="&#x15e;" horiz-adv-x="651" 
d="M233 -220q-27 0 -47 9t-26.5 21t4.5 21l21 16q10 8 16 4.5t15 -9.5t29 -6q15 0 27 9t15 23q3 13 -4.5 22t-23.5 9q-13 0 -24 -3.5t-19.5 -4.5t-14.5 6l-14 19q-5 6 -2.5 13.5t9.5 18.5l29 44q-84 7 -134 36t-69.5 70.5t-10.5 88.5q2 8 9.5 14.5t16.5 6.5h107
q13 0 19 -5.5t10 -13.5q3 -17 15.5 -33t37.5 -26.5t64 -10.5q66 0 102.5 21t44.5 57q5 26 -9 42t-49 29t-94 28q-71 16 -117.5 41.5t-65 66t-5.5 100.5t55.5 106.5t108.5 73t149 26.5q67 0 114.5 -18t75.5 -47t39 -62t6 -64q-1 -8 -8.5 -14.5t-17.5 -6.5h-112q-9 0 -16 4
t-11 14q0 26 -25.5 45.5t-72.5 19.5q-49 0 -81.5 -18t-40.5 -55q-5 -24 6.5 -40.5t43 -29t86.5 -27.5q83 -18 133 -43t67.5 -64.5t4.5 -99.5q-14 -64 -58.5 -110.5t-111 -73t-146.5 -29.5l-30 -42q7 3 18 4.5t18 1.5q35 0 51.5 -24t8.5 -62t-39 -63.5t-77 -25.5z" />
    <glyph glyph-name="scedilla" unicode="&#x15f;" horiz-adv-x="542" 
d="M197 -220q-27 0 -46.5 9t-26 21t4.5 21l21 16q10 8 16 4.5t15 -9.5t28 -6q16 0 28 9t15 23q3 13 -5 22t-24 9q-9 0 -18.5 -3.5t-18 -4.5t-14.5 6l-14 19q-5 6 -3.5 13.5t8.5 18.5l27 43q-72 7 -112.5 30.5t-55 51t-11.5 46.5q2 11 10.5 18t17.5 7h92q4 0 7.5 -1t6.5 -5
q12 -9 23.5 -20.5t28.5 -19.5t45 -8q33 0 59 13.5t31 38.5q4 18 -4 30t-35 22t-81 22q-51 12 -84.5 32t-46.5 50.5t-4 73.5q9 39 40.5 75t85 59.5t125.5 23.5q55 0 94 -13.5t62.5 -34t33 -42t6.5 -37.5q-1 -10 -9.5 -17t-17.5 -7h-89q-5 0 -8 1.5t-5 4.5q-11 8 -21 18.5
t-25.5 18.5t-42.5 8q-33 0 -53.5 -14.5t-25.5 -36.5q-3 -14 3.5 -26t32 -22t80.5 -21q65 -12 100.5 -36t46 -55.5t2.5 -67.5q-14 -66 -77.5 -110t-167.5 -50l-24 -40q7 2 16 3t14 1q36 0 52 -24t8 -62t-39 -63.5t-77 -25.5z" />
    <glyph glyph-name="Scaron" unicode="&#x160;" horiz-adv-x="651" 
d="M273 -10q-96 0 -157.5 27.5t-88 73t-18.5 96.5q1 8 7.5 14.5t15.5 6.5h109q13 0 19 -5.5t11 -13.5q3 -17 15.5 -33t36.5 -26.5t61 -10.5q66 0 104 21t46 57q6 26 -8 42t-49.5 29t-93.5 28q-72 16 -118 44.5t-63.5 71.5t-4.5 103q19 90 96 142.5t200 52.5q64 0 112.5 -18
t81 -47t46.5 -62t9 -64q-1 -8 -7.5 -14.5t-15.5 -6.5h-114q-10 0 -17 4t-11 14q0 26 -25.5 45.5t-68.5 19.5q-49 0 -83 -18t-43 -55q-5 -24 6.5 -40.5t43 -29t86.5 -27.5q84 -18 133 -46t66.5 -70t4.5 -102q-21 -100 -104 -151.5t-220 -51.5zM377 750q-9 0 -16 3.5t-15 13.5
l-80 106q-5 6 -3 14q3 14 17 14h42q8 0 15 -1.5t13 -5.5l75 -51l96 51q8 4 15 5.5t15 1.5h57q14 0 12 -14q-1 -7 -8 -14l-126 -106q-12 -10 -20 -13.5t-18 -3.5h-71z" />
    <glyph glyph-name="scaron" unicode="&#x161;" horiz-adv-x="542" 
d="M217 -10q-62 0 -103.5 14.5t-64.5 35.5t-31.5 42.5t-6.5 36.5q2 11 10.5 18t17.5 7h96q4 0 6.5 -1t5.5 -5q11 -9 22.5 -20.5t28.5 -19.5t44 -8q33 0 59 13.5t31 38.5q4 18 -4 30t-35 22t-81 22q-51 12 -84.5 32t-46.5 50.5t-4 73.5q9 39 40.5 75t85 59.5t125.5 23.5
q55 0 94 -13.5t62.5 -34t33 -42t6.5 -37.5q-1 -10 -9.5 -17t-17.5 -7h-88q-5 0 -8.5 1.5t-5.5 4.5q-11 8 -21 18.5t-25.5 18.5t-42.5 8q-33 0 -53.5 -14.5t-25.5 -36.5q-3 -14 3.5 -26t32 -22t80.5 -21q65 -12 100.5 -36t46 -55.5t2.5 -67.5q-9 -47 -45 -83.5t-94 -57
t-136 -20.5zM294 595q-9 0 -16 3.5t-15 13.5l-80 106q-5 6 -3 12q1 8 6 12t11 4h40q8 0 14.5 -1.5t13.5 -5.5l74 -51l96 51q8 4 15 5.5t15 1.5h55q13 0 12 -14q-1 -7 -9 -14l-125 -106q-12 -10 -20 -13.5t-18 -3.5h-66z" />
    <glyph glyph-name="Tcaron" unicode="&#x164;" horiz-adv-x="614" 
d="M188 0q-10 0 -16 7t-4 18l115 536h-182q-10 0 -16 7t-4 17l19 90q2 11 10.5 18t19.5 7h524q11 0 16.5 -7t3.5 -18l-20 -90q-2 -10 -10 -17t-19 -7h-181l-115 -536q-2 -11 -10.5 -18t-19.5 -7h-111zM370 750q-9 0 -16 3.5t-15 13.5l-80 106q-5 6 -3 14q3 14 17 14h42
q8 0 15 -1.5t13 -5.5l75 -51l96 51q8 4 15 5.5t15 1.5h57q14 0 12 -14q-1 -7 -8 -14l-126 -106q-12 -10 -20 -13.5t-18 -3.5h-71z" />
    <glyph glyph-name="tcaron" unicode="&#x165;" horiz-adv-x="442" 
d="M256 0q-68 0 -109 20.5t-54.5 63.5t-0.5 108l45 210h-78q-11 0 -16.5 7t-3.5 18l14 68q2 11 11 18t19 7h79l35 165q2 11 10.5 18t19.5 7h98q10 0 16 -7t4 -18l-36 -165h125q11 0 16 -7t3 -18l-14 -68q-2 -11 -10.5 -18t-19.5 -7h-125l-42 -198q-5 -25 -5.5 -43.5t10 -28
t36.5 -9.5h76q10 0 15.5 -7t3.5 -17l-16 -74q-2 -11 -10 -18t-19 -7h-77zM423 610q-9 0 -12.5 6.5t-1.5 15.5l46 126q5 13 15.5 23t26.5 10h93q8 0 12.5 -6t2.5 -13l-2 -6t-4 -6l-73 -123q-7 -10 -16 -18.5t-24 -8.5h-63z" />
    <glyph glyph-name="Tbar" unicode="&#x166;" horiz-adv-x="623" 
d="M193 0q-11 0 -16.5 7t-3.5 18l59 278h-104q-10 0 -15.5 7t-3.5 17l9 44q2 11 11 18t19 7h104l35 165h-181q-11 0 -17 7t-4 17l20 90q2 11 10.5 18t18.5 7h524q11 0 16.5 -7t3.5 -18l-19 -90q-2 -10 -10.5 -17t-19.5 -7h-181l-35 -165h103q11 0 16.5 -7t3.5 -18l-10 -44
q-2 -10 -10.5 -17t-19.5 -7h-103l-60 -278q-2 -11 -10 -18t-19 -7h-111z" />
    <glyph glyph-name="tbar" unicode="&#x167;" horiz-adv-x="447" 
d="M255 0q-68 0 -108 20.5t-52.5 63.5t1.5 108l20 92h-79q-10 0 -15.5 7t-3.5 18l7 33q2 10 10.5 17t18.5 7h79l16 72h-79q-10 0 -15.5 7t-4.5 17l7 33q2 11 11 18t19 7h79l35 165q2 11 10.5 18t19.5 7h97q11 0 17 -7t4 -18l-36 -165h125q11 0 16 -7t3 -18l-7 -33
q-1 -10 -10 -17t-19 -7h-125l-16 -72h125q11 0 16.5 -7t3.5 -17l-7 -33q-2 -11 -11 -18t-19 -7h-125l-17 -80q-5 -25 -5 -43.5t10 -28t36 -9.5h76q10 0 15.5 -7t3.5 -17l-16 -74q-2 -11 -10 -18t-19 -7h-82z" />
    <glyph glyph-name="Utilde" unicode="&#x168;" horiz-adv-x="719" 
d="M307 -10q-64 0 -116 16.5t-86.5 50.5t-46.5 86t3 124l87 408q2 11 10.5 18t19.5 7h109q11 0 16.5 -7t3.5 -18l-87 -407q-16 -74 7 -110t91 -36q67 0 109.5 36t57.5 110l87 407q2 11 11 18t19 7h110q10 0 15.5 -7t3.5 -18l-86 -408q-31 -143 -112.5 -210t-225.5 -67z
M515 745q-26 0 -43 9t-31 17.5t-31 8.5q-16 0 -24 -7t-14 -15t-17 -8h-53q-7 0 -11 5.5t-3 11.5q3 16 12 36t24 39t37 31.5t50 12.5q27 0 44.5 -9t31 -18t30.5 -9q16 0 24 8t14 15.5t17 7.5h53q8 0 11.5 -5.5t2.5 -12.5q-3 -15 -12 -35t-24.5 -39t-37 -31.5t-50.5 -12.5z
" />
    <glyph glyph-name="utilde" unicode="&#x169;" horiz-adv-x="631" 
d="M199 -10q-62 0 -103 26.5t-56 77t1 122.5l59 279q2 11 10.5 18t19.5 7h106q10 0 15.5 -7t3.5 -18l-58 -273q-8 -37 -5 -62t21 -37.5t53 -12.5q48 0 84 29.5t47 82.5l58 273q2 11 11 18t19 7h106q11 0 16 -7t3 -18l-100 -470q-2 -11 -10 -18t-19 -7h-98q-11 0 -16.5 7
t-3.5 18l8 39q-22 -23 -45.5 -40t-53 -25.5t-73.5 -8.5zM436 590q-26 0 -42.5 9t-29.5 17.5t-30 8.5q-13 0 -21 -7t-15 -15t-18 -8h-53q-7 0 -11 5.5t-3 11.5q3 16 12 35.5t23.5 38t36.5 30.5t50 12t44 -8.5t29.5 -17.5t29.5 -9q14 0 21.5 8t14 15.5t17.5 7.5h53
q9 0 12.5 -5.5t1.5 -12.5q-3 -16 -11.5 -35.5t-23.5 -38t-36.5 -30.5t-50.5 -12z" />
    <glyph glyph-name="Umacron" unicode="&#x16a;" horiz-adv-x="719" 
d="M307 -10q-64 0 -116 16.5t-86.5 50.5t-46.5 86t3 124l87 408q2 11 10.5 18t19.5 7h109q11 0 16.5 -7t3.5 -18l-87 -407q-16 -74 7 -110t91 -36q67 0 109.5 36t57.5 110l87 407q2 11 11 18t19 7h110q10 0 15.5 -7t3.5 -18l-86 -408q-31 -143 -112.5 -210t-225.5 -67z
M300 750q-10 0 -14.5 6.5t-2.5 16.5l13 64q2 10 10 16t18 6h290q10 0 14.5 -6t2.5 -16l-13 -64q-1 -10 -9 -16.5t-18 -6.5h-291z" />
    <glyph glyph-name="umacron" unicode="&#x16b;" horiz-adv-x="631" 
d="M199 -10q-62 0 -103 26.5t-56 77t1 122.5l59 279q2 11 10.5 18t19.5 7h106q10 0 15.5 -7t3.5 -18l-58 -273q-8 -37 -5 -62t21 -37.5t53 -12.5q48 0 84 29.5t47 82.5l58 273q2 11 11 18t19 7h106q11 0 16 -7t3 -18l-100 -470q-2 -11 -10 -18t-19 -7h-98q-11 0 -16.5 7
t-3.5 18l8 39q-22 -23 -45.5 -40t-53 -25.5t-73.5 -8.5zM237 608q-10 0 -15 6.5t-3 16.5l13 60q2 10 9.5 16t17.5 6h265q10 0 14.5 -6t2.5 -16l-12 -60q-2 -10 -9.5 -16.5t-17.5 -6.5h-265z" />
    <glyph glyph-name="Ubreve" unicode="&#x16c;" horiz-adv-x="719" 
d="M307 -10q-64 0 -116 16.5t-86.5 50.5t-46.5 86t3 124l87 408q2 11 10.5 18t19.5 7h109q11 0 16.5 -7t3.5 -18l-87 -407q-16 -74 7 -110t91 -36q67 0 109.5 36t57.5 110l87 407q2 11 11 18t19 7h110q10 0 15.5 -7t3.5 -18l-86 -408q-31 -143 -112.5 -210t-225.5 -67z
M451 743q-48 0 -79 18.5t-43 49.5t-4 68q2 8 8 13.5t15 5.5h58q9 0 13 -5.5t2 -13.5q-4 -23 2 -41.5t35 -18.5t44 18.5t21 41.5q2 8 8 13.5t15 5.5h58q9 0 13 -5.5t2 -13.5q-8 -37 -26.5 -68t-52.5 -49.5t-89 -18.5z" />
    <glyph glyph-name="ubreve" unicode="&#x16d;" horiz-adv-x="631" 
d="M199 -10q-62 0 -103 26.5t-56 77t1 122.5l59 279q2 11 10.5 18t19.5 7h106q10 0 15.5 -7t3.5 -18l-58 -273q-8 -37 -5 -62t21 -37.5t53 -12.5q48 0 84 29.5t47 82.5l58 273q2 11 11 18t19 7h106q11 0 16 -7t3 -18l-100 -470q-2 -11 -10 -18t-19 -7h-98q-11 0 -16.5 7
t-3.5 18l8 39q-22 -23 -45.5 -40t-53 -25.5t-73.5 -8.5zM375 590q-45 0 -75 19t-42 50t-4 68q2 8 8 13.5t15 5.5h55q9 0 13 -5.5t2 -13.5q-4 -23 1.5 -42t33.5 -19q29 0 43 19t19 42q2 8 8 13.5t15 5.5h56q9 0 13 -5.5t2 -13.5q-8 -37 -26 -68t-51.5 -50t-85.5 -19z" />
    <glyph glyph-name="Uring" unicode="&#x16e;" horiz-adv-x="719" 
d="M307 -10q-64 0 -116 16.5t-86.5 50.5t-46.5 86t3 124l87 408q2 11 10.5 18t19.5 7h109q11 0 16.5 -7t3.5 -18l-87 -407q-16 -74 7 -110t91 -36q67 0 109.5 36t57.5 110l87 407q2 11 11 18t19 7h110q10 0 15.5 -7t3.5 -18l-86 -408q-31 -143 -112.5 -210t-225.5 -67z
M445 740q-37 0 -59.5 24.5t-14.5 60.5q9 37 39.5 61.5t67.5 24.5t59.5 -24.5t14.5 -61.5t-39 -61t-68 -24zM453 795q14 0 24.5 8.5t13.5 21.5t-3 21.5t-19 8.5q-14 0 -24.5 -8.5t-13.5 -21.5t3.5 -21.5t18.5 -8.5z" />
    <glyph glyph-name="uring" unicode="&#x16f;" horiz-adv-x="631" 
d="M199 -10q-62 0 -103 26.5t-56 77t1 122.5l59 279q2 11 10.5 18t19.5 7h106q10 0 15.5 -7t3.5 -18l-58 -273q-8 -37 -5 -62t21 -37.5t53 -12.5q48 0 84 29.5t47 82.5l58 273q2 11 11 18t19 7h106q11 0 16 -7t3 -18l-100 -470q-2 -11 -10 -18t-19 -7h-98q-11 0 -16.5 7
t-3.5 18l8 39q-22 -23 -45.5 -40t-53 -25.5t-73.5 -8.5zM366 590q-37 0 -59.5 24.5t-14.5 60.5q9 37 39.5 61.5t67.5 24.5t59.5 -24.5t14.5 -61.5t-39 -61t-68 -24zM374 645q14 0 24.5 8.5t13.5 21.5t-3 21.5t-19 8.5q-14 0 -24.5 -8.5t-13.5 -21.5t3.5 -21.5t18.5 -8.5z
" />
    <glyph glyph-name="Uhungarumlaut" unicode="&#x170;" horiz-adv-x="719" 
d="M307 -10q-64 0 -116 16.5t-86.5 50.5t-46.5 86t3 124l87 408q2 11 10.5 18t19.5 7h109q11 0 16.5 -7t3.5 -18l-87 -407q-16 -74 7 -110t91 -36q67 0 109.5 36t57.5 110l87 407q2 11 11 18t19 7h110q10 0 15.5 -7t3.5 -18l-86 -408q-31 -143 -112.5 -210t-225.5 -67z
M504 750q-15 0 -14 14q1 3 3 7t4 7l69 104q7 10 16 14.5t25 4.5h100q19 0 16 -17q-1 -8 -8 -15l-116 -105q-16 -14 -35 -14h-60zM306 750q-15 0 -13 14q0 3 2.5 7t4.5 7l68 104q7 10 16 14.5t25 4.5h100q19 0 16 -17q0 -8 -8 -15l-116 -105q-16 -14 -35 -14h-60z" />
    <glyph glyph-name="uhungarumlaut" unicode="&#x171;" horiz-adv-x="631" 
d="M199 -10q-62 0 -103 26.5t-56 77t1 122.5l59 279q2 11 10.5 18t19.5 7h106q10 0 15.5 -7t3.5 -18l-58 -273q-8 -37 -5 -62t21 -37.5t53 -12.5q48 0 84 29.5t47 82.5l58 273q2 11 11 18t19 7h106q11 0 16 -7t3 -18l-100 -470q-2 -11 -10 -18t-19 -7h-98q-11 0 -16.5 7
t-3.5 18l8 39q-22 -23 -45.5 -40t-53 -25.5t-73.5 -8.5zM429 595q-15 0 -14 14q1 3 3 7t4 7l69 104q7 10 16 14.5t25 4.5h93q18 0 16 -17q-1 -8 -8 -15l-116 -105q-16 -14 -36 -14h-52zM228 595q-15 0 -13 14q0 3 2.5 7t4.5 7l68 104q7 10 16 14.5t25 4.5h93q18 0 16 -17
q-1 -8 -8 -15l-116 -105q-16 -14 -35 -14h-53z" />
    <glyph glyph-name="Uogonek" unicode="&#x172;" horiz-adv-x="719" 
d="M335 -220q-48 0 -80.5 21.5t-46 57.5t-4.5 81q3 17 8.5 31.5t12.5 26.5q-63 12 -106 45t-59 89t1 135l87 408q2 11 10.5 18t19.5 7h109q11 0 16.5 -7t3.5 -18l-87 -407q-15 -74 7.5 -110t90.5 -36q67 0 109.5 36t57.5 110l87 407q2 11 11 18t19 7h110q10 0 15.5 -7
t3.5 -18l-86 -408q-17 -90 -55.5 -148.5t-94.5 -88.5t-129 -37q-27 -2 -45 -17.5t-23 -40.5q-6 -27 7 -46t40 -19h14q11 0 16 -7t3 -17l-10 -44q-2 -10 -9.5 -16t-18.5 -6h-5z" />
    <glyph glyph-name="uogonek" unicode="&#x173;" horiz-adv-x="631" 
d="M436 -220q-45 0 -73 19t-37.5 53t0.5 79q4 20 14 36.5t22.5 29.5t24.5 20q-4 2 -6.5 7t-1.5 11l7 29q-33 -36 -78.5 -55t-104.5 -19q-58 0 -97 26.5t-52.5 77t1.5 122.5l59 279q2 11 11 18t19 7h106q11 0 16 -7t3 -18l-58 -273q-23 -112 74 -112q47 0 81 29.5t46 82.5
l58 273q2 11 10.5 18t19.5 7h106q10 0 15.5 -7t3.5 -18l-100 -470q-2 -9 -9.5 -16t-18.5 -9l-9 -1q-30 -7 -46.5 -25.5t-21.5 -42.5q-6 -27 3.5 -44t36.5 -17h7q11 0 16.5 -7t3.5 -17l-9 -41q-2 -11 -11 -18t-19 -7h-12z" />
    <glyph glyph-name="Wcircumflex" unicode="&#x174;" horiz-adv-x="816" 
d="M124 0q-16 0 -23.5 9t-6.5 22l17 646q0 9 7 16t17 7h102q14 0 20 -6t5 -18l-13 -414l135 257q5 8 14 17t24 9h63q16 0 21 -9t6 -17l28 -262l164 422q8 21 34 21h109q12 0 15.5 -8t-0.5 -17l-244 -644q-5 -13 -16.5 -22t-27.5 -9h-83q-17 0 -23.5 8.5t-8.5 17.5l-48 309
l-163 -309q-5 -9 -15 -17.5t-26 -8.5h-83zM321 750q-14 0 -12 13q1 8 8 14l126 107q12 11 20.5 14t17.5 3h71q10 0 17 -3t14 -14l80 -106q5 -6 3 -14q-2 -14 -17 -14h-42q-8 0 -15 1.5t-13 5.5l-75 51l-96 -51q-8 -4 -15 -5.5t-15 -1.5h-57z" />
    <glyph glyph-name="wcircumflex" unicode="&#x175;" horiz-adv-x="830" 
d="M141 0q-14 0 -20 7t-7 18l-46 467q-1 11 6.5 19.5t20.5 8.5h84q13 0 18.5 -6t6.5 -14l27 -309l161 307q4 7 12 14.5t22 7.5h59q14 0 19.5 -7.5t6.5 -14.5l33 -307l157 309q3 6 10.5 13t20.5 7h95q14 0 17 -9.5t-2 -20.5l-242 -465q-5 -11 -14 -18t-23 -7h-78
q-14 0 -20.5 7t-8.5 18l-41 296l-159 -296q-6 -11 -15 -18t-24 -7h-76zM302 595q-14 0 -12 13q1 8 8 14l126 107q12 11 20.5 14t17.5 3h66q10 0 17 -3t14 -14l80 -106q5 -6 3 -14q-3 -14 -17 -14h-40q-8 0 -14.5 1.5t-13.5 5.5l-74 51l-96 -51q-8 -4 -15 -5.5t-15 -1.5h-55z
" />
    <glyph glyph-name="Ycircumflex" unicode="&#x176;" horiz-adv-x="670" 
d="M217 0q-10 0 -16 7t-4 18l47 220l-144 423q-4 12 3.5 22t20.5 10h100q13 0 19.5 -7t8.5 -13l97 -274l214 274q4 6 13.5 13t22.5 7h117q15 0 17 -11t-6 -21l-324 -423l-47 -220q-2 -11 -10.5 -18t-19.5 -7h-109zM239 750q-14 0 -12 13q1 8 8 14l126 107q12 11 20.5 14
t17.5 3h71q10 0 17 -3t14 -14l80 -106q5 -6 3 -14q-2 -14 -17 -14h-42q-8 0 -15 1.5t-13 5.5l-75 51l-96 -51q-8 -4 -15 -5.5t-15 -1.5h-57z" />
    <glyph glyph-name="ycircumflex" unicode="&#x177;" horiz-adv-x="591" 
d="M54 -190q-12 0 -16 10.5t4 21.5l122 192l-98 457q-2 11 4.5 20t21.5 9h91q12 0 17.5 -6t6.5 -14l61 -310l196 310q5 8 12.5 14t20.5 6h102q11 0 16 -9t-2 -21l-426 -660q-4 -8 -12 -14t-21 -6h-100zM194 595q-14 0 -12 13q1 8 8 14l126 107q12 11 20.5 14t17.5 3h66
q10 0 17 -3t14 -14l80 -106q5 -6 3 -14q-3 -14 -17 -14h-40q-8 0 -14.5 1.5t-13.5 5.5l-74 51l-96 -51q-8 -4 -15 -5.5t-15 -1.5h-55z" />
    <glyph glyph-name="Ydieresis" unicode="&#x178;" horiz-adv-x="670" 
d="M217 0q-10 0 -16 7t-4 18l47 220l-144 423q-4 12 3.5 22t20.5 10h100q13 0 19.5 -7t8.5 -13l97 -274l214 274q4 6 13.5 13t22.5 7h117q15 0 17 -11t-6 -21l-324 -423l-47 -220q-2 -11 -10.5 -18t-19.5 -7h-109zM483 750q-10 0 -15 6t-3 17l17 82q2 10 10 16.5t18 6.5h82
q10 0 15 -6.5t3 -16.5l-17 -82q-2 -11 -10 -17t-18 -6h-82zM256 750q-10 0 -15 6t-3 17l17 82q2 10 10 16.5t18 6.5h82q10 0 15 -6.5t3 -16.5l-17 -82q-2 -11 -10 -17t-18 -6h-82z" />
    <glyph glyph-name="Zacute" unicode="&#x179;" horiz-adv-x="634" 
d="M-1 0q-10 0 -16 7.5t-4 17.5l19 84q3 14 10.5 23t11.5 13l417 422h-308q-10 0 -15.5 7t-3.5 17l17 84q2 11 10.5 18t19.5 7h491q11 0 16.5 -7t3.5 -18l-18 -83q-2 -11 -8 -19t-12 -15l-410 -424h319q11 0 16.5 -7t3.5 -18l-18 -84q-2 -11 -10 -18t-19 -7h-513zM361 750
q-16 0 -14 14q1 8 8 14l108 104q12 12 20 15.5t21 3.5h122q9 0 13 -5.5t3 -12.5q-1 -9 -9 -14l-150 -105q-10 -7 -18.5 -10.5t-21.5 -3.5h-82z" />
    <glyph glyph-name="zacute" unicode="&#x17a;" horiz-adv-x="540" 
d="M1 0q-11 0 -17 7t-4 18l15 67q2 9 6 15.5t10 11.5l305 285h-222q-10 0 -15.5 7t-3.5 17l14 67q2 11 10.5 18t19.5 7h390q11 0 16 -7t3 -18l-14 -72q-3 -14 -16 -25l-299 -282h245q11 0 16.5 -7t2.5 -17l-14 -67q-2 -11 -10.5 -18t-18.5 -7h-419zM284 595q-16 0 -13 16
q2 8 8 13l107 103q13 12 20.5 15.5t20.5 3.5h115q17 0 15 -18q0 -9 -8 -14l-150 -105q-10 -7 -18.5 -10.5t-21.5 -3.5h-75z" />
    <glyph glyph-name="Zdotaccent" unicode="&#x17b;" horiz-adv-x="634" 
d="M-1 0q-10 0 -16 7.5t-4 17.5l19 84q3 14 10.5 23t11.5 13l417 422h-308q-10 0 -15.5 7t-3.5 17l17 84q2 11 10.5 18t19.5 7h491q11 0 16.5 -7t3.5 -18l-18 -83q-2 -11 -8 -19t-12 -15l-410 -424h319q11 0 16.5 -7t3.5 -18l-18 -84q-2 -11 -10 -18t-19 -7h-513zM368 750
q-10 0 -15 6t-3 17l20 93q2 10 9.5 16.5t17.5 6.5h93q10 0 15 -6.5t3 -16.5l-19 -93q-2 -11 -10 -17t-18 -6h-93z" />
    <glyph glyph-name="zdotaccent" unicode="&#x17c;" horiz-adv-x="540" 
d="M1 0q-11 0 -17 7t-4 18l15 67q2 9 6 15.5t10 11.5l305 285h-222q-10 0 -15.5 7t-3.5 17l14 67q2 11 10.5 18t19.5 7h390q11 0 16 -7t3 -18l-14 -72q-3 -14 -16 -25l-299 -282h245q11 0 16.5 -7t2.5 -17l-14 -67q-2 -11 -10.5 -18t-18.5 -7h-419zM292 606q-10 0 -15 6
t-3 16l20 91q2 10 9.5 16.5t17.5 6.5h90q10 0 15.5 -6.5t3.5 -16.5l-20 -91q-2 -10 -9.5 -16t-17.5 -6h-91z" />
    <glyph glyph-name="Zcaron" unicode="&#x17d;" horiz-adv-x="634" 
d="M-1 0q-10 0 -16 7.5t-4 17.5l19 84q3 14 10.5 23t11.5 13l417 422h-308q-10 0 -15.5 7t-3.5 17l17 84q2 11 10.5 18t19.5 7h491q11 0 16.5 -7t3.5 -18l-18 -83q-2 -11 -8 -19t-12 -15l-410 -424h319q11 0 16.5 -7t3.5 -18l-18 -84q-2 -11 -10 -18t-19 -7h-513zM379 750
q-9 0 -16 3.5t-15 13.5l-80 106q-5 6 -3 14q3 14 17 14h42q8 0 15 -1.5t13 -5.5l75 -51l96 51q8 4 15 5.5t15 1.5h57q14 0 12 -14q-1 -7 -8 -14l-126 -106q-12 -10 -20 -13.5t-18 -3.5h-71z" />
    <glyph glyph-name="zcaron" unicode="&#x17e;" horiz-adv-x="540" 
d="M1 0q-11 0 -17 7t-4 18l15 67q2 9 6 15.5t10 11.5l305 285h-222q-10 0 -15.5 7t-3.5 17l14 67q2 11 10.5 18t19.5 7h390q11 0 16 -7t3 -18l-14 -72q-3 -14 -16 -25l-299 -282h245q11 0 16.5 -7t2.5 -17l-14 -67q-2 -11 -10.5 -18t-18.5 -7h-419zM305 595q-9 0 -16 3.5
t-15 13.5l-80 106q-5 6 -3 12q1 8 6 12t11 4h40q8 0 14.5 -1.5t13.5 -5.5l74 -51l96 51q8 4 15 5.5t15 1.5h55q13 0 12 -14q-1 -7 -9 -14l-125 -106q-12 -10 -20 -13.5t-18 -3.5h-66z" />
    <glyph glyph-name="longs" unicode="&#x17f;" horiz-adv-x="329" 
d="M80 0q-10 0 -16 7t-4 18l81 377h-79q-10 0 -16 7t-3 18l14 68q2 11 11 18t19 7h79l8 36q14 64 45 105t78 60t110 19h86q10 0 15.5 -7t3.5 -18l-15 -68q-2 -11 -10.5 -18t-19.5 -7h-63q-37 0 -57 -18t-27 -53l-113 -526q-2 -11 -10 -18t-19 -7h-98z" />
    <glyph glyph-name="florin" unicode="&#x192;" horiz-adv-x="456" 
d="M-82 -225q-10 0 -15.5 7t-4.5 18l18 83q2 10 11 17t19 7h23q31 0 50.5 11.5t30.5 32.5t17 51l85 400h-78q-11 0 -16.5 7t-3.5 18l14 68q2 11 11 18t20 7h78l8 36q14 64 43 105t76 60t113 19h87q11 0 16 -7t3 -18l-15 -68q-2 -11 -10.5 -18t-18.5 -7h-64q-41 0 -59 -18
t-25 -53l-7 -31h123q11 0 16 -7t3 -18l-14 -68q-2 -11 -10.5 -18t-19.5 -7h-122l-87 -405q-15 -72 -45.5 -121.5t-82 -75t-130.5 -25.5h-37z" />
    <glyph glyph-name="AEacute" unicode="&#x1fc;" horiz-adv-x="980" 
d="M-22 0q-15 0 -18 11.5t3 20.5l372 642q7 11 17.5 18.5t24.5 7.5h611q11 0 16.5 -7t3.5 -18l-17 -80q-2 -10 -10.5 -17t-19.5 -7h-308l-34 -157h286q11 0 16.5 -7t3.5 -18l-16 -74q-2 -10 -10.5 -17t-19.5 -7h-286l-35 -162h317q11 0 16 -7t3 -18l-16 -79
q-2 -11 -10.5 -18t-19.5 -7h-446q-10 0 -16 7t-4 18l24 107h-217l-67 -112q-4 -7 -12.5 -13.5t-22.5 -6.5h-109zM254 261h178l66 306h-70zM565 750q-16 0 -14 14q1 8 8 14l108 104q12 12 20 15.5t21 3.5h122q9 0 13 -5.5t3 -12.5q-1 -9 -9 -14l-150 -105q-10 -7 -18.5 -10.5
t-21.5 -3.5h-82z" />
    <glyph glyph-name="aeacute" unicode="&#x1fd;" horiz-adv-x="909" 
d="M176 -10q-61 0 -101 20.5t-56 55.5t-7 78q14 71 80.5 113t163.5 56l136 20l3 17q8 39 -5.5 59.5t-58.5 20.5q-27 0 -46.5 -9t-34 -20.5t-27.5 -20.5q-3 -5 -6.5 -7.5t-8.5 -2.5h-92q-10 0 -14.5 6.5t-3.5 15.5q4 17 21.5 40t49.5 45.5t78 37.5t106 15q66 0 102 -17.5
t52 -44.5q35 28 79 45t98 17q57 0 96 -15.5t62 -42t33.5 -60.5t10 -72t-7.5 -75l-5 -23q-2 -10 -11 -17t-19 -7h-322l-1 -8q-8 -42 0 -68t27 -37.5t42 -11.5q24 0 48 10t44 31q11 10 17 12.5t18 2.5h103q9 0 14 -5.5t3 -15.5q-4 -15 -23.5 -38t-53.5 -46t-82 -38.5
t-108 -15.5q-67 0 -109.5 23t-65.5 62q-47 -47 -103.5 -66t-114.5 -19zM228 94q33 0 61.5 14t50 43t30.5 73l4 17l-97 -15q-55 -9 -84 -27t-34 -44q-4 -19 4.5 -33t26 -21t38.5 -7zM541 309h191l1 4q5 36 0.5 62t-21.5 40.5t-50 14.5q-25 0 -50 -12.5t-44 -38.5t-26 -66z
M478 595q-16 0 -13 16q2 8 8 13l107 103q13 12 20.5 15.5t20.5 3.5h115q17 0 15 -18q0 -9 -8 -14l-150 -105q-10 -7 -18.5 -10.5t-21.5 -3.5h-75z" />
    <glyph glyph-name="Oslashacute" unicode="&#x1fe;" horiz-adv-x="730" 
d="M404 750q-16 0 -14 14q1 8 8 14l108 104q12 12 20 15.5t21 3.5h122q9 0 13 -5.5t3 -12.5q-1 -9 -9 -14l-150 -105q-10 -7 -18.5 -10.5t-21.5 -3.5h-82zM300 -10q-62 0 -114.5 17t-88 51t-50 85t-2.5 120q7 43 16.5 85.5t19.5 86.5q33 135 118.5 205t226.5 70
q62 0 114 -17.5t88 -52.5t50.5 -86t2.5 -119q-8 -44 -17 -86.5t-20 -85.5q-34 -138 -119 -205.5t-225 -67.5zM311 119q60 0 106 35.5t64 113.5q11 44 19.5 82.5t15.5 81.5q15 78 -12.5 113.5t-88.5 35.5t-106 -35.5t-64 -113.5q-11 -43 -19 -81.5t-16 -82.5
q-14 -78 12.5 -113.5t88.5 -35.5zM33 -65q-12 0 -17.5 11t4.5 23l632 782q2 3 8 8.5t16 5.5h31q12 0 17.5 -10.5t-3.5 -22.5l-633 -782q-2 -3 -8 -9t-17 -6h-30z" />
    <glyph glyph-name="oslashacute" unicode="&#x1ff;" horiz-adv-x="600" 
d="M242 -10q-78 0 -130.5 27.5t-74.5 78.5t-11 119q2 20 7.5 45.5t11.5 44.5q18 69 56 119.5t98 78t142 27.5q77 0 129.5 -27.5t76 -78t11.5 -119.5q-3 -19 -8.5 -44.5t-10.5 -45.5q-18 -68 -55 -119t-97 -78.5t-145 -27.5zM254 100q50 0 83 30.5t48 89.5q4 15 9.5 40
t7.5 40q10 58 -7 89t-66 31t-82 -31t-48 -89q-4 -15 -9.5 -40t-7.5 -40q-10 -59 6.5 -89.5t65.5 -30.5zM7 -28q-6 0 -12 5t-6 12q0 8 9 17l532 526q7 6 13.5 10.5t17.5 4.5h28q6 0 11.5 -5t5.5 -12q0 -9 -7 -17l-533 -526q-6 -6 -13 -10.5t-18 -4.5h-28zM317 595
q-16 0 -13 16q2 8 8 13l107 103q13 12 20.5 15.5t20.5 3.5h115q17 0 15 -18q0 -9 -8 -14l-150 -105q-10 -7 -18.5 -10.5t-21.5 -3.5h-75z" />
    <glyph glyph-name="uni0218" unicode="&#x218;" horiz-adv-x="651" 
d="M273 -10q-96 0 -157.5 27.5t-88 73t-18.5 96.5q1 8 7.5 14.5t15.5 6.5h109q13 0 19 -5.5t11 -13.5q3 -17 15.5 -33t36.5 -26.5t61 -10.5q66 0 104 21t46 57q6 26 -8 42t-49.5 29t-93.5 28q-72 16 -118 44.5t-63.5 71.5t-4.5 103q19 90 96 142.5t200 52.5q64 0 112.5 -18
t81 -47t46.5 -62t9 -64q-1 -8 -7.5 -14.5t-15.5 -6.5h-114q-10 0 -17 4t-11 14q0 26 -25.5 45.5t-68.5 19.5q-49 0 -83 -18t-43 -55q-5 -24 6.5 -40.5t43 -29t86.5 -27.5q84 -18 133 -46t66.5 -70t4.5 -102q-21 -100 -104 -151.5t-220 -51.5zM141 -231q-9 0 -13.5 7t-0.5 16
l46 125q5 13 15 23t26 10h100q7 0 11 -5.5t3 -11.5q-1 -7 -5 -14l-74 -123q-6 -10 -15.5 -18.5t-24.5 -8.5h-68z" />
    <glyph glyph-name="uni0219" unicode="&#x219;" horiz-adv-x="542" 
d="M217 -10q-62 0 -103.5 14.5t-64.5 35.5t-31.5 42.5t-6.5 36.5q2 11 10.5 18t17.5 7h96q4 0 6.5 -1t5.5 -5q11 -9 22.5 -20.5t28.5 -19.5t44 -8q33 0 59 13.5t31 38.5q4 18 -4 30t-35 22t-81 22q-51 12 -84.5 32t-46.5 50.5t-4 73.5q9 39 40.5 75t85 59.5t125.5 23.5
q55 0 94 -13.5t62.5 -34t33 -42t6.5 -37.5q-1 -10 -9.5 -17t-17.5 -7h-88q-5 0 -8.5 1.5t-5.5 4.5q-11 8 -21 18.5t-25.5 18.5t-42.5 8q-33 0 -53.5 -14.5t-25.5 -36.5q-3 -14 3.5 -26t32 -22t80.5 -21q65 -12 100.5 -36t46 -55.5t2.5 -67.5q-9 -47 -45 -83.5t-94 -57
t-136 -20.5zM97 -231q-8 0 -12 6.5t-1 15.5l45 126q5 13 15.5 23t26.5 10h94q8 0 12 -6t2 -13l-2 -6t-4 -6l-73 -123q-6 -10 -15.5 -18.5t-24.5 -8.5h-63z" />
    <glyph glyph-name="uni021A" unicode="&#x21a;" horiz-adv-x="614" 
d="M188 0q-10 0 -16 7t-4 18l115 536h-182q-10 0 -16 7t-4 17l19 90q2 11 10.5 18t19.5 7h524q11 0 16.5 -7t3.5 -18l-20 -90q-2 -10 -10 -17t-19 -7h-181l-115 -536q-2 -11 -10.5 -18t-19.5 -7h-111zM117 -231q-9 0 -13.5 7t-0.5 16l46 125q5 13 15 23t26 10h100
q7 0 11 -5.5t3 -11.5q-1 -7 -5 -14l-74 -123q-6 -10 -15.5 -18.5t-24.5 -8.5h-68z" />
    <glyph glyph-name="uni021B" unicode="&#x21b;" horiz-adv-x="442" 
d="M256 0q-68 0 -109 20.5t-54.5 63.5t-0.5 108l45 210h-78q-11 0 -16.5 7t-3.5 18l14 68q2 11 11 18t19 7h79l35 165q2 11 10.5 18t19.5 7h98q10 0 16 -7t4 -18l-36 -165h125q11 0 16 -7t3 -18l-14 -68q-2 -11 -10.5 -18t-19.5 -7h-125l-42 -198q-5 -25 -5.5 -43.5t10 -28
t36.5 -9.5h76q10 0 15.5 -7t3.5 -17l-16 -74q-2 -11 -10 -18t-19 -7h-77zM83 -231q-8 0 -12 6.5t-1 15.5l45 126q5 13 15.5 23t26.5 10h94q8 0 12 -6t2 -13l-2 -6t-4 -6l-73 -123q-6 -10 -15.5 -18.5t-24.5 -8.5h-63z" />
    <glyph glyph-name="uni0237" unicode="&#x237;" horiz-adv-x="376" 
d="M-65 -190q-10 0 -15 7t-3 18l18 86q2 11 10 18t19 7h53q28 0 44 10.5t25.5 28.5t13.5 40l80 373h-114q-10 0 -15.5 7t-3.5 17l15 73q2 11 11 18t19 7h244q10 0 15.5 -7t3.5 -18l-100 -470q-14 -65 -47.5 -113t-84.5 -75t-118 -27h-70z" />
    <glyph glyph-name="uni02BC" unicode="&#x2bc;" horiz-adv-x="166" 
d="M-99 614q-8 0 -11 6.5t3 15.5l72 126q7 13 19.5 23t28.5 10h94q8 0 11 -6t0 -13q-2 -3 -3.5 -6t-5.5 -6l-99 -123q-8 -10 -19 -18.5t-27 -8.5h-63z" />
    <glyph glyph-name="circumflex" unicode="&#x2c6;" horiz-adv-x="384" 
d="M43 595q-14 0 -12 13q1 8 8 14l126 107q12 11 20.5 14t17.5 3h66q10 0 17 -3t14 -14l80 -106q5 -6 3 -14q-3 -14 -17 -14h-40q-8 0 -14.5 1.5t-13.5 5.5l-74 51l-96 -51q-8 -4 -15 -5.5t-15 -1.5h-55z" />
    <glyph glyph-name="caron" unicode="&#x2c7;" horiz-adv-x="384" 
d="M145 595q-9 0 -16 3.5t-15 13.5l-80 106q-5 6 -3 12q1 8 6 12t11 4h40q8 0 14.5 -1.5t13.5 -5.5l74 -51l96 51q8 4 15 5.5t15 1.5h55q13 0 12 -14q-1 -7 -9 -14l-125 -106q-12 -10 -20 -13.5t-18 -3.5h-66z" />
    <glyph glyph-name="breve" unicode="&#x2d8;" horiz-adv-x="319" 
d="M155 590q-45 0 -75 19t-42 50t-4 68q2 8 8 13.5t15 5.5h55q9 0 13 -5.5t2 -13.5q-4 -23 1.5 -42t33.5 -19q29 0 43 19t19 42q2 8 8 13.5t15 5.5h56q9 0 13 -5.5t2 -13.5q-8 -37 -26 -68t-51.5 -50t-85.5 -19z" />
    <glyph glyph-name="dotaccent" unicode="&#x2d9;" horiz-adv-x="188" 
d="M49 606q-10 0 -15 6t-3 16l20 91q2 10 9.5 16.5t17.5 6.5h90q10 0 15.5 -6.5t3.5 -16.5l-20 -91q-2 -10 -9.5 -16t-17.5 -6h-91z" />
    <glyph glyph-name="ring" unicode="&#x2da;" horiz-adv-x="216" 
d="M106 590q-37 0 -59.5 24.5t-14.5 60.5q9 37 39.5 61.5t67.5 24.5t59.5 -24.5t14.5 -61.5t-39 -61t-68 -24zM114 645q14 0 24.5 8.5t13.5 21.5t-3 21.5t-19 8.5q-14 0 -24.5 -8.5t-13.5 -21.5t3.5 -21.5t18.5 -8.5z" />
    <glyph glyph-name="ogonek" unicode="&#x2db;" horiz-adv-x="257" 
d="M165 -220q-48 0 -80.5 21.5t-46 57.5t-4.5 81q13 68 55 109t115 41h32q11 0 16.5 -7t3.5 -17l-10 -41q-2 -11 -10 -18t-19 -7h-9q-31 0 -52.5 -19t-27.5 -46t7.5 -46t40.5 -19h14q10 0 15.5 -7t3.5 -17l-11 -44q-2 -10 -9.5 -16t-18.5 -6h-5z" />
    <glyph glyph-name="tilde" unicode="&#x2dc;" horiz-adv-x="377" 
d="M254 590q-26 0 -42.5 9t-29.5 17.5t-30 8.5q-13 0 -21 -7t-15 -15t-18 -8h-53q-7 0 -11 5.5t-3 11.5q3 16 12 35.5t23.5 38t36.5 30.5t50 12t44 -8.5t29.5 -17.5t29.5 -9q14 0 21.5 8t14 15.5t17.5 7.5h53q9 0 12.5 -5.5t1.5 -12.5q-3 -16 -11.5 -35.5t-23.5 -38
t-36.5 -30.5t-50.5 -12z" />
    <glyph glyph-name="hungarumlaut" unicode="&#x2dd;" horiz-adv-x="458" 
d="M245 595q-15 0 -14 14q1 3 3 7t4 7l69 104q7 10 16 14.5t25 4.5h93q18 0 16 -17q-1 -8 -8 -15l-116 -105q-16 -14 -36 -14h-52zM44 595q-15 0 -13 14q0 3 2.5 7t4.5 7l68 104q7 10 16 14.5t25 4.5h93q18 0 16 -17q-1 -8 -8 -15l-116 -105q-16 -14 -35 -14h-53z" />
    <glyph glyph-name="gravecomb" unicode="&#x300;" 
d="M173 595q-13 0 -20 3.5t-14 10.5l-105 104q-4 6 -3 13q3 20 22 20h121q13 0 19.5 -3.5t13.5 -15.5l63 -102q4 -6 2 -14q-3 -16 -19 -16h-80z" />
    <glyph glyph-name="acutecomb" unicode="&#x301;" 
d="M44 595q-16 0 -13 16q2 8 8 13l107 103q13 12 20.5 15.5t20.5 3.5h115q17 0 15 -18q0 -9 -8 -14l-150 -105q-10 -7 -18.5 -10.5t-21.5 -3.5h-75z" />
    <glyph glyph-name="uni0302" unicode="&#x302;" 
d="M43 595q-14 0 -12 13q1 8 8 14l126 107q12 11 20.5 14t17.5 3h66q10 0 17 -3t14 -14l80 -106q5 -6 3 -14q-3 -14 -17 -14h-40q-8 0 -14.5 1.5t-13.5 5.5l-74 51l-96 -51q-8 -4 -15 -5.5t-15 -1.5h-55z" />
    <glyph glyph-name="tildecomb" unicode="&#x303;" 
d="M254 590q-26 0 -42.5 9t-29.5 17.5t-30 8.5q-13 0 -21 -7t-15 -15t-18 -8h-53q-7 0 -11 5.5t-3 11.5q3 16 12 35.5t23.5 38t36.5 30.5t50 12t44 -8.5t29.5 -17.5t29.5 -9q14 0 21.5 8t14 15.5t17.5 7.5h53q9 0 12.5 -5.5t1.5 -12.5q-3 -16 -11.5 -35.5t-23.5 -38
t-36.5 -30.5t-50.5 -12z" />
    <glyph glyph-name="uni0304" unicode="&#x304;" 
d="M49 608q-10 0 -15 6.5t-3 16.5l13 60q2 10 9.5 16t17.5 6h265q10 0 14.5 -6t2.5 -16l-12 -60q-2 -10 -9.5 -16.5t-17.5 -6.5h-265z" />
    <glyph glyph-name="uni0306" unicode="&#x306;" 
d="M155 590q-45 0 -75 19t-42 50t-4 68q2 8 8 13.5t15 5.5h55q9 0 13 -5.5t2 -13.5q-4 -23 1.5 -42t33.5 -19q29 0 43 19t19 42q2 8 8 13.5t15 5.5h56q9 0 13 -5.5t2 -13.5q-8 -37 -26 -68t-51.5 -50t-85.5 -19z" />
    <glyph glyph-name="uni0307" unicode="&#x307;" 
d="M49 606q-10 0 -15 6t-3 16l20 91q2 10 9.5 16.5t17.5 6.5h90q10 0 15.5 -6.5t3.5 -16.5l-20 -91q-2 -10 -9.5 -16t-17.5 -6h-91z" />
    <glyph glyph-name="uni0308" unicode="&#x308;" 
d="M246 611q-10 0 -14.5 6t-3.5 16l18 82q2 10 9.5 16.5t17.5 6.5h82q10 0 15 -6.5t3 -16.5l-17 -82q-2 -10 -10 -16t-18 -6h-82zM49 611q-10 0 -15 6t-3 16l18 82q2 10 9.5 16.5t17.5 6.5h82q10 0 15 -6.5t3 -16.5l-17 -82q-2 -10 -10 -16t-18 -6h-82z" />
    <glyph glyph-name="uni030A" unicode="&#x30a;" 
d="M106 590q-37 0 -59.5 24.5t-14.5 60.5q9 37 39.5 61.5t67.5 24.5t59.5 -24.5t14.5 -61.5t-39 -61t-68 -24zM114 645q14 0 24.5 8.5t13.5 21.5t-3 21.5t-19 8.5q-14 0 -24.5 -8.5t-13.5 -21.5t3.5 -21.5t18.5 -8.5z" />
    <glyph glyph-name="uni030B" unicode="&#x30b;" 
d="M245 595q-15 0 -14 14q1 3 3 7t4 7l69 104q7 10 16 14.5t25 4.5h93q18 0 16 -17q-1 -8 -8 -15l-116 -105q-16 -14 -36 -14h-52zM44 595q-15 0 -13 14q0 3 2.5 7t4.5 7l68 104q7 10 16 14.5t25 4.5h93q18 0 16 -17q-1 -8 -8 -15l-116 -105q-16 -14 -35 -14h-53z" />
    <glyph glyph-name="uni030C" unicode="&#x30c;" 
d="M145 595q-9 0 -16 3.5t-15 13.5l-80 106q-5 6 -3 12q1 8 6 12t11 4h40q8 0 14.5 -1.5t13.5 -5.5l74 -51l96 51q8 4 15 5.5t15 1.5h55q13 0 12 -14q-1 -7 -9 -14l-125 -106q-12 -10 -20 -13.5t-18 -3.5h-66z" />
    <glyph glyph-name="uni0312" unicode="&#x312;" 
d="M307 595q-8 0 -11.5 6t-2.5 13l2 6t3 6l73 123q7 10 16 18.5t25 8.5h62q9 0 12.5 -6.5t1.5 -15.5l-46 -126q-4 -12 -15 -22.5t-27 -10.5h-93z" />
    <glyph glyph-name="uni0326" unicode="&#x326;" 
d="M-18 -231q-8 0 -12 6.5t-1 15.5l45 126q5 13 15.5 23t26.5 10h94q8 0 12 -6t2 -13l-2 -6t-4 -6l-73 -123q-6 -10 -15.5 -18.5t-24.5 -8.5h-63z" />
    <glyph glyph-name="uni0327" unicode="&#x327;" 
d="M115 -220q-27 0 -50 9t-32 21t4 21l20 16q10 7 15.5 4t15 -9t29.5 -6q15 0 27 9t15 23q3 13 -5 22t-24 9q-12 0 -23 -3.5t-20 -4.5t-14 6l-17 23q-5 6 -2 14t10 19l49 74h68l-56 -78q7 3 17.5 4.5t17.5 1.5q34 0 50.5 -26t8.5 -64q-7 -38 -33.5 -61.5t-70.5 -23.5z" />
    <glyph glyph-name="uni0328" unicode="&#x328;" 
d="M165 -220q-48 0 -80.5 21.5t-46 57.5t-4.5 81q13 68 55 109t115 41h32q11 0 16.5 -7t3.5 -17l-10 -41q-2 -11 -10 -18t-19 -7h-9q-31 0 -52.5 -19t-27.5 -46t7.5 -46t40.5 -19h14q10 0 15.5 -7t3.5 -17l-11 -44q-2 -10 -9.5 -16t-18.5 -6h-5z" />
    <glyph glyph-name="uni0335" unicode="&#x335;" 
d="M65 250q-11 0 -16 7.5t-3 17.5l8 42q2 10 11 17t19 7h291q11 0 16 -7t3 -17l-8 -42q-2 -10 -10.5 -17.5t-19.5 -7.5h-291z" />
    <glyph glyph-name="uni0337" unicode="&#x337;" 
d="M-44 -36q-6 0 -12 5t-6 12q0 8 9 17l532 526q7 6 13.5 10.5t17.5 4.5h28q6 0 11.5 -5t5.5 -12q0 -9 -7 -17l-533 -526q-6 -6 -13 -10.5t-18 -4.5h-28z" />
    <glyph glyph-name="uni0338" unicode="&#x338;" 
d="M-72 -64q-12 0 -17.5 11t4.5 23l632 782q2 3 8 8.5t16 5.5h31q12 0 17.5 -10.5t-3.5 -22.5l-633 -782q-2 -3 -8 -9t-17 -6h-30z" />
    <glyph glyph-name="uni0400" unicode="&#x400;" horiz-adv-x="629" 
d="M36 0q-10 0 -16 7t-4 18l138 650q2 11 11 18t19 7h453q11 0 16.5 -7t3.5 -18l-17 -80q-2 -10 -10.5 -17t-19.5 -7h-324l-34 -157h302q11 0 16.5 -7t3.5 -18l-16 -74q-2 -10 -10.5 -17t-19.5 -7h-301l-35 -162h332q11 0 16.5 -7t3.5 -18l-17 -79q-2 -11 -10.5 -18
t-19.5 -7h-461zM389 750q-13 0 -20 3.5t-14 10.5l-105 104q-5 5 -3 13q3 20 23 20h118q13 0 19 -3.5t14 -15.5l63 -103q4 -6 2 -13q-4 -16 -19 -16h-78z" />
    <glyph glyph-name="uni0401" unicode="&#x401;" horiz-adv-x="629" 
d="M36 0q-10 0 -16 7t-4 18l138 650q2 11 11 18t19 7h453q11 0 16.5 -7t3.5 -18l-17 -80q-2 -10 -10.5 -17t-19.5 -7h-324l-34 -157h302q11 0 16.5 -7t3.5 -18l-16 -74q-2 -10 -10.5 -17t-19.5 -7h-301l-35 -162h332q11 0 16.5 -7t3.5 -18l-17 -79q-2 -11 -10.5 -18
t-19.5 -7h-461zM486 791q-10 0 -14.5 6t-3.5 16l18 82q2 10 9.5 16.5t17.5 6.5h82q10 0 15 -6.5t3 -16.5l-17 -82q-2 -10 -10 -16t-18 -6h-82zM289 791q-10 0 -15 6t-3 16l18 82q2 10 9.5 16.5t17.5 6.5h82q10 0 15 -6.5t3 -16.5l-17 -82q-2 -10 -10 -16t-18 -6h-82z" />
    <glyph glyph-name="uni0402" unicode="&#x402;" horiz-adv-x="764" 
d="M131 0q-10 0 -16 7t-4 18l118 555h-127q-10 0 -14.5 6.5t-3.5 16.5l16 74q2 10 9.5 16.5t17.5 6.5h503q10 0 15.5 -6.5t3.5 -16.5l-17 -74q-1 -10 -9 -16.5t-18 -6.5h-217l-33 -154q19 16 47.5 26t61 15.5t60.5 5.5q118 0 163 -56.5t22 -167.5l-7 -31q-14 -69 -55 -118
t-107 -74.5t-158 -25.5h-12q-10 0 -15.5 7t-4.5 18l16 72q2 10 10.5 17.5t19.5 7.5h12q45 0 72.5 12.5t42.5 34.5t20 50l4 17q9 49 -11.5 70.5t-71.5 21.5q-23 0 -47 -3t-44.5 -11.5t-35 -23.5t-19.5 -38l-48 -227q-2 -11 -10.5 -18t-19.5 -7h-109z" />
    <glyph glyph-name="uni0403" unicode="&#x403;" horiz-adv-x="553" 
d="M25 0q-11 0 -16.5 7t-3.5 18l138 650q2 11 10.5 18t19.5 7h419q11 0 17 -7t3 -18l-18 -85q-2 -10 -10.5 -17t-19.5 -7h-285l-116 -541q-2 -11 -10 -18t-19 -7h-109zM344 750q-16 0 -14 14q1 8 8 14l108 104q12 12 20 15.5t21 3.5h122q9 0 13 -5.5t3 -12.5q-1 -9 -9 -14
l-150 -105q-10 -7 -18.5 -10.5t-21.5 -3.5h-82z" />
    <glyph glyph-name="uni0404" unicode="&#x404;" horiz-adv-x="670" 
d="M282 -10q-86 0 -145.5 29.5t-83.5 93t-6 165.5q2 10 6 29.5t8.5 42t9 42t6.5 30.5q25 101 77 164t124.5 93.5t157.5 30.5q78 0 134.5 -22.5t85 -64.5t22.5 -103q-1 -9 -9 -15t-17 -6h-111q-11 0 -15.5 4t-6.5 14q-3 26 -28.5 45t-79.5 19q-65 0 -108.5 -37t-60.5 -117
l-3 -17h207q11 0 16 -7.5t3 -18.5l-14 -68q-2 -11 -11 -18.5t-19 -7.5h-208l-3 -18q-16 -73 11.5 -113.5t91.5 -40.5q54 0 87 18t49 46q9 10 15 14t17 4h111q9 0 14 -6t3 -15q-20 -61 -68.5 -103.5t-115.5 -64t-143 -21.5z" />
    <glyph glyph-name="uni0405" unicode="&#x405;" horiz-adv-x="651" 
d="M273 -10q-96 0 -157.5 27.5t-88 73t-18.5 96.5q1 8 7.5 14.5t15.5 6.5h109q13 0 19 -5.5t11 -13.5q3 -17 15.5 -33t36.5 -26.5t61 -10.5q66 0 104 21t46 57q6 26 -8 42t-49.5 29t-93.5 28q-72 16 -118 44.5t-63.5 71.5t-4.5 103q19 90 96 142.5t200 52.5q64 0 112.5 -18
t81 -47t46.5 -62t9 -64q-1 -8 -7.5 -14.5t-15.5 -6.5h-114q-10 0 -17 4t-11 14q0 26 -25.5 45.5t-68.5 19.5q-49 0 -83 -18t-43 -55q-5 -24 6.5 -40.5t43 -29t86.5 -27.5q84 -18 133 -46t66.5 -70t4.5 -102q-21 -100 -104 -151.5t-220 -51.5z" />
    <glyph glyph-name="uni0406" unicode="&#x406;" horiz-adv-x="311" 
d="M36 0q-11 0 -16.5 7t-3.5 18l139 650q2 11 10.5 18t18.5 7h114q10 0 16 -7t4 -18l-139 -650q-2 -11 -10.5 -18t-18.5 -7h-114z" />
    <glyph glyph-name="uni0407" unicode="&#x407;" horiz-adv-x="311" 
d="M36 0q-11 0 -16.5 7t-3.5 18l139 650q2 11 10.5 18t18.5 7h114q10 0 16 -7t4 -18l-139 -650q-2 -11 -10.5 -18t-18.5 -7h-114zM320 791q-10 0 -14.5 6t-3.5 16l18 82q2 10 9.5 16.5t17.5 6.5h82q10 0 15 -6.5t3 -16.5l-17 -82q-2 -10 -10 -16t-18 -6h-82zM123 791
q-10 0 -15 6t-3 16l18 82q2 10 9.5 16.5t17.5 6.5h82q10 0 15 -6.5t3 -16.5l-17 -82q-2 -10 -10 -16t-18 -6h-82z" />
    <glyph glyph-name="uni0408" unicode="&#x408;" horiz-adv-x="657" 
d="M258 -10q-50 0 -98.5 14t-87 42.5t-57 70.5t-9.5 98q2 9 8.5 15.5t16.5 6.5h115q14 0 19.5 -7t6.5 -20q-2 -48 23 -69.5t73 -21.5q62 0 98.5 37t51.5 105l65 306h-332q-10 0 -15.5 7t-3.5 17l18 84q2 11 10 18t19 7h471q11 0 16.5 -7t3.5 -18l-89 -418
q-18 -86 -58 -145.5t-105 -90.5t-160 -31z" />
    <glyph glyph-name="uni0409" unicode="&#x409;" horiz-adv-x="1061" 
d="M-16 0q-11 0 -17 7.5t-4 18.5l20 89q3 21 28 25q30 5 55.5 28t47.5 64.5t41 101t35 135.5l44 206q2 11 10.5 18t18.5 7h451q10 0 16 -7t4 -18l-48 -224h103q127 0 181 -56.5t31 -164.5q-14 -66 -55 -118.5t-104.5 -82t-148.5 -29.5h-237q-11 0 -16.5 7t-3.5 18l114 533
h-187l-24 -109q-25 -121 -55 -205.5t-70 -137.5t-96 -78.5t-134 -27.5zM616 125h98q49 0 81.5 29.5t41.5 75.5q10 50 -10.5 74.5t-68.5 24.5h-98z" />
    <glyph glyph-name="uni040A" unicode="&#x40a;" horiz-adv-x="1061" 
d="M36 0q-11 0 -16.5 7t-3.5 18l138 650q2 11 10.5 18t19.5 7h109q11 0 16.5 -7t3.5 -18l-53 -250h261l54 250q2 11 10 18t19 7h110q10 0 16 -7t4 -18l-49 -224h103q85 0 137 -26t71.5 -75.5t4.5 -119.5q-14 -66 -54.5 -118.5t-104.5 -82t-149 -29.5h-237q-11 0 -16.5 7
t-3.5 18l55 258h-261l-56 -258q-1 -11 -9.5 -18t-19.5 -7h-109zM616 125h98q49 0 81.5 29.5t41.5 75.5q10 50 -10.5 74.5t-68.5 24.5h-98z" />
    <glyph glyph-name="uni040B" unicode="&#x40b;" horiz-adv-x="766" 
d="M131 0q-10 0 -16 7t-4 18l118 555h-127q-10 0 -14.5 6.5t-3.5 16.5l16 74q2 10 9.5 16.5t17.5 6.5h503q10 0 15.5 -6.5t3.5 -16.5l-17 -74q-1 -10 -9 -16.5t-18 -6.5h-217l-35 -164q19 16 48 26.5t61 15.5t60 5q118 0 163 -56.5t22 -167.5l-46 -214q-2 -11 -10.5 -18
t-18.5 -7h-109q-11 0 -17 7t-4 18l43 201q11 50 -9.5 70.5t-78.5 20.5q-18 0 -40.5 -2.5t-43.5 -11t-36.5 -23t-20.5 -38.5l-46 -217q-2 -11 -10.5 -18t-19.5 -7h-109z" />
    <glyph glyph-name="uni040C" unicode="&#x40c;" horiz-adv-x="696" 
d="M705 700q10 0 14.5 -6.5t2.5 -14.5q-1 -6 -7 -12l-252 -304l137 -329q2 -5 0 -11q-2 -10 -10 -16.5t-17 -6.5h-118q-15 0 -21 6.5t-8 11.5l-109 265h-87l-56 -258q-1 -11 -9.5 -18t-19.5 -7h-109q-11 0 -16.5 7t-3.5 18l138 650q2 11 10.5 18t19.5 7h109q11 0 16.5 -7
t3.5 -18l-53 -250h73l208 256q7 8 16.5 13.5t23.5 5.5h124zM383 750q-16 0 -14 14q1 8 8 14l108 104q12 12 20 15.5t21 3.5h122q9 0 13 -5.5t3 -12.5q-1 -9 -9 -14l-150 -105q-10 -7 -18.5 -10.5t-21.5 -3.5h-82z" />
    <glyph glyph-name="uni040D" unicode="&#x40d;" horiz-adv-x="769" 
d="M36 0q-10 0 -16 7.5t-4 17.5l139 650q2 11 10.5 18t19.5 7h109q10 0 16 -7t4 -18l-93 -435l402 442q5 7 13.5 12.5t20.5 5.5h99q10 0 16 -7t4 -18l-139 -650q-2 -11 -10.5 -18t-18.5 -7h-109q-11 0 -17 7t-4 18l90 422l-398 -429q-4 -6 -12.5 -12t-22.5 -6h-99zM451 750
q-13 0 -20 3.5t-14 10.5l-105 104q-5 5 -3 13q3 20 23 20h118q13 0 19 -3.5t14 -15.5l63 -103q4 -6 2 -13q-4 -16 -19 -16h-78z" />
    <glyph glyph-name="uni040E" unicode="&#x40e;" horiz-adv-x="632" 
d="M63 0q-11 0 -16.5 7t-3.5 18l18 89q2 11 11 18t19 7h38q28 0 50 11.5t44 36t47 63.5l280 430q7 10 15 15t18 5h111q9 0 14.5 -6.5t3.5 -14.5q-1 -4 -3 -8.5t-5 -8.5l-297 -458q-37 -56 -68 -95t-63.5 -63t-71.5 -35t-92 -11h-49zM248 177l-160 492q-1 2 -1.5 4t0.5 5
q1 9 9 15.5t18 6.5h107q11 0 16 -5t8 -15l108 -347zM418 741q-63 0 -97 19t-44 50.5t-2 68.5q2 8 8 13.5t15 5.5h69q9 0 13 -5.5t2 -13.5q-3 -14 -0.5 -26.5t15 -20.5t38.5 -8q40 0 56.5 17t20.5 38q2 8 8 13.5t15 5.5h69q9 0 13 -5.5t2 -13.5q-8 -37 -31.5 -68.5t-65 -50.5
t-104.5 -19z" />
    <glyph glyph-name="uni040F" unicode="&#x40f;" horiz-adv-x="736" 
d="M220 -140q-10 0 -15.5 7t-4.5 18l25 115h-190q-11 0 -16 7t-3 18l138 650q2 11 10.5 18t19.5 7h109q11 0 16.5 -7t3.5 -18l-114 -533h271l115 533q2 11 10 18t19 7h109q11 0 16.5 -7t3.5 -18l-139 -650q-2 -11 -10.5 -18t-19.5 -7h-190l-25 -115q-1 -11 -9.5 -18
t-19.5 -7h-110z" />
    <glyph glyph-name="uni0410" unicode="&#x410;" horiz-adv-x="708" 
d="M-29 0q-12 0 -16.5 10t1.5 20l374 643q6 11 16 19t27 8h134q16 0 23 -8t8 -19l102 -643q2 -14 -5 -22t-18 -8h-102q-15 0 -21 7t-8 16l-20 109h-282l-67 -112q-5 -7 -13 -13.5t-22 -6.5h-111zM249 261h207l-43 288z" />
    <glyph glyph-name="uni0411" unicode="&#x411;" horiz-adv-x="653" 
d="M25 0q-11 0 -16.5 7t-3.5 18l138 650q2 11 10.5 18t19.5 7h468q11 0 16.5 -7t3.5 -18l-18 -85q-2 -10 -10.5 -17t-19.5 -7h-334l-31 -143h155q81 0 131 -26t69 -72.5t5 -109.5q-9 -43 -33.5 -82t-62 -69t-87.5 -47t-111 -17h-289zM183 117h140q32 0 57.5 14t42 37
t22.5 49q8 40 -11.5 67t-69.5 27h-139z" />
    <glyph glyph-name="uni0412" unicode="&#x412;" horiz-adv-x="696" 
d="M36 0q-10 0 -16 7t-4 18l138 650q2 11 11 18t19 7h287q78 0 128.5 -24t72 -68t8.5 -103q-8 -39 -27.5 -67t-42.5 -45.5t-43 -25.5q35 -20 56 -60.5t9 -97.5q-14 -63 -47.5 -110t-90.5 -73t-141 -26h-317zM195 117h153q47 0 79 27.5t40 65.5q9 39 -8.5 65.5t-70.5 26.5
h-154zM258 417h142q46 0 76 23.5t39 60.5q8 37 -9 59.5t-63 22.5h-149z" />
    <glyph glyph-name="uni0413" unicode="&#x413;" horiz-adv-x="553" 
d="M25 0q-11 0 -16.5 7t-3.5 18l138 650q2 11 10.5 18t19.5 7h419q11 0 17 -7t3 -18l-18 -85q-2 -10 -10.5 -17t-19.5 -7h-285l-116 -541q-2 -11 -10 -18t-19 -7h-109z" />
    <glyph glyph-name="uni0414" unicode="&#x414;" horiz-adv-x="766" 
d="M-37 -140q-10 0 -15.5 7t-3.5 18l49 232q2 11 10.5 18t19.5 7h19q24 0 45.5 23t41 65.5t37.5 103t33 135.5l44 206q2 11 10.5 18t18.5 7h450q11 0 16.5 -7t3.5 -18l-114 -533h48q11 0 16.5 -7t3.5 -18l-50 -232q-2 -10 -10.5 -17.5t-19.5 -7.5h-109q-11 0 -16.5 7.5
t-3.5 17.5l24 115h-384l-24 -115q-2 -10 -11 -17.5t-20 -7.5h-109zM232 142h237l89 416h-186l-23 -109q-25 -115 -53.5 -190t-63.5 -117z" />
    <glyph glyph-name="uni0415" unicode="&#x415;" horiz-adv-x="629" 
d="M36 0q-10 0 -16 7t-4 18l138 650q2 11 11 18t19 7h453q11 0 16.5 -7t3.5 -18l-17 -80q-2 -10 -10.5 -17t-19.5 -7h-324l-34 -157h302q11 0 16.5 -7t3.5 -18l-16 -74q-2 -10 -10.5 -17t-19.5 -7h-301l-35 -162h332q11 0 16.5 -7t3.5 -18l-17 -79q-2 -11 -10.5 -18
t-19.5 -7h-461z" />
    <glyph glyph-name="uni0416" unicode="&#x416;" horiz-adv-x="1096" 
d="M1101 700q10 0 14.5 -6.5t2.5 -14.5q-2 -6 -7 -12l-252 -304l141 -329q2 -5 0 -11q-2 -10 -10 -16.5t-17 -6.5h-118q-14 0 -20 6.5t-9 11.5l-112 265h-89l-55 -259q-2 -10 -10.5 -17t-18.5 -7h-105q-10 0 -15.5 7t-4.5 18l55 258h-67l-221 -265q-5 -5 -13 -11.5t-22 -6.5
h-134q-10 0 -15 6.5t-3 16.5q1 2 2 5.5t3 5.5l275 329l-123 304q-2 6 -1 12q2 8 8.5 14.5t16.5 6.5h114q14 0 22 -5.5t11 -13.5l101 -256h76l54 250q2 11 10.5 18t18.5 7h105q10 0 16 -7t4 -18l-54 -250h73l208 256q7 8 16.5 13.5t24.5 5.5h124z" />
    <glyph glyph-name="uni0417" unicode="&#x417;" horiz-adv-x="654" 
d="M256 -10q-72 0 -122 16t-79.5 43t-40.5 61.5t-8 68.5q2 9 9.5 15t16.5 6h108q12 0 18 -4.5t9 -14.5q5 -28 31.5 -45.5t77.5 -17.5q39 0 70 10.5t52 30.5t28 48q9 44 -19 67t-85 23h-73q-11 0 -16 7.5t-3 18.5l14 68q2 11 11 19t19 8h71q47 0 80 19.5t42 62.5
q6 24 -3.5 42.5t-32 28.5t-55.5 10q-48 0 -82 -16t-48 -48q-7 -10 -14 -14t-18 -4h-111q-9 0 -14 6t-3 15q11 36 35 70.5t62.5 61t92.5 42.5t126 16q85 0 140 -27.5t78.5 -72t11.5 -96.5q-8 -40 -33 -80t-76 -66q33 -18 49.5 -45t19.5 -58t-4 -64q-13 -63 -57.5 -110
t-114.5 -74t-160 -27z" />
    <glyph glyph-name="uni0418" unicode="&#x418;" horiz-adv-x="769" 
d="M36 0q-10 0 -16 7.5t-4 17.5l139 650q2 11 10.5 18t19.5 7h109q10 0 16 -7t4 -18l-93 -435l402 442q5 7 13.5 12.5t20.5 5.5h99q10 0 16 -7t4 -18l-139 -650q-2 -11 -10.5 -18t-18.5 -7h-109q-11 0 -17 7t-4 18l90 422l-398 -429q-4 -6 -12.5 -12t-22.5 -6h-99z" />
    <glyph glyph-name="uni0419" unicode="&#x419;" horiz-adv-x="769" 
d="M36 0q-10 0 -16 7.5t-4 17.5l139 650q2 11 10.5 18t19.5 7h109q10 0 16 -7t4 -18l-93 -435l402 442q5 7 13.5 12.5t20.5 5.5h99q10 0 16 -7t4 -18l-139 -650q-2 -11 -10.5 -18t-18.5 -7h-109q-11 0 -17 7t-4 18l90 422l-398 -429q-4 -6 -12.5 -12t-22.5 -6h-99zM481 741
q-63 0 -97 19t-44 50.5t-2 68.5q2 8 8 13.5t15 5.5h69q9 0 13 -5.5t2 -13.5q-3 -14 -0.5 -26.5t15 -20.5t38.5 -8q40 0 56.5 17t20.5 38q2 8 8 13.5t15 5.5h69q9 0 13 -5.5t2 -13.5q-8 -37 -31.5 -68.5t-65 -50.5t-104.5 -19z" />
    <glyph glyph-name="uni041A" unicode="&#x41a;" horiz-adv-x="696" 
d="M705 700q10 0 14.5 -6.5t2.5 -14.5q-1 -6 -7 -12l-252 -304l137 -329q2 -5 0 -11q-2 -10 -10 -16.5t-17 -6.5h-118q-15 0 -21 6.5t-8 11.5l-109 265h-87l-56 -258q-1 -11 -9.5 -18t-19.5 -7h-109q-11 0 -16.5 7t-3.5 18l138 650q2 11 10.5 18t19.5 7h109q11 0 16.5 -7
t3.5 -18l-53 -250h73l208 256q7 8 16.5 13.5t23.5 5.5h124z" />
    <glyph glyph-name="uni041B" unicode="&#x41b;" horiz-adv-x="741" 
d="M470 0q-10 0 -15.5 7t-4.5 18l114 533h-201l-24 -109q-25 -121 -55 -205.5t-70 -137.5t-96 -78.5t-134 -27.5q-11 0 -17 7.5t-4 18.5l20 89q3 21 28 25q30 5 55.5 28t47.5 64.5t41 101t35 135.5l44 206q2 11 10.5 18t18.5 7h465q11 0 16.5 -7t3.5 -18l-139 -650
q-1 -11 -9.5 -18t-19.5 -7h-110z" />
    <glyph glyph-name="uni041C" unicode="&#x41c;" horiz-adv-x="820" 
d="M37 0q-11 0 -17 7t-4 18l138 650q2 11 11 18t20 7h93q15 0 21 -8t8 -12l113 -339l257 339q3 4 12 12t24 8h93q11 0 16.5 -7t3.5 -18l-138 -650q-2 -11 -10.5 -18t-19.5 -7h-102q-10 0 -16 7t-4 18l85 396l-173 -230q-7 -9 -16.5 -16t-22.5 -7h-46q-14 0 -20 7t-9 16
l-80 243l-86 -409q-2 -11 -10.5 -18t-18.5 -7h-102z" />
    <glyph glyph-name="uni041D" unicode="&#x41d;" horiz-adv-x="737" 
d="M36 0q-10 0 -16 7t-4 18l138 650q2 11 11 18t19 7h109q11 0 16.5 -7t3.5 -18l-53 -250h271l54 250q2 11 10.5 18t18.5 7h109q11 0 16.5 -7t3.5 -18l-138 -650q-2 -11 -10.5 -18t-19.5 -7h-109q-10 0 -16 7t-4 18l55 258h-271l-55 -258q-2 -11 -10.5 -18t-19.5 -7h-109z
" />
    <glyph glyph-name="uni041E" unicode="&#x41e;" horiz-adv-x="703" 
d="M300 -10q-62 0 -114.5 17t-88 51t-50 85t-2.5 120q7 43 16.5 85.5t19.5 86.5q33 135 118.5 205t226.5 70q62 0 114 -17.5t88 -52.5t50.5 -86t2.5 -119q-8 -44 -17 -86.5t-20 -85.5q-34 -138 -119 -205.5t-225 -67.5zM311 119q60 0 106 35.5t64 113.5q11 44 19.5 82.5
t15.5 81.5q15 78 -12.5 113.5t-88.5 35.5t-106 -35.5t-64 -113.5q-11 -43 -19 -81.5t-16 -82.5q-14 -78 12.5 -113.5t88.5 -35.5z" />
    <glyph glyph-name="uni041F" unicode="&#x41f;" horiz-adv-x="737" 
d="M25 0q-11 0 -16.5 7t-3.5 18l138 650q2 11 10.5 18t19.5 7h539q11 0 16.5 -7t3.5 -18l-139 -650q-2 -11 -10 -18t-19 -7h-109q-11 0 -16.5 7t-3.5 18l114 533h-272l-114 -533q-2 -11 -10 -18t-19 -7h-109z" />
    <glyph glyph-name="uni0420" unicode="&#x420;" horiz-adv-x="668" 
d="M36 0q-10 0 -16 7t-4 18l138 650q2 11 11 18t19 7h261q60 0 108 -14t79.5 -42.5t43.5 -71t0 -98.5q-24 -114 -99.5 -168.5t-200.5 -54.5h-148l-48 -226q-2 -11 -10.5 -18t-19.5 -7h-114zM252 375h129q48 0 84.5 25t47.5 75q6 30 2.5 52.5t-23.5 35t-63 12.5h-134z" />
    <glyph glyph-name="uni0421" unicode="&#x421;" horiz-adv-x="692" 
d="M301 -10q-68 0 -121 17.5t-87 52.5t-47 85.5t-2 115.5q7 41 17.5 88t20.5 90q22 86 66.5 146.5t114 92.5t164.5 32q65 0 118.5 -16.5t90 -48t52 -75t5.5 -97.5q-1 -9 -7.5 -15t-15.5 -6h-116q-12 0 -18.5 6t-7.5 20q3 57 -28.5 80t-83.5 23q-62 0 -107 -34t-64 -113
q-21 -82 -36 -168q-14 -79 14 -113t89 -34q52 0 93.5 22.5t67.5 80.5q8 15 15.5 20.5t19.5 5.5h115q9 0 14.5 -6t3.5 -15q-14 -52 -42 -95.5t-70.5 -75.5t-99 -49t-128.5 -17z" />
    <glyph glyph-name="uni0422" unicode="&#x422;" horiz-adv-x="614" 
d="M188 0q-10 0 -16 7t-4 18l115 536h-182q-10 0 -16 7t-4 17l19 90q2 11 10.5 18t19.5 7h524q11 0 16.5 -7t3.5 -18l-20 -90q-2 -10 -10 -17t-19 -7h-181l-115 -536q-2 -11 -10.5 -18t-19.5 -7h-111z" />
    <glyph glyph-name="uni0423" unicode="&#x423;" horiz-adv-x="632" 
d="M63 0q-11 0 -16.5 7t-3.5 18l18 89q2 11 11 18t19 7h38q28 0 50 11.5t44 36t47 63.5l280 430q7 10 15 15t18 5h111q9 0 14.5 -6.5t3.5 -14.5q-1 -4 -3 -8.5t-5 -8.5l-297 -458q-37 -56 -68 -95t-63.5 -63t-71.5 -35t-92 -11h-49zM248 177l-160 492q-1 2 -1.5 4t0.5 5
q1 9 9 15.5t18 6.5h107q11 0 16 -5t8 -15l108 -347z" />
    <glyph glyph-name="uni0424" unicode="&#x424;" horiz-adv-x="909" 
d="M329 -32q-10 0 -15.5 7t-3.5 18l15 71q-95 0 -158.5 31.5t-91.5 90.5t-17 141q1 9 3.5 23t6 28.5t5.5 22.5q23 87 76 145.5t130.5 89t173.5 30.5l12 60q3 10 11.5 17.5t18.5 7.5h110q11 0 16.5 -7.5t2.5 -17.5l-12 -60q91 0 155.5 -32.5t94.5 -93t16 -144.5
q-3 -18 -5.5 -32t-8.5 -37q-39 -131 -135 -197t-245 -66l-15 -71q-2 -11 -10.5 -18t-19.5 -7h-110zM354 193l73 344q-74 0 -122 -33.5t-69 -106.5q-4 -16 -7 -31.5t-7 -32.5q-11 -73 23 -106.5t109 -33.5zM511 193q74 0 122.5 33.5t67.5 106.5q3 8 5.5 20t5.5 24.5t3 19.5
q8 73 -25 106.5t-107 33.5z" />
    <glyph glyph-name="uni0425" unicode="&#x425;" horiz-adv-x="676" 
d="M-25 0q-12 0 -17 11.5t4 21.5l301 328l-154 307q-6 11 1 21.5t20 10.5h109q18 0 24.5 -7.5t8.5 -12.5l102 -204l182 204q5 5 13.5 12.5t26.5 7.5h120q13 0 17.5 -11.5t-4.5 -21.5l-286 -328l155 -308q5 -10 -1.5 -20.5t-20.5 -10.5h-108q-17 0 -24 7.5t-9 11.5l-103 202
l-187 -202q-3 -4 -12 -11.5t-27 -7.5h-131z" />
    <glyph glyph-name="uni0426" unicode="&#x426;" horiz-adv-x="767" 
d="M509 -140q-11 0 -16.5 7t-3.5 18l24 115h-478q-10 0 -15.5 7.5t-3.5 17.5l139 650q2 11 10.5 18t18.5 7h109q11 0 17 -7t4 -18l-114 -533h271l114 533q2 11 10.5 18t18.5 7h109q11 0 17 -7t4 -18l-114 -533h47q11 0 17 -7t4 -18l-51 -232q-1 -11 -9.5 -18t-19.5 -7h-109z
" />
    <glyph glyph-name="uni0427" unicode="&#x427;" horiz-adv-x="696" 
d="M425 0q-10 0 -16 7t-4 18l49 225q-19 -14 -46.5 -23.5t-58 -14t-59.5 -4.5q-121 0 -170 62.5t-24 182.5l47 222q2 11 10.5 18t18.5 7h110q11 0 16.5 -7t3.5 -18l-46 -215q-11 -54 10.5 -80t86.5 -26q18 0 40 3.5t42.5 11.5t35.5 22t20 35l53 249q2 11 10.5 18t18.5 7h110
q11 0 16.5 -7t3.5 -18l-139 -650q-2 -11 -10 -18t-19 -7h-110z" />
    <glyph glyph-name="uni0428" unicode="&#x428;" horiz-adv-x="979" 
d="M36 0q-11 0 -16.5 7t-3.5 18l138 650q2 11 10.5 18t19.5 7h109q11 0 16.5 -7t3.5 -18l-114 -533h178l114 533q2 11 10.5 18t18.5 7h110q11 0 16.5 -7t3.5 -18l-114 -533h177l114 533q2 11 10.5 18t19.5 7h109q11 0 16.5 -7t3.5 -18l-139 -650q-1 -11 -9.5 -18t-19.5 -7
h-782z" />
    <glyph glyph-name="uni0429" unicode="&#x429;" horiz-adv-x="1010" 
d="M751 -140q-10 0 -16 7t-4 18l24 115h-720q-11 0 -16 7t-3 18l138 650q2 11 10.5 18t19.5 7h109q11 0 16.5 -7t3.5 -18l-114 -533h178l114 533q2 11 10.5 18t18.5 7h110q11 0 16.5 -7t3.5 -18l-114 -533h177l114 533q2 11 10.5 18t19.5 7h109q11 0 16.5 -7t3.5 -18
l-114 -533h48q11 0 16.5 -7t3.5 -18l-50 -232q-2 -11 -10.5 -18t-19.5 -7h-109z" />
    <glyph glyph-name="uni042A" unicode="&#x42a;" horiz-adv-x="760" 
d="M145 0q-10 0 -15.5 7t-4.5 18l117 546h-140q-10 0 -15.5 7t-3.5 17l17 80q2 11 10 18t19 7h274q11 0 16.5 -7t3.5 -18l-48 -224h113q84 0 136.5 -26t71.5 -75.5t4 -119.5q-14 -66 -54.5 -118.5t-104.5 -82t-149 -29.5h-247zM305 125h108q49 0 81.5 29.5t41.5 75.5
q11 50 -9.5 74.5t-69.5 24.5h-108z" />
    <glyph glyph-name="uni042B" unicode="&#x42b;" horiz-adv-x="912" 
d="M36 0q-11 0 -16.5 7t-3.5 18l138 650q2 11 10.5 18t19.5 7h109q11 0 16.5 -7t3.5 -18l-47 -224h103q84 0 136 -26t71.5 -75.5t4.5 -119.5q-14 -66 -55 -118.5t-104.5 -82t-148.5 -29.5h-237zM196 125h98q48 0 80.5 29.5t42.5 75.5q10 50 -10.5 74.5t-68.5 24.5h-98z
M638 0q-11 0 -16.5 7t-3.5 18l139 650q2 11 10 18t19 7h113q11 0 16.5 -7t3.5 -18l-139 -650q-2 -11 -10 -18t-19 -7h-113z" />
    <glyph glyph-name="uni042C" unicode="&#x42c;" horiz-adv-x="655" 
d="M36 0q-11 0 -16.5 7t-3.5 18l138 650q2 11 10.5 18t19.5 7h109q11 0 16.5 -7t3.5 -18l-47 -224h117q85 0 137 -26t71 -75.5t4 -119.5q-14 -66 -54.5 -118.5t-104.5 -82t-148 -29.5h-252zM196 125h112q49 0 81.5 29.5t41.5 75.5q11 50 -9.5 74.5t-69.5 24.5h-112z" />
    <glyph glyph-name="uni042D" unicode="&#x42d;" horiz-adv-x="678" 
d="M253 -10q-77 0 -134.5 22.5t-87 64.5t-24.5 102q2 9 9.5 15t16.5 6h111q11 0 15.5 -4t8.5 -14q5 -28 30.5 -46t79.5 -18q64 0 108.5 40.5t60.5 113.5l3 18h-207q-10 0 -15.5 7.5t-3.5 18.5l15 68q2 11 10.5 18.5t19.5 7.5h207l3 17q17 79 -10.5 116.5t-92.5 37.5
q-53 0 -87 -19t-47 -45q-7 -10 -13.5 -14t-18.5 -4h-111q-9 0 -14 6t-3 15q21 62 68.5 104.5t114 64t142.5 21.5q85 0 144.5 -30.5t84 -93.5t6.5 -164q-5 -29 -9.5 -50.5l-9 -43t-11.5 -50.5q-25 -102 -76.5 -165.5t-123.5 -93t-159 -29.5z" />
    <glyph glyph-name="uni042E" unicode="&#x42e;" horiz-adv-x="1014" 
d="M586 -10q-72 0 -122 18.5t-79.5 53t-39.5 83t-2 107.5q1 8 2.5 16t2.5 15h-129l-56 -258q-1 -11 -9.5 -18t-19.5 -7h-109q-11 0 -16.5 7t-3.5 18l138 650q2 11 10.5 18t19.5 7h109q11 0 16.5 -7t3.5 -18l-53 -250h130q2 6 3.5 13.5t4.5 14.5q22 75 69 132.5t118.5 91
t165.5 33.5q74 0 124.5 -20t80 -57t38 -87.5t-1.5 -110.5q-8 -44 -17 -86.5t-20 -85.5q-20 -82 -67.5 -143.5t-120 -95.5t-170.5 -34zM614 119q59 0 103.5 34t63.5 113q11 44 19.5 84.5t16.5 83.5q9 52 -1.5 84.5t-37.5 47.5t-66 15q-38 0 -71.5 -15t-58 -47.5t-37.5 -84.5
q-10 -43 -19 -83.5t-17 -84.5q-9 -52 1.5 -84.5t37.5 -47.5t66 -15z" />
    <glyph glyph-name="uni042F" unicode="&#x42f;" horiz-adv-x="689" 
d="M419 0q-11 0 -16.5 7t-4.5 18l47 222h-125q-77 0 -128 29t-72 79.5t-7 115.5q14 67 54.5 118.5t105 81t152.5 29.5h251q10 0 16 -7t4 -18l-139 -650q-2 -11 -10.5 -18t-18.5 -7h-109zM19 0q-9 0 -13.5 6.5t-3.5 14.5q2 6 5 11l215 264l147 -25l-191 -244
q-6 -10 -17 -18.5t-28 -8.5h-114zM360 373h112l44 202h-117q-48 0 -80.5 -29t-42.5 -75q-9 -47 12.5 -72.5t71.5 -25.5z" />
    <glyph glyph-name="uni0430" unicode="&#x430;" horiz-adv-x="616" 
d="M197 -10q-50 0 -86.5 16.5t-57.5 48t-27.5 75t2.5 96.5q3 19 6.5 34.5t7.5 33.5q13 52 35 95t54 74.5t74.5 49t95.5 17.5q62 0 94 -18.5t50 -45.5l6 29q2 11 10.5 18t18.5 7h95q11 0 16.5 -7t3.5 -18l-100 -470q-2 -11 -10 -18t-19 -7h-95q-11 0 -16.5 7t-3.5 18l7 34
q-30 -30 -66 -49.5t-95 -19.5zM254 110q38 0 64.5 17t43 43t24.5 56q5 19 9 38t7 37q5 28 0 52.5t-23.5 40.5t-54.5 16q-35 0 -60 -16.5t-41 -43.5t-25 -59q-4 -15 -8 -31t-6 -31q-4 -32 -1.5 -59t19.5 -43.5t52 -16.5z" />
    <glyph glyph-name="uni0431" unicode="&#x431;" horiz-adv-x="609" 
d="M243 -10q-87 0 -136.5 29t-64.5 87.5t0 145.5q5 29 12 60t13 60q20 84 48.5 142t69.5 98t96.5 67t128 46t165.5 37q10 2 17.5 -3t6.5 -16l-2 -78q0 -11 -6.5 -19t-17.5 -10q-75 -14 -131 -27.5t-95.5 -32t-66 -46t-44 -69.5t-29.5 -103l-19 23q14 30 42.5 53.5t66 37
t79.5 13.5q70 0 114.5 -25t62.5 -73t7 -115q-2 -17 -6.5 -35.5t-8.5 -33.5q-17 -64 -57 -112.5t-101.5 -74.5t-143.5 -26zM264 91q49 0 80.5 29.5t46.5 87.5q3 11 7 28.5t6 31.5q10 56 -6 86t-59 30q-54 0 -89 -30t-49 -86q-4 -14 -7.5 -31.5t-5.5 -28.5q-10 -58 9 -87.5
t67 -29.5z" />
    <glyph glyph-name="uni0432" unicode="&#x432;" horiz-adv-x="594" 
d="M32 0q-10 0 -15.5 7t-4.5 18l101 470q2 11 10.5 18t18.5 7h228q109 0 152.5 -39.5t29.5 -106.5q-8 -39 -29 -64.5t-51 -42.5q23 -10 36.5 -27.5t18 -39.5t-1.5 -48q-15 -71 -78.5 -111.5t-173.5 -40.5h-241zM173 98h121q36 0 60 13.5t31 42.5q6 30 -11 43t-56 13h-122z
M218 312h108q34 0 56.5 15t28.5 43q6 29 -11.5 40.5t-50.5 11.5h-108z" />
    <glyph glyph-name="uni0433" unicode="&#x433;" horiz-adv-x="452" 
d="M32 0q-10 0 -16 7t-4 18l101 470q2 11 10.5 18t18.5 7h325q11 0 16.5 -7t3.5 -18l-15 -68q-2 -11 -10.5 -18t-19.5 -7h-200l-81 -377q-2 -11 -10 -18t-19 -7h-100z" />
    <glyph glyph-name="uni0434" unicode="&#x434;" horiz-adv-x="610" 
d="M242 -10q-79 0 -131 27.5t-74.5 78.5t-11.5 119q2 12 3.5 20.5t4 17.5t5.5 22q18 68 54.5 117.5t93.5 76.5t135 27q43 0 78 -14.5t60 -41.5q11 66 -3.5 109t-57.5 65.5t-121 25.5q-11 0 -18 7t-7 17v61q0 10 7 17.5t18 8.5q131 -2 202 -49.5t91.5 -137.5t-3.5 -222
q-3 -29 -10.5 -60.5t-17.5 -66.5q-18 -68 -55.5 -119t-97 -78.5t-144.5 -27.5zM254 100q49 0 82 30.5t49 89.5q4 13 7 25t5 25q7 35 0.5 61t-25 40.5t-48.5 14.5q-53 0 -84 -30t-48 -86q-4 -13 -6.5 -25t-4.5 -25q-9 -59 7 -89.5t66 -30.5z" />
    <glyph glyph-name="uni0435" unicode="&#x435;" horiz-adv-x="583" 
d="M244 -10q-76 0 -126.5 28.5t-69.5 84.5t-5 137q2 8 4.5 21.5t5.5 21.5q20 77 62.5 132.5t105 85t137.5 29.5q84 0 132.5 -34.5t64.5 -94t0 -136.5l-4 -23q-2 -10 -11 -17t-20 -7h-326q0 -1 -0.5 -3.5t-1.5 -4.5q-5 -32 0 -58.5t23.5 -42.5t48.5 -16q24 0 42 7t30.5 17
t19.5 17q11 10 17 12.5t18 2.5h104q10 0 15 -5.5t2 -15.5q-4 -16 -24.5 -39.5t-55.5 -46t-82.5 -37.5t-105.5 -15zM214 309h196v2q9 36 2.5 62.5t-25.5 41.5t-50 15t-56 -15t-41.5 -41.5t-25.5 -62.5v-2z" />
    <glyph glyph-name="uni0436" unicode="&#x436;" horiz-adv-x="895" 
d="M-3 0q-10 0 -14.5 5.5t-3.5 13.5q1 4 2.5 7t4.5 6l220 245l-91 210q-2 3 -2.5 7t0.5 7q2 8 9 13.5t16 5.5h98q12 0 17 -5t8 -11l77 -181h54l38 172q2 11 10 18t19 7h98q10 0 16 -7t4 -18l-37 -172h51l152 181q5 6 12 11t19 5h112q10 0 15 -5.5t3 -13.5q0 -7 -7 -14
l-195 -226l109 -229q2 -3 2.5 -6t-0.5 -7q-1 -8 -8.5 -13.5t-16.5 -5.5h-106q-12 0 -17.5 5.5t-8.5 10.5l-85 189h-56l-39 -180q-2 -11 -10.5 -18t-18.5 -7h-98q-11 0 -16.5 7t-3.5 18l39 180h-51l-166 -189q-3 -5 -11 -10.5t-21 -5.5h-122z" />
    <glyph glyph-name="uni0437" unicode="&#x437;" horiz-adv-x="562" 
d="M225 -10q-67 0 -109 15t-64 38.5t-29 49.5t-5 47q0 8 7.5 13.5t14.5 5.5h98q11 0 15.5 -4.5t6.5 -12.5q4 -25 26 -35.5t60 -10.5t65.5 15t33.5 47q6 29 -7.5 44.5t-53.5 15.5h-55q-10 0 -14.5 6.5t-3.5 15.5l11 49q2 9 9.5 15.5t16.5 6.5h52q34 0 53 12.5t24 38.5
q3 16 0 30t-17 22.5t-44 8.5q-42 0 -65.5 -13t-38.5 -39q-6 -8 -12.5 -12t-17.5 -4h-95q-8 0 -12 5t-2 13q7 27 25.5 54.5t50.5 51t77.5 37.5t107.5 14t101.5 -12t61.5 -33.5t28.5 -47.5t0.5 -55q-8 -35 -30.5 -63.5t-62.5 -46.5q28 -9 43 -29t18.5 -45.5t-3.5 -55.5
q-8 -44 -44 -78.5t-93 -54t-129 -19.5z" />
    <glyph glyph-name="uni0438" unicode="&#x438;" horiz-adv-x="631" 
d="M199 -10q-62 0 -103 26.5t-56 77t1 122.5l59 279q2 11 10.5 18t19.5 7h106q10 0 15.5 -7t3.5 -18l-58 -273q-8 -37 -5 -62t21 -37.5t53 -12.5q48 0 84 29.5t47 82.5l58 273q2 11 11 18t19 7h106q11 0 16 -7t3 -18l-100 -470q-2 -11 -10 -18t-19 -7h-98q-11 0 -16.5 7
t-3.5 18l8 39q-22 -23 -45.5 -40t-53 -25.5t-73.5 -8.5z" />
    <glyph glyph-name="uni0439" unicode="&#x439;" horiz-adv-x="631" 
d="M199 -10q-62 0 -103 26.5t-56 77t1 122.5l59 279q2 11 10.5 18t19.5 7h106q10 0 15.5 -7t3.5 -18l-58 -273q-8 -37 -5 -62t21 -37.5t53 -12.5q48 0 84 29.5t47 82.5l58 273q2 11 11 18t19 7h106q11 0 16 -7t3 -18l-100 -470q-2 -11 -10 -18t-19 -7h-98q-11 0 -16.5 7
t-3.5 18l8 39q-22 -23 -45.5 -40t-53 -25.5t-73.5 -8.5zM364 588q-60 0 -93 19t-44 50.5t-3 69.5q2 8 7.5 13.5t15.5 5.5h68q9 0 13 -5.5t2 -13.5q-3 -14 -1.5 -27t12 -21t35.5 -8q38 0 57 17t23 39q2 8 8 13.5t15 5.5h68q9 0 13 -5.5t2 -13.5q-8 -38 -31 -69.5t-64.5 -50.5
t-102.5 -19z" />
    <glyph glyph-name="uni043A" unicode="&#x43a;" horiz-adv-x="583" 
d="M32 0q-10 0 -16 7t-4 18l101 470q2 11 10.5 18t18.5 7h98q11 0 16.5 -7t3.5 -18l-37 -172h56l153 181q5 6 12 11t18 5h113q9 0 14 -5.5t4 -13.5q-1 -6 -8 -14l-194 -226l109 -229q2 -3 2.5 -6t-0.5 -7q-1 -8 -8.5 -13.5t-17.5 -5.5h-106q-10 0 -16 4.5t-9 11.5l-85 188
h-62l-39 -179q-2 -11 -10 -18t-19 -7h-98z" />
    <glyph glyph-name="uni043B" unicode="&#x43b;" horiz-adv-x="616" 
d="M-2 0q-11 0 -16.5 7.5t-3.5 17.5l15 75q6 22 29 24q30 3 52 27.5t40 75.5t34 131l30 137q2 11 10.5 18t19.5 7h373q10 0 16 -7t4 -18l-101 -470q-2 -11 -10.5 -18t-18.5 -7h-100q-11 0 -16.5 7t-3.5 18l80 377h-130l-13 -61q-21 -95 -45.5 -161t-57.5 -105.5t-79 -57
t-108 -17.5z" />
    <glyph glyph-name="uni043C" unicode="&#x43c;" horiz-adv-x="713" 
d="M29 0q-9 0 -13.5 6t-3.5 15l102 479q2 8 9 14t15 6h93q18 0 24 -18l119 -331l-64 10l237 321q13 18 31 18h104q8 0 13 -6t3 -14l-102 -479q-1 -9 -8.5 -15t-16.5 -6h-105q-10 0 -14 6t-3 15l74 345l42 1l-195 -265q-7 -9 -15 -16t-21 -7h-27q-12 0 -17.5 6.5t-8.5 16.5
l-86 257l35 -2l-72 -336q-1 -9 -8.5 -15t-16.5 -6h-104z" />
    <glyph glyph-name="uni043D" unicode="&#x43d;" horiz-adv-x="630" 
d="M32 0q-10 0 -16 7t-4 18l101 470q2 11 10.5 18t18.5 7h100q11 0 16.5 -7t3.5 -18l-37 -172h203l38 172q2 11 10 18t19 7h100q10 0 16 -7t4 -18l-101 -470q-2 -11 -10.5 -18t-18.5 -7h-100q-11 0 -16.5 7t-3.5 18l38 180h-203l-39 -180q-2 -11 -10 -18t-19 -7h-100z" />
    <glyph glyph-name="uni043E" unicode="&#x43e;" horiz-adv-x="600" 
d="M242 -10q-78 0 -130.5 27.5t-74.5 78.5t-11 119q2 20 7.5 45.5t11.5 44.5q18 69 56 119.5t98 78t142 27.5q77 0 129.5 -27.5t76 -78t11.5 -119.5q-3 -19 -8.5 -44.5t-10.5 -45.5q-18 -68 -55 -119t-97 -78.5t-145 -27.5zM254 100q50 0 83 30.5t48 89.5q4 15 9.5 40
t7.5 40q10 58 -7 89t-66 31t-82 -31t-48 -89q-4 -15 -9.5 -40t-7.5 -40q-10 -59 6.5 -89.5t65.5 -30.5z" />
    <glyph glyph-name="uni043F" unicode="&#x43f;" horiz-adv-x="621" 
d="M32 0q-10 0 -15.5 7t-4.5 18l101 470q2 11 10.5 18t18.5 7h443q10 0 16 -7t4 -18l-101 -470q-2 -11 -10.5 -18t-18.5 -7h-100q-11 0 -16.5 7t-3.5 18l80 377h-193l-81 -377q-1 -11 -9.5 -18t-19.5 -7h-100z" />
    <glyph glyph-name="uni0440" unicode="&#x440;" horiz-adv-x="622" 
d="M11 -190q-11 0 -16 7t-3 18l141 660q2 11 10 18t19 7h95q11 0 16.5 -7t3.5 -18l-8 -38q30 32 73 52.5t100 20.5q52 0 87 -16.5t55 -47t25 -73.5t-4 -97q-3 -19 -7 -36t-8 -37q-17 -68 -53 -120.5t-89 -82.5t-121 -30q-51 0 -85 18.5t-50 50.5l-48 -224q-2 -11 -11 -18
t-19 -7h-103zM307 110q39 0 63.5 16.5t40.5 43.5t24 59q5 15 8.5 31t5.5 31q4 32 0 59t-22 43.5t-56 16.5q-37 0 -63.5 -17t-42.5 -43t-23 -56q-5 -18 -9.5 -37t-7.5 -38q-4 -28 1.5 -52.5t25.5 -40.5t55 -16z" />
    <glyph glyph-name="uni0441" unicode="&#x441;" horiz-adv-x="579" 
d="M236 -10q-68 0 -120.5 27t-77 78.5t-12.5 123.5q3 16 8 40.5t9 40.5q27 109 102.5 169.5t189.5 60.5q65 0 109 -19t70 -47.5t35.5 -59t6.5 -53.5q-1 -11 -9 -18t-18 -7h-109q-10 0 -15.5 5t-7.5 16q-1 35 -19.5 51t-53.5 16q-45 0 -78.5 -29t-48.5 -90q-5 -19 -9 -37.5
t-6 -33.5q-10 -62 7.5 -90t62.5 -28q35 0 62 15t46 50q6 11 12.5 16t17.5 5h108q11 0 16.5 -7.5t2.5 -17.5q-6 -21 -24.5 -51t-52 -59t-84 -48t-120.5 -19z" />
    <glyph glyph-name="uni0442" unicode="&#x442;" horiz-adv-x="539" 
d="M166 0q-11 0 -16.5 7t-4.5 18l81 377h-157q-11 0 -16 7t-3 18l15 68q2 11 10 18t19 7h461q11 0 16.5 -7t3.5 -18l-14 -68q-2 -11 -11 -18t-19 -7h-158l-80 -377q-2 -11 -10.5 -18t-18.5 -7h-98z" />
    <glyph glyph-name="uni0443" unicode="&#x443;" horiz-adv-x="585" 
d="M1 -191q-10 0 -15.5 7.5t-3.5 17.5l15 69q2 10 10.5 17t19.5 7h32q20 0 34 7.5t27.5 24.5t32.5 47l309 494q6 9 13 14.5t20 5.5h94q9 0 13.5 -5.5t3.5 -13.5q0 -7 -6 -16l-290 -456q-30 -46 -58.5 -86t-59.5 -70t-66 -47t-78 -17h-47zM168 12l-103 473q-3 14 2 21
q3 6 9.5 10t14.5 4h91q12 0 17 -6.5t6 -13.5l74 -374z" />
    <glyph glyph-name="uni0444" unicode="&#x444;" horiz-adv-x="773" 
d="M232 -190q-10 0 -15.5 7t-3.5 18l36 165q-86 0 -138.5 28t-72.5 78t-11 114q3 19 7 40t10 40q18 67 59 116.5t105.5 76.5t150.5 27l35 165q2 11 11 18t19 7h100q11 0 16 -7t3 -18l-35 -165q83 0 135 -28t74 -77.5t13 -114.5q-3 -19 -7.5 -40t-9.5 -40
q-18 -67 -58.5 -116.5t-104 -76.5t-152.5 -27l-36 -165q-2 -11 -10.5 -18t-19.5 -7h-100zM273 110l63 300q-63 0 -99 -30t-52 -90q-4 -14 -7.5 -30.5t-5.5 -29.5q-9 -61 14.5 -90.5t86.5 -29.5zM420 110q64 0 99.5 30t52.5 90q4 13 7 29.5t6 30.5q10 61 -14.5 90.5
t-87.5 29.5z" />
    <glyph glyph-name="uni0445" unicode="&#x445;" horiz-adv-x="575" 
d="M-20 0q-15 0 -19 13t5 23l222 235l-110 215q-5 11 2 22.5t20 11.5h100q12 0 17.5 -6t8.5 -11l74 -139l134 139q5 5 12.5 11t22.5 6h106q14 0 18.5 -13t-5.5 -23l-213 -226l113 -224q6 -11 0.5 -22.5t-21.5 -11.5h-102q-12 0 -17.5 5.5t-8.5 10.5l-77 145l-140 -145
q-4 -4 -11 -10t-22 -6h-109z" />
    <glyph glyph-name="uni0446" unicode="&#x446;" horiz-adv-x="666" 
d="M430 -120q-10 0 -15.5 7t-3.5 18l20 95h-386q-11 0 -16.5 7t-3.5 18l100 470q2 11 11 18t19 7h100q11 0 16 -7t3 -18l-80 -377h194l80 377q2 11 10.5 18t19.5 7h100q10 0 15.5 -7t3.5 -18l-80 -377h44q11 0 16 -7t3 -18l-40 -188q-2 -11 -10.5 -18t-19.5 -7h-100z" />
    <glyph glyph-name="uni0447" unicode="&#x447;" horiz-adv-x="596" 
d="M342 0q-11 0 -16.5 7t-3.5 18l35 161q-28 -20 -66 -30t-83 -10q-89 0 -131 47.5t-21 144.5l34 157q2 11 10.5 18t18.5 7h104q10 0 16 -7t4 -18l-31 -145q-9 -41 6 -57.5t56 -16.5q45 0 76 12.5t37 40.5l36 166q2 11 10 18t19 7h108q11 0 16.5 -7t3.5 -18l-101 -470
q-2 -11 -10 -18t-19 -7h-108z" />
    <glyph glyph-name="uni0448" unicode="&#x448;" horiz-adv-x="819" 
d="M32 0q-10 0 -15.5 7t-4.5 18l101 470q2 11 10.5 18t18.5 7h95q11 0 16.5 -7t3.5 -18l-81 -377h133l81 377q2 11 10.5 18t18.5 7h87q11 0 16.5 -7t3.5 -18l-80 -377h133l81 377q2 11 10 18t19 7h95q10 0 16 -7t4 -18l-101 -470q-2 -11 -10.5 -18t-18.5 -7h-642z" />
    </font>
</defs>
</svg>
