<?xml version="1.0" standalone="no"?>
<!DOCTYPE svg PUBLIC "-//W3C//DTD SVG 1.1//EN" "http://www.w3.org/Graphics/SVG/1.1/DTD/svg11.dtd" >
<svg xmlns="http://www.w3.org/2000/svg" xmlns:xlink="http://www.w3.org/1999/xlink" version="1.1">
<metadata>
Created by FontForge 20170731 at Fri Nov 25 13:17:56 2022
 By Aleksey,,,
Copyright 2015 The Rubik Project Authors (https://github.com/googlefonts/rubik)
</metadata>
<defs>
<font id="Rubik-BoldItalic" horiz-adv-x="0" >
  <font-face 
    font-family="Rubik"
    font-weight="700"
    font-style="italic"
    font-stretch="normal"
    units-per-em="1000"
    panose-1="0 0 0 0 0 0 0 0 0 0"
    ascent="800"
    descent="-200"
    x-height="520"
    cap-height="700"
    bbox="-333.571 -291 1194.9 924"
    underline-thickness="50"
    underline-position="-125"
    slope="-12"
    unicode-range="U+0020-FB4B"
  />
<missing-glyph horiz-adv-x="696" 
d="M23 -117q-21 0 -18 22l190 891q3 22 26 22h491q21 0 18 -22l-190 -891q-3 -22 -26 -22h-491zM114 -59h373l162 762zM85 -9l540 769h-377z" />
    <glyph glyph-name="fi" unicode="fi" horiz-adv-x="676" 
d="M80 0q-10 0 -16 7.5t-4 17.5l77 364h-76q-11 0 -16.5 7t-3.5 18l17 81q2 11 11 18t20 7h76l7 32q15 68 48 109.5t82.5 60t113.5 18.5h271q10 0 15.5 -7t3.5 -18l-17 -81q-2 -11 -11 -18t-19 -7h-246q-33 0 -51.5 -16t-24.5 -46l-6 -27h309q10 0 15.5 -7t3.5 -18
l-100 -470q-2 -10 -10.5 -17.5t-18.5 -7.5h-116q-11 0 -17 7.5t-4 17.5l77 364h-167l-77 -364q-2 -10 -10.5 -17.5t-19.5 -7.5h-116z" />
    <glyph glyph-name="fl" unicode="fl" horiz-adv-x="706" 
d="M80 0q-10 0 -16 7.5t-4 17.5l77 364h-75q-11 0 -17 7t-3 18l16 81q2 11 11.5 18t19.5 7h76l7 32q15 68 48 109.5t82.5 60t113.5 18.5h80q11 0 16.5 -7t3.5 -18l-18 -81q-2 -11 -10.5 -18t-19.5 -7h-55q-33 0 -51.5 -16t-24.5 -46l-6 -27h197l42 195q2 11 10.5 18t18.5 7
h116q11 0 17 -7t4 -18l-147 -690q-2 -10 -10.5 -17.5t-19.5 -7.5h-116q-10 0 -16 7.5t-4 17.5l77 364h-197l-77 -364q-2 -10 -10.5 -17.5t-19.5 -7.5h-116z" />
    <glyph glyph-name="f_f" unicode="ff" horiz-adv-x="804" 
d="M694 520h121q11 0 16.5 -7t3.5 -18l-17 -81q-2 -11 -11 -18t-20 -7h-120l-78 -364q-2 -10 -10.5 -17.5t-19.5 -7.5h-116q-10 0 -16 7.5t-4 17.5l78 364h-198l-77 -364q-2 -10 -10.5 -17.5t-19.5 -7.5h-116q-10 0 -16 7.5t-4 17.5l77 364h-76q-11 0 -16.5 7t-3.5 18l17 81
q2 11 11 18t20 7h76l7 32q15 68 48 109.5t82.5 60t113.5 18.5h93q10 0 15.5 -7t3.5 -18l-17 -81q-2 -11 -11 -18t-19 -7h-68q-33 0 -51.5 -16t-24.5 -46l-6 -27h197l7 32q15 68 48 109.5t82.5 60t114.5 18.5h92q11 0 16.5 -7t3.5 -18l-18 -81q-2 -11 -10.5 -18t-19.5 -7h-67
q-34 0 -52.5 -16t-24.5 -46z" />
    <glyph glyph-name="f_f_i" unicode="ffi" horiz-adv-x="1039" 
d="M80 0q-10 0 -16 7.5t-4 17.5l77 364h-76q-11 0 -16.5 7t-3.5 18l17 81q2 11 11 18t20 7h76l7 32q15 68 48 109.5t82.5 60t113.5 18.5h93q10 0 15.5 -7t3.5 -18l-17 -81q-2 -11 -11 -18t-19 -7h-68q-33 0 -51.5 -16t-24.5 -46l-6 -27h197l7 32q15 68 48 109.5t82.5 60
t114.5 18.5h270q10 0 15.5 -7t3.5 -18l-17 -81q-2 -11 -11 -18t-19 -7h-245q-34 0 -52.5 -16t-24.5 -46l-6 -27h309q10 0 15.5 -7t3.5 -18l-99 -470q-2 -10 -11 -17.5t-19 -7.5h-116q-11 0 -16.5 7.5t-3.5 17.5l76 364h-166l-78 -364q-2 -10 -10.5 -17.5t-19.5 -7.5h-116
q-10 0 -16 7.5t-4 17.5l78 364h-198l-77 -364q-2 -10 -10.5 -17.5t-19.5 -7.5h-116z" />
    <glyph glyph-name="f_f_l" unicode="ffl" horiz-adv-x="1069" 
d="M80 0q-10 0 -16 7.5t-4 17.5l77 364h-76q-11 0 -16.5 7t-3.5 18l17 81q2 11 11 18t20 7h76l7 32q15 68 48 109.5t82.5 60t113.5 18.5h93q10 0 15.5 -7t3.5 -18l-17 -81q-2 -11 -11 -18t-19 -7h-68q-33 0 -51.5 -16t-24.5 -46l-6 -27h197l7 32q15 68 48 109.5t82.5 60
t114.5 18.5h80q10 0 15.5 -7t3.5 -18l-17 -81q-2 -11 -11 -18t-19 -7h-55q-34 0 -52.5 -16t-24.5 -46l-6 -27h198l41 195q2 11 10.5 18t19.5 7h115q11 0 17 -7t4 -18l-147 -690q-2 -10 -10.5 -17.5t-19.5 -7.5h-115q-11 0 -17 7.5t-4 17.5l77 364h-196l-78 -364
q-2 -10 -10.5 -17.5t-19.5 -7.5h-116q-10 0 -16 7.5t-4 17.5l78 364h-198l-77 -364q-2 -10 -10.5 -17.5t-19.5 -7.5h-116z" />
    <glyph glyph-name=".notdef" horiz-adv-x="696" 
d="M23 -117q-21 0 -18 22l190 891q3 22 26 22h491q21 0 18 -22l-190 -891q-3 -22 -26 -22h-491zM114 -59h373l162 762zM85 -9l540 769h-377z" />
    <glyph glyph-name=".null" 
 />
    <glyph glyph-name="nonmarkingreturn" horiz-adv-x="333" 
 />
    <glyph glyph-name="space" unicode=" " horiz-adv-x="217" 
 />
    <glyph glyph-name="exclam" unicode="!" horiz-adv-x="291" 
d="M72 221q-11 0 -16.5 7.5t-3.5 17.5l92 429q2 11 10.5 18t19.5 7h115q10 0 16 -7t4 -18l-91 -429q-2 -10 -11 -17.5t-20 -7.5h-115zM21 0q-10 0 -16 7.5t-4 17.5l26 123q2 11 11 18.5t20 7.5h123q10 0 16 -7.5t4 -18.5l-26 -123q-2 -10 -11 -17.5t-20 -7.5h-123z" />
    <glyph glyph-name="quotedbl" unicode="&#x22;" horiz-adv-x="451" 
d="M121 446q-15 0 -19 8t-3 19l21 207q2 14 10 22t20 8h112q12 0 17 -8t1 -22l-66 -207q-4 -11 -11.5 -19t-23.5 -8h-58zM330 446q-15 0 -19 8t-3 19l21 207q2 14 10 22t20 8h112q12 0 17.5 -8t0.5 -22l-66 -207q-3 -11 -11 -19t-24 -8h-58z" />
    <glyph glyph-name="numbersign" unicode="#" horiz-adv-x="686" 
d="M106 39q-9 0 -14.5 6.5t-2.5 15.5l35 96h-71q-10 0 -15.5 7t-3.5 17l17 79q2 10 10.5 16.5t18.5 6.5h90l46 128h-83q-10 0 -15.5 7t-3.5 17l17 79q2 10 10.5 16.5t18.5 6.5h102l35 97q3 8 10 14.5t17 6.5h80q9 0 14 -6.5t3 -15.5l-35 -96h103l35 97q3 8 10 14.5t17 6.5
h80q9 0 14 -6.5t3 -15.5l-35 -96h70q11 0 16 -6.5t3 -16.5l-17 -79q-2 -10 -10 -17t-19 -7h-89l-46 -128h82q11 0 16 -6.5t3 -16.5l-17 -79q-2 -10 -10 -17t-19 -7h-101l-34 -97q-4 -9 -11 -15t-17 -6h-80q-9 0 -14 6.5t-3 15.5l35 96h-103l-34 -97q-4 -9 -11 -15t-17 -6
h-80zM294 283h103l46 128h-103z" />
    <glyph glyph-name="dollar" unicode="$" horiz-adv-x="670" 
d="M211 -100q-10 0 -15.5 7.5t-3.5 17.5l14 71q-72 10 -118.5 39t-66 70t-12.5 86q2 8 9.5 14.5t16.5 6.5h126q14 0 20 -5t12 -13q4 -15 16 -29t33.5 -22.5t54.5 -8.5q58 0 92.5 18t40.5 49q6 23 -7.5 37t-46.5 25.5t-90 23.5q-73 16 -120 44.5t-65.5 73t-5.5 106.5
q17 81 81.5 133t167.5 63l16 68q2 11 11 18t20 7h83q10 0 15.5 -7t3.5 -18l-16 -74q63 -13 106 -44t62.5 -69t12.5 -73q-1 -8 -8.5 -14.5t-16.5 -6.5h-133q-10 0 -17.5 4t-12.5 13q0 22 -23 38.5t-60 16.5q-44 0 -73 -15.5t-36 -47.5q-4 -20 6.5 -35t39.5 -26t82 -23
q87 -17 137.5 -45.5t67.5 -71.5t4 -105q-19 -92 -89.5 -143.5t-187.5 -60.5l-13 -68q-2 -10 -11 -17.5t-20 -7.5h-83z" />
    <glyph glyph-name="percent" unicode="%" horiz-adv-x="838" 
d="M62 0q-15 0 -18.5 10.5t5.5 20.5l632 650q9 9 17 14t22 5h77q14 0 18.5 -10.5t-6.5 -20.5l-631 -650q-9 -9 -17 -14t-22 -5h-77zM591 -5q-41 0 -73.5 17t-48.5 47.5t-11 70.5q3 26 8 46l12 48q17 60 57.5 95.5t115.5 35.5q44 0 76 -17.5t48 -48t9 -70.5q-4 -28 -8 -48
t-12 -46q-16 -60 -58.5 -95t-114.5 -35zM599 83q25 0 39.5 15.5t19.5 34.5q7 23 11 42t6 41q3 13 1 24t-9.5 18.5t-24.5 7.5q-26 0 -40 -15.5t-19 -34.5q-6 -22 -10 -41t-7 -42q-2 -12 0 -23.5t10 -19t23 -7.5zM209 345q-41 0 -73 17t-48.5 47.5t-11.5 70.5q4 26 9 46l12 48
q16 61 56.5 96t115.5 35q44 0 76.5 -17t48 -47.5t9.5 -71.5q-4 -28 -8.5 -48t-11.5 -46q-17 -60 -59 -95t-115 -35zM217 434q25 0 39.5 15t20.5 34q6 23 10 42t7 41q3 13 1 24.5t-9.5 18.5t-24.5 7q-26 0 -40 -15.5t-20 -34.5q-6 -22 -10 -41t-7 -42q-1 -12 0.5 -23.5
t9.5 -18.5t23 -7z" />
    <glyph glyph-name="ampersand" unicode="&#x26;" horiz-adv-x="742" 
d="M249 -10q-78 0 -130.5 24.5t-74 70.5t-7.5 110q9 43 33 77t60.5 62t81.5 51q-30 42 -38.5 77.5t-0.5 71.5q10 47 42.5 86.5t86.5 64.5t125 25q67 0 108 -24t57.5 -63.5t6.5 -85.5q-9 -40 -33 -72t-61.5 -58.5t-83.5 -50.5l93 -119q10 13 31.5 41t44.5 74q6 14 24 14h101
q9 0 13 -5.5t2 -13.5q-4 -19 -18.5 -44.5t-35.5 -54t-44.5 -54.5t-44.5 -48l87 -113q6 -7 4 -15q-1 -8 -7.5 -13t-15.5 -5h-136q-10 0 -15.5 3.5t-8.5 6.5l-35 43q-48 -33 -100 -48t-111 -15zM276 117q30 0 57.5 9t53.5 28l-105 133q-30 -14 -54 -35.5t-30 -49.5
q-5 -27 4.5 -46t29.5 -29t44 -10zM356 448q25 12 45.5 24t34.5 27t18 33q5 27 -9.5 43.5t-42.5 16.5q-25 0 -48.5 -16t-29.5 -45q-3 -17 3.5 -36.5t28.5 -46.5z" />
    <glyph glyph-name="quotesingle" unicode="'" horiz-adv-x="241" 
d="M121 446q-15 0 -19 8t-3 19l21 207q2 14 10 22t20 8h112q12 0 17 -8t1 -22l-67 -208q-3 -11 -10 -18.5t-23 -7.5h-59z" />
    <glyph glyph-name="parenleft" unicode="(" horiz-adv-x="383" 
d="M239 -159q-45 0 -84 16.5t-68.5 52t-46.5 90.5t-17 132t21 177q27 125 61.5 214t80.5 145t107.5 82t143.5 26q10 0 16.5 -7.5t4.5 -17.5l-18 -85q-2 -10 -11.5 -17t-18.5 -8q-41 -2 -73.5 -25t-57 -65t-44 -103t-37.5 -139q-16 -78 -22.5 -139t0.5 -103.5t29.5 -65.5
t62.5 -25q10 -1 15.5 -8t3.5 -17l-18 -85q-2 -10 -11 -17.5t-19 -7.5z" />
    <glyph glyph-name="parenright" unicode=")" horiz-adv-x="383" 
d="M-49 -159q-10 0 -16 7.5t-5 17.5l18 85q3 10 12 17t18 8q41 2 73.5 25t57.5 65.5t44.5 103t36.5 139.5q16 78 22.5 138.5t-0.5 103t-29.5 65.5t-62.5 25q-10 1 -15.5 8t-3.5 17l18 85q2 10 11 17.5t19 7.5q45 0 84 -16.5t68.5 -52t46.5 -90t17 -131.5t-21 -177
q-27 -125 -59.5 -214t-77 -145t-107.5 -82.5t-149 -26.5z" />
    <glyph glyph-name="asterisk" unicode="*" horiz-adv-x="445" 
d="M243 618l-3 82q0 12 8 21t20 9h90q13 0 16 -10.5t-2 -19.5l-37 -82l81 45q9 5 20.5 4t12.5 -15l11 -87q2 -12 -7.5 -19.5t-20.5 -8.5l-87 -7l54 -54q7 -7 5.5 -18t-12.5 -18l-84 -54q-10 -7 -21 -4t-13 16l-15 79l-50 -81q-5 -8 -16 -13.5t-21 2.5l-61 55q-9 8 -4.5 19
t13.5 17l76 54l-84 7q-10 0 -15.5 9t0.5 21l47 86q6 11 17 13.5t18 -2.5z" />
    <glyph glyph-name="plus" unicode="+" horiz-adv-x="603" 
d="M206 33q-11 0 -17 7.5t-4 17.5l39 183h-178q-11 0 -16.5 7t-3.5 18l15 73q3 11 11.5 18.5t19.5 7.5h178l38 177q2 11 11 18t20 7h81q11 0 16.5 -7t3.5 -18l-38 -177h178q10 0 16 -7.5t3 -18.5l-15 -73q-2 -11 -11 -18t-20 -7h-177l-39 -183q-2 -10 -10.5 -17.5
t-19.5 -7.5h-81z" />
    <glyph glyph-name="comma" unicode="," horiz-adv-x="286" 
d="M34 143q5 13 15.5 23.5t27.5 10.5h123q11 0 14.5 -8.5t-1.5 -16.5l-119 -199q-6 -10 -15.5 -19t-26.5 -9h-75q-8 0 -13 7t-2 16z" />
    <glyph glyph-name="hyphen" unicode="-" horiz-adv-x="476" 
d="M66 228q-11 0 -16.5 7t-3.5 18l20 94q3 11 11.5 18t18.5 7h314q11 0 17 -7t3 -18l-20 -94q-2 -11 -11 -18t-20 -7h-313z" />
    <glyph glyph-name="period" unicode="." horiz-adv-x="282" 
d="M18 0q-11 0 -17 7.5t-4 17.5l27 127q2 11 11 18t20 7h126q11 0 16.5 -7t3.5 -18l-27 -127q-2 -10 -10.5 -17.5t-19.5 -7.5h-126z" />
    <glyph glyph-name="slash" unicode="/" horiz-adv-x="539" 
d="M-34 -84q-11 0 -16 9.5t2 20.5l513 816q5 8 15 16t26 8h92q14 0 17 -9.5t-4 -20.5l-514 -816q-5 -7 -15 -15.5t-26 -8.5h-90z" />
    <glyph glyph-name="zero" unicode="0" horiz-adv-x="678" 
d="M289 -10q-88 1 -147 32.5t-84.5 91t-13.5 140.5q5 28 11.5 62.5t14.5 69t16 63.5q21 81 62.5 139t107 90t156.5 32q85 0 145 -32t87 -90t14 -139q-5 -29 -12 -63.5t-14.5 -69t-15.5 -62.5q-21 -81 -62 -140.5t-106 -91t-159 -32.5zM302 135q51 0 82.5 31t46.5 93
q8 29 15 60.5t13.5 63.5t10.5 60q11 61 -4 92t-67 32q-52 -1 -82.5 -32t-45.5 -92q-7 -28 -14.5 -60t-13.5 -63.5t-12 -60.5q-10 -62 5.5 -93t65.5 -31z" />
    <glyph glyph-name="one" unicode="1" horiz-adv-x="494" 
d="M212 0q-11 0 -17 7.5t-4 17.5l99 464l-153 -100q-11 -7 -20 -5t-14 11l-47 84q-3 9 0.5 19.5t14.5 16.5l268 178q7 4 11.5 5.5t12.5 1.5h126q11 0 17 -7t4 -18l-139 -650q-2 -10 -10.5 -17.5t-19.5 -7.5h-129z" />
    <glyph glyph-name="two" unicode="2" horiz-adv-x="650" 
d="M18 0q-11 0 -16.5 7.5t-3.5 17.5l15 71q2 7 9 21.5t27 27.5l125 102q93 61 153.5 103.5t93 75.5t38.5 62q7 34 -6 56.5t-56 22.5q-29 0 -51 -12.5t-36.5 -32.5t-23.5 -41q-6 -13 -16.5 -18t-21.5 -5h-125q-10 0 -14.5 6t-2.5 15q11 48 39.5 90.5t71 74.5t96 50.5
t114.5 18.5q86 0 139.5 -27.5t74 -76t6.5 -113.5q-10 -49 -40 -91.5t-78 -81t-111 -79.5l-112 -93h258q11 0 16.5 -7t3.5 -18l-22 -101q-2 -10 -11 -17.5t-20 -7.5h-513z" />
    <glyph glyph-name="three" unicode="3" horiz-adv-x="659" 
d="M274 -10q-77 0 -128.5 18.5t-80 48t-38.5 63t-5 64.5q2 9 9.5 15t16.5 6h131q12 0 18 -4.5t10 -14.5q3 -19 16 -31t34.5 -16.5t47.5 -4.5q51 0 84 23.5t42 64.5q9 43 -14 61.5t-72 18.5h-111q-11 0 -17 7t-3 18l11 56q3 12 10 21t14 13l193 139h-277q-11 0 -16.5 7
t-3.5 18l20 94q2 11 11 18t19 7h460q11 0 16.5 -7t3.5 -18l-18 -85q-2 -11 -8.5 -19.5t-13.5 -13.5l-183 -141l8 -2q55 -7 95 -30t57 -65.5t3 -107.5q-15 -68 -63.5 -117.5t-120.5 -76.5t-157 -27z" />
    <glyph glyph-name="four" unicode="4" horiz-adv-x="694" 
d="M340 0q-11 0 -17 7.5t-4 17.5l24 113h-323q-11 0 -16 7t-4 18l20 95q3 11 7 17.5t10 11.5l376 396q16 17 40 17h158q11 0 17 -7t4 -18l-83 -388h88q12 0 17.5 -7.5t3.5 -17.5l-22 -99q-1 -11 -10 -18t-20 -7h-89l-24 -113q-2 -10 -10.5 -17.5t-19.5 -7.5h-123zM213 280
h165l49 231z" />
    <glyph glyph-name="five" unicode="5" horiz-adv-x="645" 
d="M267 -11q-91 0 -151.5 29t-87.5 76.5t-18 103.5q2 9 9 15t16 6h134q13 0 20 -5t8 -14q3 -23 13.5 -38t28.5 -22t42 -7q29 0 55.5 12t46.5 35.5t27 56.5q9 45 -11.5 72.5t-69.5 27.5q-23 0 -40 -5.5t-29 -13.5t-22 -13.5t-19 -5.5h-132q-10 0 -14.5 8t-1.5 17l110 346
q5 15 15.5 22.5t23.5 7.5h401q11 0 17 -7t4 -18l-21 -94q-2 -11 -10.5 -18t-19.5 -7h-290l-41 -129q25 14 55.5 24t82.5 10q47 0 87.5 -17.5t68.5 -49t39 -74.5t0 -95q-14 -70 -54.5 -123.5t-108 -83t-163.5 -29.5z" />
    <glyph glyph-name="six" unicode="6" horiz-adv-x="651" 
d="M280 -10q-89 0 -149 32t-85.5 88.5t-10.5 129.5q7 31 23 61.5t35.5 58t38 49t31.5 34.5l226 237q5 5 15 12.5t25 7.5h133q9 0 13.5 -6.5t2.5 -15.5q-1 -4 -2.5 -7.5t-3.5 -5.5l-175 -184q7 2 15.5 2.5t15.5 0.5q45 -2 85 -20t69.5 -49t41.5 -74.5t1 -96.5
q-14 -70 -62.5 -127.5t-121.5 -92t-161 -34.5zM309 134q29 0 57 12.5t48 36.5t27 58q8 35 -2.5 58.5t-32.5 35.5t-53 12q-29 0 -57 -12t-48 -35.5t-28 -58.5q-7 -34 3 -58t33 -36.5t53 -12.5z" />
    <glyph glyph-name="seven" unicode="7" horiz-adv-x="573" 
d="M92 0q-9 0 -13.5 6.5t-2.5 15.5q1 6 4 9l341 518h-300q-10 0 -15.5 7.5t-3.5 18.5l21 100q2 11 11 18t20 7h467q12 0 17 -7t3 -18l-18 -89q-4 -15 -9 -25t-12 -20l-341 -517q-4 -6 -14 -15t-26 -9h-129z" />
    <glyph glyph-name="eight" unicode="8" horiz-adv-x="674" 
d="M286 -10q-94 0 -156 31.5t-89 82.5t-15 110q12 55 49 95.5t83 62.5q-25 23 -39 59.5t-4 82.5q11 56 48.5 100t100 70t146.5 26t140.5 -28t82 -74.5t14.5 -102.5q-9 -45 -33.5 -77t-65.5 -56q40 -27 57 -72.5t6 -96.5q-13 -60 -52.5 -108.5t-107 -76.5t-165.5 -28z
M296 118q33 0 61 11.5t48 32t26 48.5q9 43 -17 67t-74 24q-32 0 -60.5 -11t-48.5 -31t-26 -49q-9 -44 17.5 -68t73.5 -24zM361 422q29 0 54.5 10.5t42.5 28t22 41.5q9 36 -13 58t-67 22q-30 0 -55.5 -10t-42 -28t-22.5 -42q-7 -36 13.5 -58t67.5 -22z" />
    <glyph glyph-name="nine" unicode="9" horiz-adv-x="641" 
d="M125 0q-9 0 -13.5 6.5t-2.5 15.5q1 5 3 8t4 5l182 193q-15 -3 -30 -3q-45 3 -84 20.5t-67 48t-39 72.5t0 94q10 48 38 92.5t71 80t101 56.5t129 21q72 0 122.5 -18.5t80.5 -52t39.5 -78t-1.5 -94.5q-9 -46 -34 -85t-56.5 -73.5t-62.5 -69.5l-207 -219q-4 -5 -14 -12.5
t-26 -7.5h-133zM344 357q30 0 56.5 12.5t45.5 35.5t26 56t-2 56.5t-30.5 36t-50.5 12.5q-30 0 -56.5 -12.5t-45.5 -36t-26 -56.5q-6 -33 2.5 -56t30 -35.5t50.5 -12.5z" />
    <glyph glyph-name="colon" unicode=":" horiz-adv-x="292" 
d="M94 350q-10 0 -16 7.5t-3 17.5l25 121q2 10 11 17.5t20 7.5h126q11 0 17 -7.5t3 -17.5l-25 -121q-2 -10 -11 -17.5t-20 -7.5h-127zM20 0q-10 0 -16 7.5t-4 17.5l25 121q2 10 11.5 17.5t19.5 7.5h127q11 0 16.5 -7.5t3.5 -17.5l-26 -121q-2 -10 -10.5 -17.5t-19.5 -7.5
h-127z" />
    <glyph glyph-name="semicolon" unicode=";" horiz-adv-x="300" 
d="M-6 -75q-9 0 -13 6.5t-1 15.5l71 196q5 13 16 23.5t28 10.5h117q8 0 12.5 -5.5t2.5 -13.5q0 -3 -4 -11l-117 -194q-6 -10 -16 -19t-27 -9h-69zM122 350q-11 0 -17 7.5t-4 17.5l26 121q2 10 11 17.5t19 7.5h127q11 0 16.5 -7.5t3.5 -17.5l-26 -121q-1 -10 -10 -17.5
t-20 -7.5h-126z" />
    <glyph glyph-name="less" unicode="&#x3c;" horiz-adv-x="517" 
d="M392 7q-4 0 -8 2l-8 4l-309 245q-11 10 -16.5 19.5t-2.5 24.5l6 31q4 15 13 24t26 19l412 245q5 3 10 5t9 2q8 0 13 -6t3 -15l-23 -108q-3 -15 -13.5 -24t-22.5 -15l-248 -143l187 -144q9 -6 16 -14t4 -24l-23 -108q-2 -9 -9.5 -14.5t-15.5 -5.5z" />
    <glyph glyph-name="equal" unicode="=" horiz-adv-x="568" 
d="M48 111q-11 0 -16.5 7.5t-3.5 17.5l16 78q2 11 11 18t20 7h394q10 0 15.5 -7t3.5 -18l-16 -78q-2 -10 -11 -17.5t-19 -7.5h-394zM101 361q-11 0 -16.5 7.5t-3.5 17.5l16 78q2 11 11 18t20 7h394q10 0 15.5 -7t3.5 -18l-16 -78q-2 -10 -11 -17.5t-19 -7.5h-394z" />
    <glyph glyph-name="greater" unicode="&#x3e;" horiz-adv-x="516" 
d="M29 6q-8 0 -12.5 5.5t-3.5 15.5l23 107q4 17 14.5 25t21.5 14l249 144l-188 143q-8 6 -15.5 14.5t-4.5 24.5l24 108q2 9 9 14.5t15 5.5q4 0 8 -2l8 -4l308 -245q13 -10 18.5 -19.5t1.5 -24.5l-6 -31q-3 -15 -12.5 -24t-26.5 -19l-412 -245q-4 -3 -9.5 -5t-9.5 -2z" />
    <glyph glyph-name="question" unicode="?" horiz-adv-x="597" 
d="M230 212q-8 0 -12.5 5.5t-3.5 13.5q1 6 2.5 12t3.5 11q12 35 36 63.5t52 52.5t55 45t46.5 41.5t25.5 41.5q7 22 -0.5 37t-24 23t-37.5 8q-40 0 -67.5 -19t-44.5 -56q-6 -11 -14.5 -17.5t-22.5 -6.5h-122q-10 0 -15 7.5t-3 19.5q10 40 36.5 78t68.5 69.5t99 50t127 18.5
q75 0 120 -18t68 -47t27.5 -61.5t-1.5 -60.5q-9 -36 -28 -65t-44 -53.5t-51 -47t-49 -45t-38 -47.5q-3 -7 -6.5 -13.5t-6.5 -13.5q-8 -13 -16 -19.5t-20 -6.5h-140zM187 0q-11 0 -16.5 7.5t-3.5 17.5l24 114q2 10 11 17.5t20 7.5h128q11 0 17 -7.5t4 -17.5l-25 -114
q-2 -10 -11 -17.5t-20 -7.5h-128z" />
    <glyph glyph-name="at" unicode="@" horiz-adv-x="845" 
d="M352 -130q-92 0 -155.5 23t-100.5 65.5t-50.5 100.5t-4.5 127q2 14 6 37t9.5 49t11 49t9.5 36q19 63 56.5 120.5t92.5 102t126.5 70t158.5 25.5q104 0 170 -23.5t101 -66.5t44.5 -101.5t0.5 -126.5q-3 -21 -8 -44.5t-10 -45.5t-9 -36q-14 -50 -43 -84t-66 -51t-76 -17
q-33 0 -56 9t-36.5 20.5t-18.5 21.5q-10 -12 -27 -26.5t-44.5 -24.5t-71.5 -10q-74 0 -105.5 55t-11.5 149q20 95 73.5 150t127.5 55q40 0 60 -13t30 -33l3 13q3 11 11.5 18t19.5 7h51q11 0 16.5 -7t3.5 -18l-43 -202q-7 -33 3.5 -50t35.5 -17q20 0 33.5 10.5t21.5 26
t11 29.5q5 22 11.5 50.5t11.5 59.5q11 76 -6 126.5t-72 75t-157 24.5q-85 0 -146.5 -28.5t-102.5 -79.5t-64 -118q-5 -17 -12.5 -48t-13.5 -62.5t-8 -50.5q-10 -106 44 -165t186 -59q63 0 101.5 7.5t64 20t45.5 25.5q9 6 16.5 10t17.5 4h71q10 0 16 -7t3 -18
q-1 -4 -3.5 -7.5t-5.5 -7.5q-34 -32 -83.5 -60.5t-114.5 -46t-149 -17.5zM401 166q40 0 64.5 26t36.5 81q7 37 3.5 60.5t-18 35.5t-41.5 12q-38 0 -63.5 -26.5t-37.5 -81.5q-7 -34 -3.5 -58t18.5 -36.5t41 -12.5z" />
    <glyph glyph-name="A" unicode="A" horiz-adv-x="721" 
d="M-31 0q-12 0 -17 10t1 20l371 642q6 11 17 19.5t28 8.5h154q17 0 24.5 -8.5t8.5 -19.5l98 -642q3 -14 -5 -22t-18 -8h-121q-15 0 -21.5 7t-8.5 17l-17 99h-267l-60 -102q-5 -7 -13.5 -14t-23.5 -7h-130zM267 267h186l-37 264z" />
    <glyph glyph-name="B" unicode="B" horiz-adv-x="705" 
d="M32 0q-10 0 -16 7.5t-4 17.5l138 650q2 11 11 18t19 7h293q81 0 134 -24t75.5 -68.5t9.5 -105.5q-8 -38 -27.5 -65.5t-42 -44.5t-42.5 -25q35 -19 56 -59.5t9 -95.5q-14 -66 -48.5 -113.5t-93 -73t-144.5 -25.5h-327zM214 130h139q42 0 70 25t35 57q8 35 -7.5 59
t-61.5 24h-140zM276 422h128q41 0 67 21.5t33 53.5t-7 52.5t-55 20.5h-134z" />
    <glyph glyph-name="C" unicode="C" horiz-adv-x="701" 
d="M307 -10q-68 0 -122.5 17t-90.5 51.5t-50 85t-3 117.5q7 41 17.5 88t20.5 90q22 87 68 148t117 92t166 31q64 0 119 -16t93.5 -47.5t56 -76t6.5 -101.5q-2 -9 -8.5 -15t-15.5 -6h-136q-13 0 -19.5 5.5t-8.5 20.5q1 52 -27 72t-74 20q-55 0 -95 -30.5t-57 -101.5
q-21 -82 -36 -168q-12 -71 13 -101.5t79 -30.5q47 0 83.5 20t60.5 72q8 15 16 20.5t21 5.5h136q9 0 14 -6t3 -15q-14 -56 -43.5 -100.5t-73.5 -76t-101.5 -48t-128.5 -16.5z" />
    <glyph glyph-name="D" unicode="D" horiz-adv-x="716" 
d="M32 0q-10 0 -16 7.5t-4 17.5l138 650q2 11 11 18t19 7h244q65 0 119.5 -18t93 -52.5t55 -85.5t3.5 -117q-7 -44 -14 -77t-18 -76q-23 -93 -65.5 -154t-111.5 -90.5t-173 -29.5h-281zM217 144h105q44 0 75.5 13.5t52 42.5t31.5 76q7 29 12.5 52t10 46t9.5 51
q12 68 -15 99.5t-93 31.5h-100z" />
    <glyph glyph-name="E" unicode="E" horiz-adv-x="638" 
d="M32 0q-10 0 -16 7.5t-4 17.5l138 650q2 11 11 18t19 7h467q11 0 17 -7t4 -18l-20 -94q-2 -11 -11 -18t-20 -7h-318l-30 -135h297q11 0 16.5 -7.5t3.5 -18.5l-19 -87q-2 -10 -10.5 -17.5t-19.5 -7.5h-297l-29 -139h326q11 0 16.5 -7t3.5 -18l-20 -94q-2 -10 -10.5 -17.5
t-19.5 -7.5h-475z" />
    <glyph glyph-name="F" unicode="F" horiz-adv-x="619" 
d="M32 0q-10 0 -16 7.5t-4 17.5l138 650q2 11 11 18t19 7h460q11 0 16.5 -7t3.5 -18l-21 -101q-2 -11 -10.5 -18t-19.5 -7h-309l-31 -147h288q11 0 16.5 -7.5t3.5 -18.5l-21 -100q-2 -10 -11 -17.5t-20 -7.5h-288l-49 -226q-2 -10 -10.5 -17.5t-19.5 -7.5h-126z" />
    <glyph glyph-name="G" unicode="G" horiz-adv-x="720" 
d="M308 -10q-95 0 -156.5 31.5t-86.5 92t-10 147.5q8 43 18.5 91.5t20.5 92.5q21 85 72 144t126.5 90t168.5 31q75 0 129 -18.5t87 -49.5t46 -68t7 -73q-2 -9 -9.5 -15t-17.5 -6h-146q-10 0 -15 3.5t-8 10.5q-3 15 -13 31.5t-31 28.5t-59 12q-57 0 -96 -30t-56 -96
q-10 -42 -19.5 -86t-17.5 -88q-12 -70 15.5 -101t84.5 -31q37 0 69.5 13t55.5 40.5t31 70.5l4 19h-94q-11 0 -16.5 7.5t-3.5 18.5l16 74q2 11 11 18.5t20 7.5h252q11 0 16.5 -7.5t3.5 -18.5l-24 -114q-18 -86 -70.5 -147t-131 -93.5t-173.5 -32.5z" />
    <glyph glyph-name="H" unicode="H" horiz-adv-x="745" 
d="M32 0q-10 0 -16 7t-4 18l138 650q2 11 11 18t19 7h129q11 0 17 -7t4 -18l-51 -241h246l51 241q2 11 10.5 18t19.5 7h129q11 0 17 -7t4 -18l-139 -650q-2 -10 -10.5 -17.5t-19.5 -7.5h-129q-11 0 -16.5 7.5t-3.5 17.5l53 249h-246l-53 -249q-2 -10 -11 -17.5t-20 -7.5
h-129z" />
    <glyph glyph-name="I" unicode="I" horiz-adv-x="324" 
d="M32 0q-11 0 -17 7.5t-4 17.5l139 650q2 11 11 18t19 7h135q10 0 16 -7t4 -18l-138 -650q-2 -10 -11 -17.5t-19 -7.5h-135z" />
    <glyph glyph-name="J" unicode="J" horiz-adv-x="667" 
d="M265 -10q-51 0 -101.5 14.5t-90.5 43.5t-60 72t-10 100q2 9 9 15.5t16 6.5h136q14 0 20 -7t8 -21q0 -42 21 -61t64 -19q54 0 87 32.5t46 95.5l61 289h-323q-11 0 -16.5 7t-3.5 18l21 99q2 11 10.5 18t19.5 7h484q11 0 17 -7t4 -18l-89 -418q-18 -87 -59 -146.5t-108 -90
t-163 -30.5z" />
    <glyph glyph-name="K" unicode="K" horiz-adv-x="656" 
d="M32 0q-10 0 -16 7.5t-4 17.5l138 650q2 11 10.5 18t18.5 7h127q11 0 17 -7t4 -18l-47 -218l222 224q6 6 16 12.5t27 6.5h148q14 0 17.5 -12t-4.5 -21l-307 -315l189 -319q8 -13 -1 -23t-20 -10h-140q-16 0 -24 6t-12 14l-150 250l-53 -245q-2 -10 -10 -17.5t-19 -7.5
h-127z" />
    <glyph glyph-name="L" unicode="L" horiz-adv-x="592" 
d="M32 0q-10 0 -16 7.5t-4 17.5l138 650q2 11 11 18t19 7h132q11 0 17 -7t4 -18l-112 -524h302q11 0 16.5 -7.5t3.5 -18.5l-21 -100q-2 -10 -10.5 -17.5t-19.5 -7.5h-460z" />
    <glyph glyph-name="M" unicode="M" horiz-adv-x="828" 
d="M33 0q-11 0 -17 7.5t-4 17.5l138 650q2 11 11 18t20 7h108q16 0 22.5 -8.5t8.5 -13.5l109 -315l243 315q3 5 12.5 13.5t25.5 8.5h109q11 0 16.5 -7t3.5 -18l-138 -650q-2 -10 -10.5 -17.5t-19.5 -7.5h-121q-10 0 -16 7.5t-4 17.5l78 369l-153 -203q-7 -8 -16.5 -15.5
t-23.5 -7.5h-52q-14 0 -20 7t-9 16l-71 212l-80 -378q-2 -10 -11 -17.5t-19 -7.5h-120z" />
    <glyph glyph-name="N" unicode="N" horiz-adv-x="720" 
d="M32 0q-10 0 -16 7.5t-4 17.5l138 650q2 11 10.5 18t19.5 7h106q16 0 22 -7t8 -12l163 -387l81 381q2 11 11 18t19 7h120q11 0 17 -7t4 -18l-139 -649q-2 -11 -10.5 -18.5t-19.5 -7.5h-106q-16 0 -22 7.5t-8 11.5l-165 373l-78 -367q-2 -10 -11 -17.5t-20 -7.5h-120z" />
    <glyph glyph-name="O" unicode="O" horiz-adv-x="712" 
d="M306 -10q-63 0 -116.5 17t-91 51t-53 85t-4.5 119q8 43 17.5 86.5t19.5 86.5q33 135 119 205t232 70q63 0 116.5 -17.5t91 -52.5t53 -86t3.5 -119q-7 -43 -16.5 -86.5t-19.5 -86.5q-34 -137 -120 -204.5t-231 -67.5zM320 134q54 0 94.5 32t57.5 102q11 44 19.5 83
t15.5 81q13 70 -12 102t-79 32t-94.5 -32t-57.5 -102q-11 -42 -19.5 -81t-16.5 -83q-12 -70 12 -102t80 -32z" />
    <glyph glyph-name="P" unicode="P" horiz-adv-x="677" 
d="M32 0q-10 0 -16 7.5t-4 17.5l138 650q2 11 11 18t19 7h266q61 0 110.5 -14t82.5 -43t46 -72.5t1 -101.5q-24 -115 -101 -170t-206 -55h-135l-46 -219q-2 -10 -10.5 -17.5t-19.5 -7.5h-136zM271 382h115q40 0 72.5 22t42.5 67q5 26 2 46t-20.5 32t-53.5 12h-120z" />
    <glyph glyph-name="Q" unicode="Q" horiz-adv-x="712" 
d="M453 -65q-16 0 -22.5 8.5t-10.5 14.5l-24 45q-42 -13 -92 -13q-92 0 -153.5 30t-86.5 90.5t-10 151.5q8 43 17.5 86.5t19.5 86.5q23 90 75 151.5t126.5 92.5t164.5 31q91 0 152.5 -31t87.5 -92.5t10 -151.5q-7 -43 -16.5 -86.5t-20.5 -86.5q-32 -124 -113 -192l51 -104
q2 -5 1 -10q-1 -8 -8.5 -14.5t-16.5 -6.5h-131zM336 134q52 0 92.5 32t56.5 102q11 44 19.5 83t15.5 81q8 47 -1.5 76.5t-33 43.5t-58.5 14q-52 0 -92.5 -32t-58.5 -102q-10 -42 -18 -81t-16 -83q-8 -47 1.5 -76.5t33 -43.5t59.5 -14z" />
    <glyph glyph-name="R" unicode="R" horiz-adv-x="691" 
d="M46 0q-11 0 -16.5 7.5t-3.5 17.5l138 650q2 11 11 18t20 7h272q130 0 191 -59.5t38 -168.5q-15 -71 -59.5 -120t-105.5 -74l85 -246q1 -3 1 -5t-1 -6q-1 -8 -9 -14.5t-16 -6.5h-133q-19 0 -25.5 9.5t-9.5 17.5l-67 220h-102l-48 -222q-2 -10 -11 -17.5t-20 -7.5h-129z
M283 389h116q47 0 75 23t37 62q8 39 -9.5 63t-66.5 24h-115z" />
    <glyph glyph-name="S" unicode="S" horiz-adv-x="662" 
d="M280 -10q-99 0 -163 28t-91.5 74.5t-19.5 98.5q2 8 8.5 14.5t15.5 6.5h128q14 0 20 -5t12 -13q4 -15 16 -29t33.5 -22.5t53.5 -8.5q58 0 93 18t41 49q6 23 -7.5 37t-47 25.5t-89.5 23.5q-73 16 -120 44.5t-65.5 73t-5.5 106.5q20 92 99 145.5t206 53.5q64 0 114.5 -18
t84.5 -48t49 -63.5t10 -65.5q-1 -8 -8 -14.5t-16 -6.5h-134q-10 0 -17.5 4t-12.5 13q0 22 -23 38.5t-61 16.5q-43 0 -72 -15.5t-36 -47.5q-5 -20 5.5 -35t40 -26t82.5 -23q87 -17 137 -45.5t67.5 -71.5t4.5 -105q-21 -102 -106 -154.5t-226 -52.5z" />
    <glyph glyph-name="T" unicode="T" horiz-adv-x="627" 
d="M185 0q-11 0 -17 7.5t-4 17.5l111 518h-178q-10 0 -16 7.5t-4 17.5l23 107q2 11 10.5 18t19.5 7h538q11 0 16.5 -7t3.5 -18l-23 -107q-2 -10 -10.5 -17.5t-19.5 -7.5h-177l-111 -518q-2 -10 -10.5 -17.5t-19.5 -7.5h-132z" />
    <glyph glyph-name="U" unicode="U" horiz-adv-x="725" 
d="M312 -10q-64 0 -117.5 16.5t-90 50.5t-49.5 86t2 124l86 408q2 11 11 18t20 7h129q11 0 16.5 -7t3.5 -18l-87 -407q-14 -65 7 -97.5t82 -32.5q60 0 98 32.5t52 97.5l87 407q2 11 11 18t19 7h129q11 0 17 -7t4 -18l-87 -408q-30 -143 -113 -210t-230 -67z" />
    <glyph glyph-name="V" unicode="V" horiz-adv-x="693" 
d="M206 0q-17 0 -25.5 9t-9.5 21l-68 643q-1 13 6 20t18 7h120q16 0 23 -8.5t8 -17.5l43 -462l240 462q4 9 14 17.5t26 8.5h134q12 0 15.5 -9.5t-1.5 -20.5l-340 -640q-6 -12 -17.5 -21t-29.5 -9h-156z" />
    <glyph glyph-name="W" unicode="W" horiz-adv-x="825" 
d="M120 0q-17 0 -25 10t-8 23l21 644q1 9 8 16t17 7h121q14 0 20.5 -6t5.5 -18l-16 -384l119 226q5 8 14 17.5t25 9.5h71q17 0 22 -9.5t6 -17.5l25 -229l148 389q8 22 35 22h128q11 0 15 -8t0 -17l-237 -642q-5 -13 -17.5 -23t-29.5 -10h-97q-17 0 -23.5 9t-8.5 17l-49 286
l-152 -286q-4 -8 -14.5 -17t-27.5 -9h-96z" />
    <glyph glyph-name="X" unicode="X" horiz-adv-x="690" 
d="M-28 0q-13 0 -17.5 11.5t4.5 21.5l300 328l-154 307q-5 11 2 21.5t21 10.5h129q19 0 25.5 -8t8.5 -13l94 -188l165 188q5 5 14.5 13t27.5 8h142q13 0 17.5 -11.5t-4.5 -21.5l-285 -330l153 -305q5 -11 -1.5 -21.5t-21.5 -10.5h-128q-18 0 -25 8t-9 12l-93 183l-169 -183
q-3 -4 -12.5 -12t-28.5 -8h-155z" />
    <glyph glyph-name="Y" unicode="Y" horiz-adv-x="679" 
d="M212 0q-11 0 -16.5 7.5t-3.5 17.5l45 215l-141 428q-4 12 4 22t21 10h118q15 0 21.5 -7.5t8.5 -13.5l88 -257l197 257q4 6 14 13.5t25 7.5h135q16 0 18 -11t-5 -21l-324 -428l-46 -215q-2 -10 -10.5 -17.5t-19.5 -7.5h-129z" />
    <glyph glyph-name="Z" unicode="Z" horiz-adv-x="648" 
d="M-1 0q-10 0 -16 7.5t-4 18.5l21 97q4 14 11 23t11 13l397 392h-293q-11 0 -16.5 7t-3.5 18l21 99q2 11 10.5 18t19.5 7h504q11 0 17 -7t4 -18l-21 -97q-2 -11 -8 -19t-13 -15l-388 -393h304q11 0 17 -7.5t3 -18.5l-21 -100q-2 -10 -10.5 -17.5t-19.5 -7.5h-526z" />
    <glyph glyph-name="bracketleft" unicode="[" horiz-adv-x="382" 
d="M-10 -159q-11 0 -16.5 7.5t-4.5 17.5l189 885q2 11 10.5 18t19.5 7h246q11 0 17 -7t4 -18l-19 -86q-2 -11 -11 -18t-19 -7h-117l-139 -652h117q10 0 16 -7t4 -18l-21 -97q-2 -10 -10.5 -17.5t-19.5 -7.5h-246z" />
    <glyph glyph-name="backslash" unicode="\" horiz-adv-x="525" 
d="M323 -84q-17 0 -24 8.5t-9 18.5l-168 815q-2 12 4.5 20t19.5 8h81q16 0 23.5 -8t9.5 -19l165 -815q2 -11 -4 -19.5t-19 -8.5h-79z" />
    <glyph glyph-name="bracketright" unicode="]" horiz-adv-x="382" 
d="M397 776q11 0 17 -7t4 -18l-189 -885q-2 -10 -10.5 -17.5t-19.5 -7.5h-246q-10 0 -15.5 7.5t-4.5 17.5l21 97q2 11 10.5 18t19.5 7h116l139 652h-116q-11 0 -16.5 7t-3.5 18l19 86q2 11 10.5 18t18.5 7h246z" />
    <glyph glyph-name="asciicircum" unicode="^" horiz-adv-x="464" 
d="M139 588q-15 0 -12 14q1 8 11 15l125 108q13 11 21 14.5t18 3.5h79q10 0 17 -3.5t14 -14.5l80 -108q6 -7 4 -15q-3 -14 -18 -14h-48q-8 0 -16.5 1t-16.5 6l-77 48l-98 -48q-8 -5 -17.5 -6t-18.5 -1h-47z" />
    <glyph glyph-name="underscore" unicode="_" horiz-adv-x="733" 
d="M-5 -72q-10 0 -16 7.5t-4 17.5l20 94q2 11 11 18.5t19 7.5h594q11 0 16.5 -7.5t3.5 -18.5l-20 -94q-2 -10 -10.5 -17.5t-19.5 -7.5h-594z" />
    <glyph glyph-name="grave" unicode="`" horiz-adv-x="293" 
d="M178 595q-14 0 -21 3.5t-14 10.5l-109 108q-4 6 -3 14q3 19 22 19h139q12 0 19 -3.5t14 -15.5l65 -106q4 -6 2 -14q-3 -16 -19 -16h-95z" />
    <glyph glyph-name="a" unicode="a" horiz-adv-x="626" 
d="M195 -10q-48 0 -84.5 15.5t-58.5 46t-29 74t2 99.5q4 20 7 35.5t8 35.5q13 53 36 96t55 74t74.5 47.5t93.5 16.5q61 0 92.5 -17.5t50.5 -43.5l5 26q2 11 10.5 18t19.5 7h112q11 0 16.5 -7t3.5 -18l-99 -470q-2 -10 -10.5 -17.5t-19.5 -7.5h-113q-10 0 -16 7.5t-4 17.5
l7 32q-31 -29 -66.5 -48t-92.5 -19zM265 124q33 0 56 14.5t38 37.5t21 50q6 20 9.5 38t6.5 37q5 25 0.5 46.5t-21 35t-47.5 13.5q-32 0 -54 -14t-35.5 -38t-22.5 -53q-4 -15 -8 -31t-6 -31q-3 -29 -1 -53t17 -38t47 -14z" />
    <glyph glyph-name="b" unicode="b" horiz-adv-x="630" 
d="M320 -10q-56 0 -93.5 19t-55.5 48l-7 -32q-2 -10 -10.5 -17.5t-19.5 -7.5h-112q-11 0 -16.5 7.5t-3.5 17.5l140 660q2 11 10.5 18t19.5 7h122q11 0 16.5 -7t3.5 -18l-45 -214q30 26 64.5 42.5t83.5 16.5q50 0 86.5 -16.5t59 -46.5t30 -73t-2.5 -97q-3 -19 -6.5 -36.5
t-9.5 -37.5q-18 -73 -53 -125.5t-85.5 -80t-115.5 -27.5zM285 124q34 0 56 14t36 38t23 53q5 15 8.5 31t4.5 31q5 29 2 53t-18 38t-49 14q-31 0 -55 -13.5t-39 -35t-22 -46.5q-5 -19 -9 -37t-6 -38q-5 -27 -1 -50t20.5 -37.5t48.5 -14.5z" />
    <glyph glyph-name="c" unicode="c" horiz-adv-x="589" 
d="M240 -10q-69 0 -123 27t-80 78.5t-14 123.5q3 16 8 40.5t9 40.5q27 110 104.5 170t193.5 60q67 0 113 -19.5t73 -49.5t37.5 -60.5t7.5 -53.5q-1 -10 -9.5 -17.5t-19.5 -7.5h-129q-10 0 -15.5 5t-7.5 16q-2 30 -17.5 44t-45.5 14q-40 0 -68.5 -26t-41.5 -80
q-5 -19 -9 -37.5t-6 -33.5q-10 -55 5 -80t55 -25q31 0 53.5 13.5t38.5 43.5q7 10 14 15t17 5h129q10 0 16 -7t3 -18q-6 -20 -24.5 -50.5t-52.5 -60.5t-87 -50t-127 -20z" />
    <glyph glyph-name="d" unicode="d" horiz-adv-x="630" 
d="M197 -10q-49 0 -85.5 15.5t-59 46t-29.5 74t1 99.5q4 20 7.5 35.5t8.5 35.5q13 53 36 96t55 74t73 47.5t91 16.5q51 0 87 -16.5t54 -42.5l46 214q2 11 10.5 18t18.5 7h122q11 0 17 -7t4 -18l-141 -660q-2 -10 -10.5 -17.5t-19.5 -7.5h-112q-11 0 -17 7.5t-4 17.5l7 32
q-30 -29 -66.5 -48t-93.5 -19zM266 124q33 0 57 14.5t39 37.5t22 50q5 20 9 38t7 37q4 25 -1 46.5t-21.5 35t-48.5 13.5q-31 0 -53.5 -14t-37 -38t-23.5 -53q-4 -15 -7.5 -31t-5.5 -31q-4 -29 -1 -53t18.5 -38t46.5 -14z" />
    <glyph glyph-name="e" unicode="e" horiz-adv-x="592" 
d="M248 -10q-78 0 -130.5 28.5t-72 85.5t-4.5 140q2 7 4 18t4 17q20 79 64 135.5t108 86t141 29.5q88 0 138 -35t66 -95t1 -137l-5 -24q-2 -11 -11.5 -18t-19.5 -7h-320q0 -1 -0.5 -3t-1.5 -4q-5 -29 -1 -53t20 -38t43 -14q20 0 34.5 6.5t25.5 15t18 14.5q11 11 17 13.5
t18 2.5h124q10 0 15 -6t2 -16q-5 -17 -25.5 -41t-56.5 -47.5t-85 -38.5t-110 -15zM232 313h169l1 2q8 33 2.5 56.5t-22 36.5t-43.5 13t-48 -13t-35.5 -36.5t-22.5 -56.5z" />
    <glyph glyph-name="f" unicode="f" horiz-adv-x="440" 
d="M80 0q-10 0 -16 7.5t-4 17.5l77 364h-76q-11 0 -16.5 7t-3.5 18l17 81q2 11 11 18t20 7h76l7 32q15 68 48 109.5t82.5 60t113.5 18.5h93q10 0 15.5 -7t3.5 -18l-17 -81q-2 -11 -11 -18t-19 -7h-68q-33 0 -51.5 -16t-24.5 -46l-6 -27h121q10 0 15.5 -7t3.5 -18l-16 -81
q-3 -11 -11.5 -18t-19.5 -7h-121l-77 -364q-2 -10 -10.5 -17.5t-19.5 -7.5h-116z" />
    <glyph glyph-name="g" unicode="g" horiz-adv-x="633" 
d="M211 -220q-74 0 -121 20t-73 48t-35 55.5t-7 43.5q2 11 10.5 18.5t18.5 7.5h129q10 0 15 -5t6 -16q3 -11 8.5 -22.5t19.5 -19.5t41 -8t49.5 9.5t39 31t24.5 57.5l14 67q-30 -25 -64 -40.5t-85 -15.5q-52 0 -89 15t-58.5 45t-28 73t2.5 99q2 15 4.5 26.5t6.5 26.5
q14 53 36.5 96t53.5 74t72 47.5t93 16.5q54 0 92 -20.5t55 -51.5l8 37q2 10 11 17.5t20 7.5h115q11 0 16.5 -7.5t3.5 -17.5l-101 -481q-12 -57 -36 -100.5t-61 -73.5t-88.5 -45t-117.5 -15zM270 141q31 0 54.5 14t39 36t22.5 47q2 11 6.5 31t5.5 30q4 26 -0.5 48t-21 35.5
t-48.5 13.5q-31 0 -53.5 -14t-37.5 -38t-23 -53q-2 -10 -5 -22t-4 -23q-4 -29 -1.5 -53t18 -38t48.5 -14z" />
    <glyph glyph-name="h" unicode="h" horiz-adv-x="650" 
d="M22 0q-11 0 -17 7.5t-4 17.5l141 660q2 11 10.5 18t19.5 7h128q11 0 16.5 -7t3.5 -18l-47 -223q31 31 70.5 49.5t91.5 18.5q61 0 103.5 -26t59 -76t0.5 -124l-59 -279q-2 -10 -11 -17.5t-19 -7.5h-129q-11 0 -17 7.5t-4 17.5l58 273q10 47 -5 72.5t-58 25.5
q-28 0 -51.5 -11t-41 -33.5t-24.5 -53.5l-57 -273q-2 -10 -10.5 -17.5t-19.5 -7.5h-128z" />
    <glyph glyph-name="i" unicode="i" horiz-adv-x="286" 
d="M22 0q-11 0 -17 7.5t-4 17.5l100 470q2 11 11 18t20 7h118q11 0 16 -7t3 -18l-99 -470q-2 -10 -10.5 -17.5t-19.5 -7.5h-118zM147 595q-11 0 -16.5 7t-4.5 18l20 90q2 10 11 17.5t19 7.5h120q11 0 16.5 -7.5t3.5 -17.5l-19 -90q-2 -11 -11 -18t-19 -7h-120z" />
    <glyph glyph-name="j" unicode="j" horiz-adv-x="303" 
d="M-131 -190q-11 0 -16 7.5t-3 17.5l17 81q2 11 10.5 18t19.5 7h39q32 0 49.5 20.5t24.5 52.5l102 481q2 11 11 18t20 7h123q11 0 16.5 -7t3.5 -18l-103 -485q-13 -65 -45 -109.5t-82.5 -67.5t-122.5 -23h-64zM158 595q-11 0 -16.5 7t-4.5 18l20 90q2 10 11 17.5t19 7.5
h126q10 0 16 -7.5t4 -17.5l-20 -90q-1 -11 -10 -18t-20 -7h-125z" />
    <glyph glyph-name="k" unicode="k" horiz-adv-x="588" 
d="M22 0q-11 0 -17 7.5t-4 17.5l141 660q2 11 10.5 18t19.5 7h115q11 0 17 -7t4 -18l-71 -333l167 151q8 7 16 12t22 5h143q17 0 18.5 -13.5t-12.5 -25.5l-221 -205l147 -240q8 -12 1 -24t-23 -12h-131q-13 0 -19.5 5t-10.5 11l-126 204l-41 -195q-2 -10 -10.5 -17.5
t-19.5 -7.5h-115z" />
    <glyph glyph-name="l" unicode="l" horiz-adv-x="287" 
d="M22 0q-11 0 -17 7.5t-4 17.5l141 660q2 11 10.5 18t19.5 7h118q11 0 16.5 -7t3.5 -18l-140 -660q-2 -10 -10.5 -17.5t-19.5 -7.5h-118z" />
    <glyph glyph-name="m" unicode="m" horiz-adv-x="916" 
d="M22 0q-11 0 -17 7.5t-4 17.5l100 470q2 11 11 18t20 7h109q11 0 16.5 -7t3.5 -18l-7 -34q17 18 37.5 33.5t48 25.5t65.5 10q59 0 95 -23t49 -63q32 38 72.5 62t95.5 24t94 -23.5t55 -72t-1 -125.5l-60 -284q-2 -10 -10.5 -17.5t-19.5 -7.5h-116q-11 0 -17 7.5t-4 17.5
l59 277q8 35 3 55.5t-19 29.5t-36 9q-19 0 -39 -9t-36 -29.5t-23 -55.5l-59 -277q-2 -10 -10.5 -17.5t-19.5 -7.5h-116q-11 0 -17 7.5t-4 17.5l60 277q7 35 1.5 55.5t-19.5 29.5t-35 9q-19 0 -39 -9t-36 -29.5t-23 -54.5l-60 -278q-2 -10 -10.5 -17.5t-18.5 -7.5h-119z" />
    <glyph glyph-name="n" unicode="n" horiz-adv-x="643" 
d="M22 0q-11 0 -17 7.5t-4 17.5l100 470q2 11 11 18t20 7h115q11 0 16.5 -7t3.5 -18l-8 -38q31 31 74.5 52t98.5 21q63 0 104 -26t56 -76t-1 -124l-60 -279q-2 -10 -10.5 -17.5t-18.5 -7.5h-126q-11 0 -17 7.5t-4 17.5l58 273q11 49 -2.5 73.5t-59.5 24.5q-45 0 -76 -25.5
t-41 -72.5l-57 -273q-2 -10 -11 -17.5t-19 -7.5h-125z" />
    <glyph glyph-name="o" unicode="o" horiz-adv-x="609" 
d="M247 -10q-80 0 -134 27t-77.5 77.5t-12.5 120.5q2 20 7.5 45.5t11.5 44.5q19 71 58 121t100.5 77t144.5 27q79 0 133 -27t79 -77t14 -121q-4 -19 -9 -44.5t-10 -45.5q-19 -70 -57 -120.5t-99 -77.5t-149 -27zM262 112q45 0 73 27t42 81q4 15 9.5 40t7.5 40q9 53 -5 80.5
t-59 27.5q-43 0 -71 -27.5t-42 -80.5q-4 -15 -9.5 -40t-7.5 -40q-9 -54 4.5 -81t57.5 -27z" />
    <glyph glyph-name="p" unicode="p" horiz-adv-x="630" 
d="M-19 -190q-11 0 -16.5 7.5t-3.5 17.5l140 660q2 11 11 18t20 7h112q11 0 16.5 -7t3.5 -18l-7 -36q30 30 66.5 50.5t94.5 20.5q49 0 85.5 -15.5t59 -46t29.5 -74t-2 -99.5q-3 -19 -6.5 -34.5t-8.5 -35.5q-14 -53 -36.5 -96.5t-54.5 -74.5t-73 -47.5t-91 -16.5
q-51 0 -87 17.5t-52 49.5l-48 -222q-2 -10 -10.5 -17.5t-19.5 -7.5h-122zM285 124q33 0 55 14t36.5 38t23.5 53q5 15 8.5 31t4.5 31q4 29 1 53t-18 38t-48 14q-32 0 -56.5 -14.5t-39 -37.5t-21.5 -50q-6 -19 -9.5 -37t-6.5 -38q-4 -25 0.5 -46.5t21.5 -35t48 -13.5z" />
    <glyph glyph-name="q" unicode="q" horiz-adv-x="631" 
d="M321 -190q-10 0 -15.5 7.5t-3.5 17.5l47 222q-30 -32 -65.5 -49.5t-85.5 -17.5q-49 0 -85.5 16.5t-59 46.5t-30 73t1.5 97q4 20 7.5 37t8.5 37q19 74 54 126t85 79.5t116 27.5q55 0 93 -20.5t54 -50.5l8 36q2 11 11 18t20 7h112q11 0 16.5 -7t3.5 -18l-140 -660
q-2 -10 -11 -17.5t-20 -7.5h-122zM267 124q32 0 55.5 13.5t39 35t21.5 46.5q5 20 9 38t7 37q5 27 0.5 50t-20.5 37.5t-49 14.5q-32 0 -54.5 -14t-36.5 -38t-23 -53q-4 -15 -7.5 -31t-5.5 -31q-4 -29 -1.5 -53t17.5 -38t48 -14z" />
    <glyph glyph-name="r" unicode="r" horiz-adv-x="456" 
d="M22 0q-11 0 -17 7.5t-4 17.5l100 470q2 10 11 17.5t20 7.5h115q11 0 16.5 -7.5t3.5 -17.5l-8 -40q24 30 60 47.5t90 17.5h56q11 0 16 -7t3 -18l-21 -103q-2 -10 -11 -17.5t-20 -7.5h-96q-42 0 -68.5 -22.5t-36.5 -63.5l-54 -256q-2 -10 -11 -17.5t-20 -7.5h-124z" />
    <glyph glyph-name="s" unicode="s" horiz-adv-x="553" 
d="M222 -10q-65 0 -107.5 14.5t-66.5 35.5t-33 43.5t-6 39.5q2 11 10.5 18t17.5 7h114q3 0 5.5 -1t4.5 -4q12 -7 22.5 -17.5t26 -18.5t40.5 -8q27 0 49 11.5t26 32.5q4 16 -3.5 26.5t-32.5 20.5t-78 20q-50 12 -84.5 31.5t-48.5 51t-5 76.5q9 40 42 77t88.5 60.5t129.5 23.5
q57 0 97 -13.5t65 -34.5t35 -43t7 -40q-1 -10 -9.5 -17.5t-17.5 -7.5h-104q-4 0 -7.5 1.5t-5.5 3.5q-12 6 -22 16t-24 18t-38 8q-27 0 -44.5 -12t-21.5 -31q-3 -13 3 -24t30.5 -20t78.5 -20q67 -11 102.5 -35.5t46 -57t3.5 -68.5q-10 -48 -47 -85t-97 -57.5t-141 -20.5z" />
    <glyph glyph-name="t" unicode="t" horiz-adv-x="462" 
d="M269 0q-69 0 -113.5 20.5t-60.5 64t-2 112.5l41 192h-78q-11 0 -16.5 7t-3.5 18l17 81q2 11 11 18t19 7h79l35 165q2 11 11 18t19 7h116q11 0 16.5 -7t3.5 -18l-35 -165h125q11 0 16.5 -7t3.5 -18l-17 -81q-2 -11 -11 -18t-19 -7h-126l-38 -178q-4 -22 -4 -39t10 -26
t34 -9h79q11 0 16 -7t3 -18l-18 -87q-2 -10 -10.5 -17.5t-19.5 -7.5h-83z" />
    <glyph glyph-name="u" unicode="u" horiz-adv-x="640" 
d="M195 -10q-60 0 -101.5 26t-57 76.5t0.5 123.5l58 279q2 11 11 18t20 7h126q10 0 15.5 -7t3.5 -18l-57 -273q-7 -32 -4 -54t19 -33t46 -11q43 0 74.5 25.5t41.5 72.5l58 273q2 11 11 18t19 7h125q11 0 16.5 -7t3.5 -18l-100 -470q-2 -10 -10.5 -17.5t-19.5 -7.5h-115
q-11 0 -17 7.5t-4 17.5l8 38q-21 -23 -45 -39.5t-54 -25t-72 -8.5z" />
    <glyph glyph-name="v" unicode="v" horiz-adv-x="595" 
d="M181 0q-15 0 -21 7.5t-8 17.5l-90 467q-2 12 4.5 20t21.5 8h106q13 0 19 -6.5t7 -16.5l48 -305l179 307q4 7 12 14t21 7h121q12 0 17 -9.5t-3 -21.5l-287 -464q-7 -10 -15.5 -17.5t-23.5 -7.5h-108z" />
    <glyph glyph-name="w" unicode="w" horiz-adv-x="840" 
d="M139 0q-14 0 -20 7.5t-7 17.5l-47 466q-1 11 7 20t21 9h99q13 0 19 -6.5t7 -14.5l24 -286l150 285q4 7 12.5 14.5t22.5 7.5h67q14 0 19.5 -7.5t6.5 -14.5l30 -285l145 286q4 7 12 14t21 7h112q14 0 16.5 -9.5t-2.5 -20.5l-242 -465q-5 -10 -14 -17.5t-23 -7.5h-91
q-14 0 -20.5 7.5t-8.5 17.5l-40 274l-149 -274q-6 -10 -15 -17.5t-24 -7.5h-88z" />
    <glyph glyph-name="x" unicode="x" horiz-adv-x="588" 
d="M-24 0q-15 0 -18.5 13t4.5 23l221 236l-107 213q-5 12 2.5 23.5t20.5 11.5h118q13 0 18.5 -6t8.5 -11l65 -126l121 126q4 5 12 11t23 6h126q14 0 18 -13t-6 -23l-209 -225l111 -224q6 -12 0 -23.5t-23 -11.5h-120q-12 0 -18 5.5t-9 10.5l-69 134l-127 -134
q-4 -4 -11.5 -10t-21.5 -6h-130z" />
    <glyph glyph-name="y" unicode="y" horiz-adv-x="604" 
d="M52 -190q-12 0 -16 10.5t3 21.5l122 192l-97 457q-2 11 5 20t22 9h106q13 0 18.5 -6.5t6.5 -14.5l56 -291l183 291q4 8 12.5 14.5t21.5 6.5h119q12 0 16.5 -9.5t-1.5 -20.5l-425 -659q-5 -8 -13.5 -14.5t-21.5 -6.5h-117z" />
    <glyph glyph-name="z" unicode="z" horiz-adv-x="552" 
d="M1 0q-11 0 -17 7.5t-4 17.5l17 78q2 11 7 17.5t11 11.5l287 259h-211q-10 0 -16 7t-4 18l17 79q2 11 11 18t20 7h402q11 0 16.5 -7t3.5 -18l-18 -85q-3 -15 -17 -25l-280 -256h233q10 0 16 -7t3 -18l-17 -79q-2 -10 -10.5 -17.5t-18.5 -7.5h-431z" />
    <glyph glyph-name="braceleft" unicode="{" horiz-adv-x="425" 
d="M291 -158q-58 0 -103.5 18t-74 54t-37 90t7.5 127q8 41 1.5 70t-32.5 44l-11 5q-25 15 -19 41l8 37q3 14 11 23t24 17l15 6q32 15 51 43.5t28 69.5q15 73 46 126.5t75 89.5t96.5 54t111.5 19h6q9 0 14 -6.5t3 -15.5l-19 -91q-1 -9 -8.5 -15t-16.5 -7h-3q-43 -3 -73 -20.5
t-49.5 -53.5t-32.5 -95q-13 -63 -43 -105.5t-65 -57.5q19 -9 30.5 -33t14 -57.5t-5.5 -72.5q-12 -58 -8 -94.5t26.5 -53.5t62.5 -21h5q8 -1 12.5 -7t2.5 -15l-19 -91q-2 -10 -9.5 -16t-17.5 -6h-5z" />
    <glyph glyph-name="bar" unicode="|" horiz-adv-x="264" 
d="M-20 -208q-11 0 -16.5 7.5t-3.5 17.5l224 1054q2 11 11 18t20 7h90q10 0 15.5 -7t3.5 -18l-223 -1054q-2 -10 -11.5 -17.5t-19.5 -7.5h-90z" />
    <glyph glyph-name="braceright" unicode="}" horiz-adv-x="425" 
d="M168 776q59 -1 104 -18.5t73.5 -53.5t37 -90.5t-6.5 -126.5q-9 -42 -2.5 -70.5t32.5 -43.5l11 -6q25 -14 19 -40l-8 -37q-5 -26 -36 -40l-14 -6q-31 -14 -50 -43t-28 -70q-16 -73 -47 -127t-75 -89.5t-96.5 -54t-111.5 -18.5h-6q-9 0 -14 6t-3 16l19 91q2 9 9.5 15
t15.5 7h4q42 3 72 20.5t49.5 53.5t31.5 94q14 64 44 106.5t65 57.5q-19 10 -30.5 33.5t-14 56.5t5.5 73q13 59 8.5 94.5t-26.5 53.5t-63 21h-5q-8 1 -12.5 7t-2.5 15l19 91q2 9 9.5 15.5t17.5 6.5h5z" />
    <glyph glyph-name="asciitilde" unicode="~" horiz-adv-x="554" 
d="M77 214q-11 0 -14 7.5t0 21.5l16 77q5 18 22.5 34t44.5 26t59 10q35 0 60 -6t46.5 -13.5t45 -13.5t55.5 -6q26 0 46.5 10.5t30.5 17.5q5 2 9.5 4t9.5 3q12 0 15 -7.5t-1 -22.5l-16 -76q-4 -18 -21.5 -34t-44.5 -26t-59 -10q-35 0 -59.5 6t-46.5 13.5t-46 13.5t-56 6
q-26 0 -46 -10.5t-31 -17.5q-4 -2 -8.5 -4t-10.5 -3z" />
    <glyph glyph-name="uni00A0" unicode="&#xa0;" horiz-adv-x="217" 
 />
    <glyph glyph-name="exclamdown" unicode="&#xa1;" horiz-adv-x="291" 
d="M219 297q10 0 15.5 -7.5t3.5 -17.5l-91 -429q-2 -11 -10.5 -18t-19.5 -7h-115q-11 0 -16.5 7t-4.5 18l92 429q2 10 11 17.5t20 7.5h115zM269 518q11 0 17 -7.5t4 -17.5l-27 -123q-2 -11 -11 -18.5t-19 -7.5h-123q-11 0 -16.5 7.5t-3.5 18.5l26 123q2 10 10.5 17.5
t19.5 7.5h123z" />
    <glyph glyph-name="cent" unicode="&#xa2;" horiz-adv-x="599" 
d="M164 -100q-11 0 -16.5 7.5t-3.5 17.5l15 78q-71 19 -109 75t-23 141q3 16 8 40.5t9 40.5q23 92 81.5 150t145.5 73l13 62q2 11 11 18t19 7h100q10 0 16 -7t4 -18l-14 -65q60 -14 94.5 -45.5t48 -66.5t10.5 -61q-1 -10 -9.5 -17.5t-19.5 -7.5h-129q-10 0 -15.5 5t-7.5 16
q-2 30 -17.5 44t-45.5 14q-40 0 -68.5 -26t-41.5 -80q-5 -19 -9 -37.5t-6 -33.5q-10 -55 5 -80t55 -25q31 0 53.5 13.5t38.5 43.5q7 10 14 15t17 5h129q10 0 16 -7t3 -18q-5 -19 -20 -45t-42.5 -52.5t-68.5 -48t-97 -29.5l-14 -71q-2 -10 -10.5 -17.5t-19.5 -7.5h-99z" />
    <glyph glyph-name="sterling" unicode="&#xa3;" horiz-adv-x="721" 
d="M444 -8q-34 0 -60 7.5t-47.5 18t-40.5 21.5t-39 18t-42 7q-29 0 -46.5 -13.5t-30.5 -36.5q-3 -5 -7.5 -9.5t-12.5 -4.5h-105q-8 0 -12 5.5t-3 12.5q15 64 54.5 108.5t93.5 63.5q3 21 4.5 42t2.5 42h-75q-11 0 -16.5 7.5t-3.5 18.5l16 76q2 10 11 17.5t20 7.5h48
q2 11 4 23.5t5 25.5q18 83 61.5 141.5t111 89t156.5 30.5q85 0 142 -29t81.5 -81.5t10.5 -124.5q-1 -9 -9 -15.5t-17 -6.5h-134q-13 0 -20 6.5t-9 19.5q-2 43 -19.5 65t-55.5 22q-46 0 -74 -31.5t-39 -86.5q-2 -13 -4.5 -25t-3.5 -23h149q11 0 16.5 -7.5t3.5 -17.5l-16 -76
q-2 -11 -11 -18.5t-20 -7.5h-143q-2 -21 -5 -42t-8 -44q24 -5 41 -14t32 -18t31.5 -15.5t37.5 -6.5q34 0 55.5 16.5t37.5 42.5q3 4 8.5 8.5t12.5 4.5h91q9 0 13 -5.5t2 -13.5q-14 -63 -50 -106.5t-82 -66t-92 -22.5z" />
    <glyph glyph-name="currency" unicode="&#xa4;" horiz-adv-x="613" 
d="M71 52l-40 51q-5 8 -3 18t10 17l55 45q-20 53 -6 117q13 64 57 117l-36 45q-6 7 -4 17.5t11 17.5l63 52q9 7 19 7t16 -7l35 -46q29 15 60 23.5t64 8.5q31 0 59 -8.5t51 -23.5l54 46q9 7 19.5 7t16.5 -7l40 -52q5 -7 3 -17.5t-10 -17.5l-55 -45q9 -26 11 -55.5t-4 -61.5
q-7 -32 -22 -61.5t-36 -55.5l36 -45q6 -7 4 -17t-11 -18l-62 -51q-10 -7 -20 -7t-16 7l-35 45q-59 -32 -123 -32t-111 32l-54 -45q-9 -7 -19 -7t-17 7zM298 188q31 0 59.5 15t49.5 40.5t27 56.5q7 31 -3 57t-32 41t-54 15q-31 0 -59.5 -15t-49 -41t-27.5 -57
q-6 -31 3.5 -56.5t32 -40.5t53.5 -15z" />
    <glyph glyph-name="yen" unicode="&#xa5;" horiz-adv-x="689" 
d="M205 0q-10 0 -16 7.5t-4 17.5l47 223l-134 420q-2 6 -1 11q1 9 8.5 15t17.5 6h118q15 0 22 -7.5t9 -13.5l82 -247l187 247q4 6 14 13.5t25 7.5h133q9 0 14.5 -6.5t3.5 -14.5q-1 -3 -2.5 -5.5t-2.5 -5.5l-313 -420l-48 -223q-2 -10 -10.5 -17.5t-19.5 -7.5h-130zM66 67
q-11 0 -16.5 7t-4.5 18l17 78q2 11 11 18.5t20 7.5h438q11 0 16.5 -7.5t3.5 -18.5l-17 -78q-2 -11 -11 -18t-19 -7h-438zM98 218q-11 0 -17 7.5t-4 17.5l17 79q2 10 11 17.5t20 7.5h438q11 0 16.5 -7.5t3.5 -17.5l-17 -79q-2 -10 -11 -17.5t-19 -7.5h-438z" />
    <glyph glyph-name="brokenbar" unicode="&#xa6;" horiz-adv-x="269" 
d="M127 475q-10 0 -15.5 7.5t-3.5 17.5l65 304q2 11 11 18t19 7h91q10 0 15.5 -7t3.5 -18l-65 -304q-2 -10 -11 -17.5t-19 -7.5h-91zM27 0q-10 0 -16 7.5t-4 17.5l65 304q2 11 11 18t19 7h91q10 0 15.5 -7t3.5 -18l-65 -304q-2 -10 -10.5 -17.5t-18.5 -7.5h-91z" />
    <glyph glyph-name="section" unicode="&#xa7;" horiz-adv-x="605" 
d="M215 -140q-57 0 -97.5 14.5t-65 37.5t-34.5 48.5t-6 47.5q1 11 9 16.5t17 5.5h110q10 0 15 -4t9 -11q3 -10 9 -18.5t19.5 -14.5t38.5 -6q30 0 48.5 16.5t23.5 39.5q4 17 -1.5 30t-28.5 24.5t-73 23.5q-70 19 -108 45.5t-49.5 63.5t-0.5 89q9 43 35.5 76.5t65.5 58.5
q-7 16 -7.5 35.5t4.5 42.5q10 50 45 93.5t91 69.5t129 26q77 0 123.5 -24.5t66 -58.5t14.5 -64q-1 -10 -9 -16t-17 -6h-111q-10 0 -14.5 4.5t-9.5 11.5q-3 9 -9 17.5t-19 14t-38 5.5q-30 0 -49 -16.5t-23 -39.5q-4 -17 1.5 -30t28.5 -24t73 -23q70 -20 107.5 -46.5
t49.5 -63.5t0 -89q-9 -42 -35.5 -76t-64.5 -59q7 -17 7.5 -36t-4.5 -42q-10 -50 -45.5 -93t-91 -69.5t-129.5 -26.5zM372 206q22 7 35 19t17 29q4 18 -1 32t-23 25t-54 21q-30 10 -50.5 17t-39.5 14q-21 -5 -34 -18t-17 -29q-4 -17 1 -30.5t23 -25t55 -23.5q39 -13 88 -31z
" />
    <glyph glyph-name="dieresis" unicode="&#xa8;" horiz-adv-x="396" 
d="M256 607q-10 0 -15 6.5t-3 16.5l19 91q2 10 10 16.5t18 6.5h91q10 0 15.5 -6.5t3.5 -16.5l-20 -91q-2 -10 -9.5 -16.5t-17.5 -6.5h-92zM49 607q-10 0 -15 6.5t-3 16.5l20 91q2 10 9.5 16.5t17.5 6.5h92q10 0 15 -6.5t3 -16.5l-20 -91q-2 -10 -9.5 -16.5t-17.5 -6.5h-92z
" />
    <glyph glyph-name="copyright" unicode="&#xa9;" horiz-adv-x="809" 
d="M347 -10q-72 0 -132 29t-101.5 79.5t-57.5 116.5t0 141t55.5 139t97 112.5t128 75.5t147.5 27q72 0 132.5 -29t101.5 -79.5t57.5 -116.5t0.5 -141t-56 -139t-97.5 -112.5t-128 -75.5t-147.5 -27zM354 70q58 0 113 22t101 60.5t78 89t45 108.5q12 58 2 108.5t-39 89
t-74 60.5t-103 22q-57 0 -112 -22t-101 -60.5t-78.5 -89t-44.5 -108.5q-13 -58 -2.5 -108.5t39 -89t74 -60.5t102.5 -22zM382 158q-49 0 -84 20t-51.5 55t-9.5 81q1 7 3.5 22t6.5 30t5 22q12 46 36.5 81t64 55t94.5 20q57 0 92.5 -19t51.5 -47t12 -55q-1 -10 -9 -16t-18 -6
h-66q-11 0 -15.5 7t-5.5 14q-2 18 -13.5 26.5t-35.5 8.5q-25 0 -41 -11t-25 -27.5t-13 -33.5q-2 -7 -5 -20.5t-5.5 -27t-3.5 -20.5q-3 -16 -2.5 -33t10.5 -28t35 -11q24 0 41 8.5t28 27.5q5 6 11.5 13t18.5 7h66q10 0 15 -6t3 -16q-7 -26 -28 -54.5t-60.5 -47.5t-102.5 -19z
" />
    <glyph glyph-name="ordfeminine" unicode="&#xaa;" horiz-adv-x="355" 
d="M163 429q-43 0 -66.5 23t-18.5 56q7 38 42.5 60.5t91.5 31.5l58 9q2 7 2.5 14t-3.5 11t-18 4q-16 0 -24.5 -4t-14.5 -8.5t-16 -4.5h-61q-15 0 -12 14q4 12 17 28.5t40.5 29t74.5 12.5q60 0 92 -28t20 -81l-31 -145q-1 -7 -7 -12t-13 -5h-62q-8 0 -11.5 5t-2.5 12l2 11
q-13 -15 -33.5 -24t-45.5 -9zM195 497q25 0 41.5 14t20.5 39l-37 -7q-23 -5 -33.5 -12.5t-11.5 -16.5q-1 -8 4 -12.5t16 -4.5z" />
    <glyph glyph-name="guillemotleft" unicode="&#xab;" horiz-adv-x="621" 
d="M510 67q-3 0 -7.5 1.5t-9.5 6.5l-163 200q-5 7 -7.5 14.5t-1.5 15.5l11 48q2 8 7.5 15.5t13.5 14.5l249 200q6 5 11.5 6.5t7.5 1.5q9 0 14 -6t3 -15l-20 -95q-4 -15 -9.5 -23t-17.5 -18l-129 -105l84 -105q8 -10 10.5 -18t-0.5 -23l-20 -95q-2 -9 -9.5 -15t-16.5 -6z
M235 67q-3 0 -7.5 1.5t-8.5 6.5l-164 200q-5 7 -7 14.5t-1 15.5l10 48q2 8 7.5 15.5t13.5 14.5l249 200q6 5 11.5 6.5t8.5 1.5q9 0 13.5 -6t2.5 -15l-20 -95q-3 -15 -8.5 -23t-17.5 -18l-129 -105l84 -105q8 -10 10.5 -18t-1.5 -23l-20 -95q-2 -9 -9.5 -15t-16.5 -6z" />
    <glyph glyph-name="logicalnot" unicode="&#xac;" horiz-adv-x="571" 
d="M372 134q-11 0 -16.5 7t-3.5 18l21 100h-299q-11 0 -16.5 7t-3.5 18l16 78q2 10 11 17.5t20 7.5h404q10 0 15.5 -7.5t3.5 -17.5l-42 -203q-3 -11 -11.5 -18t-19.5 -7h-79z" />
    <glyph glyph-name="uni00AD" unicode="&#xad;" horiz-adv-x="600" 
d="M66 228q-11 0 -16.5 7t-3.5 18l20 94q3 11 11.5 18t18.5 7h314q11 0 17 -7t3 -18l-20 -94q-2 -11 -11 -18t-20 -7h-313z" />
    <glyph glyph-name="registered" unicode="&#xae;" horiz-adv-x="809" 
d="M348 -10q-73 0 -133 29t-101 79.5t-57.5 116.5t-0.5 141t55.5 139t97 112.5t128 75.5t147.5 27q72 0 132.5 -29t102 -79.5t57.5 -116.5t0 -141t-55.5 -139t-97 -112.5t-128 -75.5t-147.5 -27zM355 70q57 0 112 22t101.5 60.5t79 89t44.5 108.5t2 108.5t-39 89t-74.5 60.5
t-103.5 22q-56 0 -111 -22t-101.5 -60.5t-79 -89t-45.5 -108.5q-12 -58 -1.5 -108.5t39.5 -89t74 -60.5t103 -22zM253 168q-10 0 -14.5 6t-2.5 16l68 322q5 22 27 22h129q36 0 70.5 -11.5t54 -38.5t10.5 -72q-8 -40 -31 -65.5t-52 -37.5l31 -105q1 -3 1.5 -6t-0.5 -8
q-1 -8 -8.5 -15t-18.5 -7h-57q-10 0 -16 4.5t-9 14.5l-25 103h-48l-21 -100q-5 -22 -27 -22h-61zM379 373h56q25 0 37.5 12t15.5 27q3 17 -3.5 28.5t-32.5 11.5h-56z" />
    <glyph glyph-name="macron" unicode="&#xaf;" horiz-adv-x="371" 
d="M49 605q-10 0 -15 6.5t-3 16.5l15 70q2 10 10 16.5t18 6.5h279q10 0 14.5 -6.5t2.5 -16.5l-15 -70q-1 -10 -9 -16.5t-18 -6.5h-279z" />
    <glyph glyph-name="degree" unicode="&#xb0;" horiz-adv-x="410" 
d="M222 373q-50 0 -85 22.5t-50 60.5t-5 86t41 86t74.5 60t91.5 22q50 0 85 -22t50 -60t5 -86t-41 -86t-74.5 -60.5t-91.5 -22.5zM237 466q33 0 60 21t34 55q8 34 -7.5 55t-49.5 21q-33 0 -60 -21t-35 -55q-7 -34 8.5 -55t49.5 -21z" />
    <glyph glyph-name="plusminus" unicode="&#xb1;" horiz-adv-x="567" 
d="M222 189q-10 0 -16 7t-4 18l32 147h-143q-11 0 -16.5 7.5t-4.5 17.5l16 74q2 10 11 17.5t19 7.5h144l30 143q2 10 11 17.5t20 7.5h82q11 0 16.5 -7.5t3.5 -17.5l-31 -143h142q11 0 16.5 -7.5t3.5 -17.5l-16 -74q-1 -10 -10 -17.5t-20 -7.5h-142l-31 -147q-2 -11 -11 -18
t-19 -7h-83zM24 0q-10 0 -16 7.5t-4 17.5l15 74q3 10 11.5 17.5t19.5 7.5h398q10 0 16 -7.5t3 -17.5l-15 -74q-2 -10 -10.5 -17.5t-19.5 -7.5h-398z" />
    <glyph glyph-name="uni00B2" unicode="&#xb2;" horiz-adv-x="356" 
d="M74 350q-10 0 -14.5 6t-2.5 16l7 34q2 8 8.5 15.5t22.5 18.5q66 41 107 66.5t61.5 44.5t24.5 38q3 15 -3.5 24.5t-25.5 9.5q-15 0 -24 -5.5t-14 -11.5t-8 -11q-9 -11 -14.5 -14.5t-13.5 -3.5h-59q-19 0 -14 19q9 31 33.5 55.5t59 39t72.5 14.5q64 0 95 -31t21 -81
q-7 -31 -27 -56t-54 -49t-82 -53h121q10 0 14.5 -6t2.5 -16l-8 -41q-5 -22 -27 -22h-259z" />
    <glyph glyph-name="uni00B3" unicode="&#xb3;" horiz-adv-x="354" 
d="M197 345q-55 0 -84 15.5t-39 36.5t-7 39q1 10 9 14.5t12 4.5h39q9 0 17 -2t15 -4q8 -2 12 -7t12 -9t28 -4q23 0 37.5 8.5t18.5 22.5q3 18 -8.5 24t-32.5 6h-46q-9 0 -13.5 6t-2.5 15l5 24q2 8 5.5 12.5t9.5 9.5l71 55h-112q-10 0 -15 6t-3 16l10 44q5 22 26 22h224
q10 0 15 -6t3 -16l-9 -39q-1 -8 -5 -14.5t-15 -13.5l-74 -50q44 -8 64 -33t11 -70q-7 -34 -32 -59t-62.5 -39.5t-83.5 -14.5z" />
    <glyph glyph-name="acute" unicode="&#xb4;" horiz-adv-x="339" 
d="M44 595q-16 0 -13 16q2 8 8 13l111 107q13 12 21 15.5t20 3.5h132q17 0 15 -18q-1 -9 -8 -14l-155 -109q-10 -7 -19 -10.5t-23 -3.5h-89z" />
    <glyph glyph-name="uni00B5" unicode="&#xb5;" horiz-adv-x="655" 
d="M-19 -199q-10 0 -15.5 7t-3.5 18l141 669q2 11 11.5 18t19.5 7h129q11 0 16.5 -7t3.5 -18l-58 -273q-7 -31 0 -53t24.5 -33.5t41.5 -11.5q25 0 48 11.5t41 33.5t24 53l58 273q2 11 11 18t20 7h125q11 0 16 -7t3 -18l-99 -470q-2 -10 -10.5 -17.5t-19.5 -7.5h-116
q-10 0 -16 7.5t-4 17.5l8 38q-33 -35 -75.5 -52t-98.5 -17q-30 0 -52.5 9t-39 24t-31.5 33l120 58l-62 -292q-2 -11 -11 -18t-20 -7h-129z" />
    <glyph glyph-name="paragraph" unicode="&#xb6;" horiz-adv-x="629" 
d="M72 511q11 52 46 95t83.5 68.5t100.5 25.5h318q11 0 17 -7t4 -18l-160 -750q-2 -10 -11 -17.5t-20 -7.5h-82q-10 0 -15.5 7.5t-3.5 17.5l140 660h-79l-140 -660q-2 -10 -11 -17.5t-20 -7.5h-82q-11 0 -16.5 7.5t-3.5 17.5l85 396q-52 0 -90 25.5t-54 68.5t-6 96z" />
    <glyph glyph-name="periodcentered" unicode="&#xb7;" horiz-adv-x="337" 
d="M52 313q7 35 30 63t55.5 45t66.5 17q35 0 59.5 -17t35 -45.5t3.5 -62.5t-30 -63t-55 -45.5t-67 -16.5q-34 0 -59 16.5t-35.5 45.5t-3.5 63z" />
    <glyph glyph-name="cedilla" unicode="&#xb8;" horiz-adv-x="253" 
d="M115 -220q-27 0 -50 9t-32 21t4 21l21 16q10 8 16 5t15 -8t28 -5q15 0 26 8.5t14 21.5q3 12 -4.5 20.5t-22.5 8.5q-12 0 -23 -3.5t-20 -4t-14 5.5l-18 24q-4 7 -2 15t10 19l48 73h70l-55 -77q7 3 17.5 4.5t16.5 1.5q35 0 51.5 -26t8.5 -65q-8 -38 -34.5 -61.5
t-70.5 -23.5z" />
    <glyph glyph-name="uni00B9" unicode="&#xb9;" horiz-adv-x="308" 
d="M173 350q-10 0 -14.5 6t-2.5 16l43 208l-59 -39q-7 -5 -16 -4t-14 9l-19 35q-4 8 -1 16.5t11 14.5l124 81q11 7 24 7h60q10 0 15 -6t3 -16l-65 -306q-5 -22 -27 -22h-62z" />
    <glyph glyph-name="ordmasculine" unicode="&#xba;" horiz-adv-x="352" 
d="M210 429q-61 0 -96 29t-26 84q1 8 5 25.5t6 24.5q15 56 52 84.5t103 28.5q38 0 67.5 -13t45 -38t8.5 -62q-1 -7 -5 -24.5t-6 -25.5q-9 -37 -27.5 -62t-49 -38t-77.5 -13zM217 502q18 0 29 9.5t17 33.5q2 8 5.5 22.5t4.5 21.5q3 22 -2 32.5t-24 10.5t-30 -10.5t-17 -32.5
q-2 -7 -5.5 -21.5t-4.5 -22.5q-3 -24 2 -33.5t25 -9.5z" />
    <glyph glyph-name="guillemotright" unicode="&#xbb;" horiz-adv-x="621" 
d="M317 67q-9 0 -14 6t-3 15l20 95q4 15 10 23t17 18l129 105l-84 105q-7 10 -10 18t0 23l20 95q2 9 9.5 15t16.5 6q3 0 7.5 -1.5t8.5 -6.5l164 -200q6 -7 8 -14.5t1 -15.5l-11 -48q-1 -8 -6.5 -15.5t-14.5 -14.5l-249 -200q-6 -5 -11 -6.5t-8 -1.5zM42 67q-9 0 -13.5 6
t-2.5 15l20 95q3 15 9 23t17 18l129 105l-84 105q-7 10 -10 18t1 23l20 95q2 9 9.5 15t16.5 6q3 0 7 -1.5t9 -6.5l163 -200q6 -7 8.5 -14.5t0.5 -15.5l-10 -48q-2 -8 -7 -15.5t-15 -14.5l-249 -200q-5 -5 -10.5 -6.5t-8.5 -1.5z" />
    <glyph glyph-name="onequarter" unicode="&#xbc;" horiz-adv-x="872" 
d="M173 350q-10 0 -14.5 6t-2.5 16l43 208l-59 -39q-7 -5 -16 -4t-14 9l-19 35q-4 8 -1 16.5t11 14.5l124 81q11 7 24 7h60q10 0 15 -6t3 -16l-65 -306q-5 -22 -27 -22h-62zM72 0q-15 0 -18.5 10.5t5.5 20.5l632 650q9 9 17 14t22 5h58q15 0 19 -10.5t-7 -20.5l-631 -650
q-9 -9 -17 -14t-22 -5h-58zM664 0q-10 0 -14.5 6t-2.5 16l7 35h-149q-11 0 -15.5 6t-2.5 16l10 47q1 2 4 10t14 20l170 176q10 11 18 14.5t15 3.5h79q10 0 15 -6t3 -16l-39 -181h35q10 0 14.5 -6t2.5 -16l-9 -46q-5 -22 -27 -22h-35l-7 -35q-5 -22 -27 -22h-59zM606 144h68
l21 96z" />
    <glyph glyph-name="onehalf" unicode="&#xbd;" horiz-adv-x="855" 
d="M173 350q-10 0 -14.5 6t-2.5 16l43 208l-59 -39q-7 -5 -16 -4t-14 9l-19 35q-4 8 -1 16.5t11 14.5l124 81q11 7 24 7h60q10 0 15 -6t3 -16l-65 -306q-5 -22 -27 -22h-62zM72 0q-15 0 -18.5 10.5t5.5 20.5l632 650q9 9 17 14t22 5h58q15 0 19 -10.5t-7 -20.5l-631 -650
q-9 -9 -17 -14t-22 -5h-58zM498 0q-10 0 -14.5 6t-2.5 16l7 34q2 8 8.5 15.5t22.5 18.5q66 41 107 66.5t61.5 44.5t24.5 38q3 15 -3.5 24.5t-25.5 9.5q-15 0 -24 -5.5t-14 -11.5t-8 -11q-9 -11 -14.5 -14.5t-13.5 -3.5h-59q-19 0 -14 19q9 31 33.5 55.5t59 39t72.5 14.5
q64 0 95 -31t21 -81q-7 -31 -27 -56t-54 -49t-82 -53h121q10 0 14.5 -6t2.5 -16l-8 -41q-5 -22 -27 -22h-259z" />
    <glyph glyph-name="threequarters" unicode="&#xbe;" horiz-adv-x="918" 
d="M197 345q-55 0 -84 15.5t-39 36.5t-7 39q1 10 9 14.5t12 4.5h39q9 0 17 -2t15 -4q8 -2 12 -7t12 -9t28 -4q23 0 37.5 8.5t18.5 22.5q3 18 -8.5 24t-32.5 6h-46q-9 0 -13.5 6t-2.5 15l5 24q2 8 5.5 12.5t9.5 9.5l71 55h-112q-10 0 -15 6t-3 16l10 44q5 22 26 22h224
q10 0 15 -6t3 -16l-9 -39q-1 -8 -5 -14.5t-15 -13.5l-74 -50q44 -8 64 -33t11 -70q-7 -34 -32 -59t-62.5 -39.5t-83.5 -14.5zM118 0q-15 0 -18.5 10.5t5.5 20.5l632 650q9 9 17 14t22 5h58q15 0 19 -10.5t-7 -20.5l-631 -650q-9 -9 -17 -14t-22 -5h-58zM710 0q-10 0 -14.5 6
t-2.5 16l7 35h-149q-11 0 -15.5 6t-2.5 16l10 47q1 2 4 10t14 20l170 176q10 11 18 14.5t15 3.5h79q10 0 15 -6t3 -16l-39 -181h35q10 0 14.5 -6t2.5 -16l-9 -46q-5 -22 -27 -22h-35l-7 -35q-5 -22 -27 -22h-59zM652 144h68l21 96z" />
    <glyph glyph-name="questiondown" unicode="&#xbf;" horiz-adv-x="592" 
d="M525 307q9 0 13.5 -5.5t2.5 -13.5q-1 -6 -2.5 -12t-3.5 -11q-12 -35 -36 -63.5t-52 -52.5t-55 -45.5t-46.5 -41.5t-25.5 -41t1.5 -36.5t23.5 -24t37 -8.5q41 0 68.5 19.5t43.5 56.5q7 11 15.5 17.5t21.5 6.5h122q10 0 15 -7.5t3 -19.5q-10 -40 -36.5 -78t-68.5 -69.5
t-98.5 -50t-126.5 -18.5q-75 0 -120.5 18t-68.5 47t-27.5 61.5t2.5 60.5q9 36 27.5 65t44 53t51.5 47t48.5 45.5t37.5 47.5q4 7 7 13.5t6 13.5q9 13 16.5 19.5t19.5 6.5h140zM569 519q10 0 15.5 -7.5t3.5 -17.5l-24 -114q-2 -11 -11 -18t-19 -7h-129q-11 0 -16.5 7t-3.5 18
l24 114q2 10 11 17.5t20 7.5h129z" />
    <glyph glyph-name="Agrave" unicode="&#xc0;" horiz-adv-x="721" 
d="M-31 0q-12 0 -17 10t1 20l371 642q6 11 17 19.5t28 8.5h154q17 0 24.5 -8.5t8.5 -19.5l98 -642q3 -14 -5 -22t-18 -8h-121q-15 0 -21.5 7t-8.5 17l-17 99h-267l-60 -102q-5 -7 -13.5 -14t-23.5 -7h-130zM267 267h186l-37 264zM415 750q-14 0 -21 3.5t-14 10.5l-109 108
q-5 5 -3 14q3 19 23 19h134q12 0 18.5 -3.5t14.5 -15.5l65 -107q4 -6 2 -13q-3 -16 -19 -16h-91z" />
    <glyph glyph-name="Aacute" unicode="&#xc1;" horiz-adv-x="721" 
d="M-31 0q-12 0 -17 10t1 20l371 642q6 11 17 19.5t28 8.5h154q17 0 24.5 -8.5t8.5 -19.5l98 -642q3 -14 -5 -22t-18 -8h-121q-15 0 -21.5 7t-8.5 17l-17 99h-267l-60 -102q-5 -7 -13.5 -14t-23.5 -7h-130zM267 267h186l-37 264zM389 750q-16 0 -14 15q2 8 8 13l112 108
q13 12 21 15.5t20 3.5h140q8 0 12 -5t3 -13q0 -8 -8 -14l-156 -109q-10 -7 -18.5 -10.5t-22.5 -3.5h-97z" />
    <glyph glyph-name="Acircumflex" unicode="&#xc2;" horiz-adv-x="721" 
d="M-31 0q-12 0 -17 10t1 20l371 642q6 11 17 19.5t28 8.5h154q17 0 24.5 -8.5t8.5 -19.5l98 -642q3 -14 -5 -22t-18 -8h-121q-15 0 -21.5 7t-8.5 17l-17 99h-267l-60 -102q-5 -7 -13.5 -14t-23.5 -7h-130zM267 267h186l-37 264zM271 750q-14 0 -12 14q1 8 8 14l129 110
q12 11 20.5 14t17.5 3h85q10 0 17.5 -3t14.5 -14l81 -110q5 -6 3 -14q-3 -14 -18 -14h-47q-8 0 -15.5 1.5t-14.5 5.5l-77 49l-97 -49q-9 -4 -16.5 -5.5t-16.5 -1.5h-62z" />
    <glyph glyph-name="Atilde" unicode="&#xc3;" horiz-adv-x="721" 
d="M-31 0q-12 0 -17 10t1 20l371 642q6 11 17 19.5t28 8.5h154q17 0 24.5 -8.5t8.5 -19.5l98 -642q3 -14 -5 -22t-18 -8h-121q-15 0 -21.5 7t-8.5 17l-17 99h-267l-60 -102q-5 -7 -13.5 -14t-23.5 -7h-130zM267 267h186l-37 264zM525 745q-28 0 -45.5 9t-31.5 17.5t-32 8.5
q-16 0 -24 -7t-14.5 -15t-17.5 -8h-60q-7 0 -11 5.5t-3 11.5q3 16 12.5 38t25 42.5t39 34t55.5 13.5q27 0 45 -9t32 -18t31 -9q16 0 24 8t14.5 15.5t17.5 7.5h60q9 0 12.5 -5.5t1.5 -12.5q-3 -16 -12.5 -37.5t-25.5 -42t-39 -34t-54 -13.5z" />
    <glyph glyph-name="Adieresis" unicode="&#xc4;" horiz-adv-x="721" 
d="M-31 0q-12 0 -17 10t1 20l371 642q6 11 17 19.5t28 8.5h154q17 0 24.5 -8.5t8.5 -19.5l98 -642q3 -14 -5 -22t-18 -8h-121q-15 0 -21.5 7t-8.5 17l-17 99h-267l-60 -102q-5 -7 -13.5 -14t-23.5 -7h-130zM267 267h186l-37 264zM523 750q-10 0 -14.5 6t-2.5 17l19 91
q2 10 9.5 16.5t18.5 6.5h91q10 0 15 -6.5t3 -16.5l-19 -91q-2 -11 -10 -17t-18 -6h-92zM287 750q-10 0 -15 6t-3 17l19 91q2 10 10 16.5t18 6.5h92q10 0 15 -6.5t3 -16.5l-20 -91q-2 -11 -10 -17t-18 -6h-91z" />
    <glyph glyph-name="Aring" unicode="&#xc5;" horiz-adv-x="721" 
d="M-31 0q-12 0 -17 10t1 20l371 642q6 11 17 19.5t28 8.5h154q17 0 24.5 -8.5t8.5 -19.5l98 -642q3 -14 -5 -22t-18 -8h-121q-15 0 -21.5 7t-8.5 17l-17 99h-267l-60 -102q-5 -7 -13.5 -14t-23.5 -7h-130zM267 267h186l-37 264zM449 740q-38 0 -60.5 25t-14.5 63
q9 38 40.5 62.5t69.5 24.5t61 -24.5t14 -62.5q-8 -39 -40 -63.5t-70 -24.5zM459 798q14 0 24.5 8.5t13.5 21.5t-3.5 21.5t-19.5 8.5q-14 0 -24 -8.5t-13 -21.5t3.5 -21.5t18.5 -8.5z" />
    <glyph glyph-name="AE" unicode="&#xc6;" horiz-adv-x="989" 
d="M-25 0q-14 0 -17.5 11t2.5 21l369 640q6 12 17.5 20t26.5 8h625q11 0 16.5 -7t3.5 -18l-20 -94q-2 -11 -10.5 -18t-19.5 -7h-300l-29 -135h277q11 0 17 -7.5t4 -18.5l-19 -87q-2 -10 -11 -17.5t-20 -7.5h-277l-30 -139h308q11 0 16.5 -7t3.5 -18l-20 -94
q-2 -10 -10.5 -17.5t-19.5 -7.5h-456q-11 0 -17 7.5t-4 17.5l21 98h-200l-61 -102q-5 -7 -13.5 -14t-23.5 -7h-129zM273 267h159l62 286h-61z" />
    <glyph glyph-name="Ccedilla" unicode="&#xc7;" horiz-adv-x="701" 
d="M242 -220q-27 0 -47 9t-26.5 21t5.5 21l22 16q10 8 16 5.5t14.5 -8t27.5 -5.5q15 0 26.5 8.5t14.5 21.5q3 12 -4.5 20.5t-22.5 8.5q-12 0 -23 -3.5t-20 -4t-14 5.5l-15 20q-5 6 -3 13t10 19l30 46q-74 9 -122 42t-66 89.5t-4 135.5q7 41 17 88t21 90q22 87 73 148
t125.5 92t167.5 31q66 0 118.5 -16.5t88 -48t49.5 -76t3 -100.5q-1 -9 -9 -15t-17 -6h-135q-13 0 -18.5 5.5t-7.5 20.5q-2 53 -29.5 72.5t-73.5 19.5q-55 0 -94 -30.5t-57 -101.5q-10 -41 -18.5 -83t-16.5 -85q-12 -71 13.5 -101.5t80.5 -30.5q46 0 82 20t61 72
q7 15 15 20.5t21 5.5h135q9 0 14.5 -6t2.5 -15q-12 -56 -45.5 -100.5t-81.5 -76t-108 -48t-126 -16.5l-28 -40q6 3 17 4.5t17 1.5q36 0 52.5 -24t8.5 -63q-9 -38 -40 -63.5t-77 -25.5z" />
    <glyph glyph-name="Egrave" unicode="&#xc8;" horiz-adv-x="638" 
d="M32 0q-10 0 -16 7.5t-4 17.5l138 650q2 11 11 18t19 7h467q11 0 17 -7t4 -18l-20 -94q-2 -11 -11 -18t-20 -7h-318l-30 -135h297q11 0 16.5 -7.5t3.5 -18.5l-19 -87q-2 -10 -10.5 -17.5t-19.5 -7.5h-297l-29 -139h326q11 0 16.5 -7t3.5 -18l-20 -94q-2 -10 -10.5 -17.5
t-19.5 -7.5h-475zM382 750q-14 0 -21 3.5t-14 10.5l-109 108q-5 5 -3 14q3 19 23 19h134q12 0 18.5 -3.5t14.5 -15.5l65 -107q4 -6 2 -13q-3 -16 -19 -16h-91z" />
    <glyph glyph-name="Eacute" unicode="&#xc9;" horiz-adv-x="638" 
d="M32 0q-10 0 -16 7.5t-4 17.5l138 650q2 11 11 18t19 7h467q11 0 17 -7t4 -18l-20 -94q-2 -11 -11 -18t-20 -7h-318l-30 -135h297q11 0 16.5 -7.5t3.5 -18.5l-19 -87q-2 -10 -10.5 -17.5t-19.5 -7.5h-297l-29 -139h326q11 0 16.5 -7t3.5 -18l-20 -94q-2 -10 -10.5 -17.5
t-19.5 -7.5h-475zM357 750q-16 0 -14 15q2 8 8 13l112 108q13 12 21 15.5t20 3.5h140q8 0 12 -5t3 -13q0 -8 -8 -14l-156 -109q-10 -7 -18.5 -10.5t-22.5 -3.5h-97z" />
    <glyph glyph-name="Ecircumflex" unicode="&#xca;" horiz-adv-x="638" 
d="M32 0q-10 0 -16 7.5t-4 17.5l138 650q2 11 11 18t19 7h467q11 0 17 -7t4 -18l-20 -94q-2 -11 -11 -18t-20 -7h-318l-30 -135h297q11 0 16.5 -7.5t3.5 -18.5l-19 -87q-2 -10 -10.5 -17.5t-19.5 -7.5h-297l-29 -139h326q11 0 16.5 -7t3.5 -18l-20 -94q-2 -10 -10.5 -17.5
t-19.5 -7.5h-475zM239 750q-14 0 -12 14q1 8 8 14l129 110q12 11 20.5 14t17.5 3h85q10 0 17.5 -3t14.5 -14l81 -110q5 -6 3 -14q-3 -14 -18 -14h-47q-8 0 -15.5 1.5t-14.5 5.5l-77 49l-97 -49q-9 -4 -16.5 -5.5t-16.5 -1.5h-62z" />
    <glyph glyph-name="Edieresis" unicode="&#xcb;" horiz-adv-x="638" 
d="M32 0q-10 0 -16 7.5t-4 17.5l138 650q2 11 11 18t19 7h467q11 0 17 -7t4 -18l-20 -94q-2 -11 -11 -18t-20 -7h-318l-30 -135h297q11 0 16.5 -7.5t3.5 -18.5l-19 -87q-2 -10 -10.5 -17.5t-19.5 -7.5h-297l-29 -139h326q11 0 16.5 -7t3.5 -18l-20 -94q-2 -10 -10.5 -17.5
t-19.5 -7.5h-475zM491 750q-10 0 -14.5 6t-2.5 17l19 91q2 10 9.5 16.5t18.5 6.5h91q10 0 15 -6.5t3 -16.5l-19 -91q-2 -11 -10 -17t-18 -6h-92zM255 750q-10 0 -15 6t-3 17l19 91q2 10 10 16.5t18 6.5h92q10 0 15 -6.5t3 -16.5l-20 -91q-2 -11 -10 -17t-18 -6h-91z" />
    <glyph glyph-name="Igrave" unicode="&#xcc;" horiz-adv-x="324" 
d="M32 0q-11 0 -17 7.5t-4 17.5l139 650q2 11 11 18t19 7h135q10 0 16 -7t4 -18l-138 -650q-2 -10 -11 -17.5t-19 -7.5h-135zM222 750q-14 0 -21 3.5t-14 10.5l-109 108q-5 5 -3 14q3 19 23 19h134q12 0 18.5 -3.5t14.5 -15.5l65 -107q4 -6 2 -13q-3 -16 -19 -16h-91z" />
    <glyph glyph-name="Iacute" unicode="&#xcd;" horiz-adv-x="324" 
d="M32 0q-11 0 -17 7.5t-4 17.5l139 650q2 11 11 18t19 7h135q10 0 16 -7t4 -18l-138 -650q-2 -10 -11 -17.5t-19 -7.5h-135zM197 750q-16 0 -14 15q2 8 8 13l112 108q13 12 21 15.5t20 3.5h140q8 0 12 -5t3 -13q0 -8 -8 -14l-156 -109q-10 -7 -18.5 -10.5t-22.5 -3.5h-97z
" />
    <glyph glyph-name="Icircumflex" unicode="&#xce;" horiz-adv-x="324" 
d="M32 0q-11 0 -17 7.5t-4 17.5l139 650q2 11 11 18t19 7h135q10 0 16 -7t4 -18l-138 -650q-2 -10 -11 -17.5t-19 -7.5h-135zM79 750q-14 0 -12 14q1 8 8 14l129 110q12 11 20.5 14t17.5 3h85q10 0 17.5 -3t14.5 -14l81 -110q5 -6 3 -14q-3 -14 -18 -14h-47q-8 0 -15.5 1.5
t-14.5 5.5l-77 49l-97 -49q-9 -4 -16.5 -5.5t-16.5 -1.5h-62z" />
    <glyph glyph-name="Idieresis" unicode="&#xcf;" horiz-adv-x="324" 
d="M32 0q-11 0 -17 7.5t-4 17.5l139 650q2 11 11 18t19 7h135q10 0 16 -7t4 -18l-138 -650q-2 -10 -11 -17.5t-19 -7.5h-135zM331 750q-10 0 -14.5 6t-2.5 17l19 91q2 10 9.5 16.5t18.5 6.5h91q10 0 15 -6.5t3 -16.5l-19 -91q-2 -11 -10 -17t-18 -6h-92zM95 750q-10 0 -15 6
t-3 17l19 91q2 10 10 16.5t18 6.5h92q10 0 15 -6.5t3 -16.5l-20 -91q-2 -11 -10 -17t-18 -6h-91z" />
    <glyph glyph-name="Eth" unicode="&#xd0;" horiz-adv-x="732" 
d="M49 0q-11 0 -17 7.5t-4 17.5l57 268h-47q-11 0 -16 7t-4 18l15 69q2 11 11 18t19 7h48l55 263q2 11 11 18t20 7h243q65 0 120 -18t93 -52.5t54.5 -85.5t4.5 -117q-8 -44 -15 -77t-18 -76q-23 -93 -65.5 -154t-111.5 -90.5t-172 -29.5h-281zM233 144h106q43 0 74.5 13.5
t52 42.5t31.5 76q8 29 13 52t9.5 46t9.5 51q12 68 -14.5 99.5t-93.5 31.5h-100l-30 -144h91q10 0 15.5 -7t3.5 -18l-14 -69q-2 -11 -11 -18t-20 -7h-91z" />
    <glyph glyph-name="Ntilde" unicode="&#xd1;" horiz-adv-x="720" 
d="M32 0q-10 0 -16 7.5t-4 17.5l138 650q2 11 10.5 18t19.5 7h106q16 0 22 -7t8 -12l163 -387l81 381q2 11 11 18t19 7h120q11 0 17 -7t4 -18l-139 -649q-2 -11 -10.5 -18.5t-19.5 -7.5h-106q-16 0 -22 7.5t-8 11.5l-165 373l-78 -367q-2 -10 -11 -17.5t-20 -7.5h-120z
M518 745q-28 0 -45.5 9t-31.5 17.5t-32 8.5q-16 0 -24 -7t-14.5 -15t-17.5 -8h-60q-7 0 -11 5.5t-3 11.5q3 16 12.5 38t25 42.5t39 34t55.5 13.5q27 0 45 -9t32 -18t31 -9q16 0 24 8t14.5 15.5t17.5 7.5h60q9 0 12.5 -5.5t1.5 -12.5q-3 -16 -12.5 -37.5t-25.5 -42t-39 -34
t-54 -13.5z" />
    <glyph glyph-name="Ograve" unicode="&#xd2;" horiz-adv-x="712" 
d="M306 -10q-63 0 -116.5 17t-91 51t-53 85t-4.5 119q8 43 17.5 86.5t19.5 86.5q33 135 119 205t232 70q63 0 116.5 -17.5t91 -52.5t53 -86t3.5 -119q-7 -43 -16.5 -86.5t-19.5 -86.5q-34 -137 -120 -204.5t-231 -67.5zM320 134q54 0 94.5 32t57.5 102q11 44 19.5 83
t15.5 81q13 70 -12 102t-79 32t-94.5 -32t-57.5 -102q-11 -42 -19.5 -81t-16.5 -83q-12 -70 12 -102t80 -32zM410 750q-14 0 -21 3.5t-14 10.5l-109 108q-5 5 -3 14q3 19 23 19h134q12 0 18.5 -3.5t14.5 -15.5l65 -107q4 -6 2 -13q-3 -16 -19 -16h-91z" />
    <glyph glyph-name="Oacute" unicode="&#xd3;" horiz-adv-x="712" 
d="M306 -10q-63 0 -116.5 17t-91 51t-53 85t-4.5 119q8 43 17.5 86.5t19.5 86.5q33 135 119 205t232 70q63 0 116.5 -17.5t91 -52.5t53 -86t3.5 -119q-7 -43 -16.5 -86.5t-19.5 -86.5q-34 -137 -120 -204.5t-231 -67.5zM320 134q54 0 94.5 32t57.5 102q11 44 19.5 83
t15.5 81q13 70 -12 102t-79 32t-94.5 -32t-57.5 -102q-11 -42 -19.5 -81t-16.5 -83q-12 -70 12 -102t80 -32zM384 750q-16 0 -14 15q2 8 8 13l112 108q13 12 21 15.5t20 3.5h140q8 0 12 -5t3 -13q0 -8 -8 -14l-156 -109q-10 -7 -18.5 -10.5t-22.5 -3.5h-97z" />
    <glyph glyph-name="Ocircumflex" unicode="&#xd4;" horiz-adv-x="712" 
d="M306 -10q-63 0 -116.5 17t-91 51t-53 85t-4.5 119q8 43 17.5 86.5t19.5 86.5q33 135 119 205t232 70q63 0 116.5 -17.5t91 -52.5t53 -86t3.5 -119q-7 -43 -16.5 -86.5t-19.5 -86.5q-34 -137 -120 -204.5t-231 -67.5zM320 134q54 0 94.5 32t57.5 102q11 44 19.5 83
t15.5 81q13 70 -12 102t-79 32t-94.5 -32t-57.5 -102q-11 -42 -19.5 -81t-16.5 -83q-12 -70 12 -102t80 -32zM266 750q-14 0 -12 14q1 8 8 14l129 110q12 11 20.5 14t17.5 3h85q10 0 17.5 -3t14.5 -14l81 -110q5 -6 3 -14q-3 -14 -18 -14h-47q-8 0 -15.5 1.5t-14.5 5.5
l-77 49l-97 -49q-9 -4 -16.5 -5.5t-16.5 -1.5h-62z" />
    <glyph glyph-name="Otilde" unicode="&#xd5;" horiz-adv-x="712" 
d="M306 -10q-63 0 -116.5 17t-91 51t-53 85t-4.5 119q8 43 17.5 86.5t19.5 86.5q33 135 119 205t232 70q63 0 116.5 -17.5t91 -52.5t53 -86t3.5 -119q-7 -43 -16.5 -86.5t-19.5 -86.5q-34 -137 -120 -204.5t-231 -67.5zM320 134q54 0 94.5 32t57.5 102q11 44 19.5 83
t15.5 81q13 70 -12 102t-79 32t-94.5 -32t-57.5 -102q-11 -42 -19.5 -81t-16.5 -83q-12 -70 12 -102t80 -32zM520 745q-28 0 -45.5 9t-31.5 17.5t-32 8.5q-16 0 -24 -7t-14.5 -15t-17.5 -8h-60q-7 0 -11 5.5t-3 11.5q3 16 12.5 38t25 42.5t39 34t55.5 13.5q27 0 45 -9
t32 -18t31 -9q16 0 24 8t14.5 15.5t17.5 7.5h60q9 0 12.5 -5.5t1.5 -12.5q-3 -16 -12.5 -37.5t-25.5 -42t-39 -34t-54 -13.5z" />
    <glyph glyph-name="Odieresis" unicode="&#xd6;" horiz-adv-x="712" 
d="M306 -10q-63 0 -116.5 17t-91 51t-53 85t-4.5 119q8 43 17.5 86.5t19.5 86.5q33 135 119 205t232 70q63 0 116.5 -17.5t91 -52.5t53 -86t3.5 -119q-7 -43 -16.5 -86.5t-19.5 -86.5q-34 -137 -120 -204.5t-231 -67.5zM320 134q54 0 94.5 32t57.5 102q11 44 19.5 83
t15.5 81q13 70 -12 102t-79 32t-94.5 -32t-57.5 -102q-11 -42 -19.5 -81t-16.5 -83q-12 -70 12 -102t80 -32zM518 750q-10 0 -14.5 6t-2.5 17l19 91q2 10 9.5 16.5t18.5 6.5h91q10 0 15 -6.5t3 -16.5l-19 -91q-2 -11 -10 -17t-18 -6h-92zM282 750q-10 0 -15 6t-3 17l19 91
q2 10 10 16.5t18 6.5h92q10 0 15 -6.5t3 -16.5l-20 -91q-2 -11 -10 -17t-18 -6h-91z" />
    <glyph glyph-name="multiply" unicode="&#xd7;" horiz-adv-x="598" 
d="M94 55l-68 87q-5 7 -3 17t11 18l158 129l-101 130q-6 8 -4 18t11 18l87 71q9 7 19 7t17 -7l101 -132l161 133q9 8 19 8t16 -8l68 -86q6 -7 3.5 -17.5t-10.5 -17.5l-161 -132l102 -129q5 -8 3 -18t-11 -18l-86 -70q-10 -7 -20 -7t-16 7l-102 129l-159 -130q-9 -7 -19.5 -7
t-15.5 7z" />
    <glyph glyph-name="Oslash" unicode="&#xd8;" horiz-adv-x="712" 
d="M306 -10q-63 0 -116.5 17t-91 51t-53 85t-4.5 119q8 43 17.5 86.5t19.5 86.5q33 135 119 205t232 70q63 0 116.5 -17.5t91 -52.5t53 -86t3.5 -119q-7 -43 -16.5 -86.5t-19.5 -86.5q-34 -137 -120 -204.5t-231 -67.5zM320 134q54 0 94.5 32t57.5 102q11 44 19.5 83
t15.5 81q13 70 -12 102t-79 32t-94.5 -32t-57.5 -102q-11 -42 -19.5 -81t-16.5 -83q-12 -70 12 -102t80 -32zM29 -65q-12 0 -17.5 11.5t4.5 23.5l647 781q2 3 8 8.5t16 5.5h34q13 0 18 -11t-4 -23l-649 -781q-2 -3 -7.5 -9t-17.5 -6h-32z" />
    <glyph glyph-name="Ugrave" unicode="&#xd9;" horiz-adv-x="725" 
d="M312 -10q-64 0 -117.5 16.5t-90 50.5t-49.5 86t2 124l86 408q2 11 11 18t20 7h129q11 0 16.5 -7t3.5 -18l-87 -407q-14 -65 7 -97.5t82 -32.5q60 0 98 32.5t52 97.5l87 407q2 11 11 18t19 7h129q11 0 17 -7t4 -18l-87 -408q-30 -143 -113 -210t-230 -67zM413 750
q-14 0 -21 3.5t-14 10.5l-109 108q-5 5 -3 14q3 19 23 19h134q12 0 18.5 -3.5t14.5 -15.5l65 -107q4 -6 2 -13q-3 -16 -19 -16h-91z" />
    <glyph glyph-name="Uacute" unicode="&#xda;" horiz-adv-x="725" 
d="M312 -10q-64 0 -117.5 16.5t-90 50.5t-49.5 86t2 124l86 408q2 11 11 18t20 7h129q11 0 16.5 -7t3.5 -18l-87 -407q-14 -65 7 -97.5t82 -32.5q60 0 98 32.5t52 97.5l87 407q2 11 11 18t19 7h129q11 0 17 -7t4 -18l-87 -408q-30 -143 -113 -210t-230 -67zM387 750
q-16 0 -14 15q2 8 8 13l112 108q13 12 21 15.5t20 3.5h140q8 0 12 -5t3 -13q0 -8 -8 -14l-156 -109q-10 -7 -18.5 -10.5t-22.5 -3.5h-97z" />
    <glyph glyph-name="Ucircumflex" unicode="&#xdb;" horiz-adv-x="725" 
d="M312 -10q-64 0 -117.5 16.5t-90 50.5t-49.5 86t2 124l86 408q2 11 11 18t20 7h129q11 0 16.5 -7t3.5 -18l-87 -407q-14 -65 7 -97.5t82 -32.5q60 0 98 32.5t52 97.5l87 407q2 11 11 18t19 7h129q11 0 17 -7t4 -18l-87 -408q-30 -143 -113 -210t-230 -67zM269 750
q-14 0 -12 14q1 8 8 14l129 110q12 11 20.5 14t17.5 3h85q10 0 17.5 -3t14.5 -14l81 -110q5 -6 3 -14q-3 -14 -18 -14h-47q-8 0 -15.5 1.5t-14.5 5.5l-77 49l-97 -49q-9 -4 -16.5 -5.5t-16.5 -1.5h-62z" />
    <glyph glyph-name="Udieresis" unicode="&#xdc;" horiz-adv-x="725" 
d="M312 -10q-64 0 -117.5 16.5t-90 50.5t-49.5 86t2 124l86 408q2 11 11 18t20 7h129q11 0 16.5 -7t3.5 -18l-87 -407q-14 -65 7 -97.5t82 -32.5q60 0 98 32.5t52 97.5l87 407q2 11 11 18t19 7h129q11 0 17 -7t4 -18l-87 -408q-30 -143 -113 -210t-230 -67zM522 750
q-10 0 -14.5 6t-2.5 17l19 91q2 10 9.5 16.5t18.5 6.5h91q10 0 15 -6.5t3 -16.5l-19 -91q-2 -11 -10 -17t-18 -6h-92zM286 750q-10 0 -15 6t-3 17l19 91q2 10 10 16.5t18 6.5h92q10 0 15 -6.5t3 -16.5l-20 -91q-2 -11 -10 -17t-18 -6h-91z" />
    <glyph glyph-name="Yacute" unicode="&#xdd;" horiz-adv-x="679" 
d="M212 0q-11 0 -16.5 7.5t-3.5 17.5l45 215l-141 428q-4 12 4 22t21 10h118q15 0 21.5 -7.5t8.5 -13.5l88 -257l197 257q4 6 14 13.5t25 7.5h135q16 0 18 -11t-5 -21l-324 -428l-46 -215q-2 -10 -10.5 -17.5t-19.5 -7.5h-129zM354 750q-16 0 -14 15q2 8 8 13l112 108
q13 12 21 15.5t20 3.5h140q8 0 12 -5t3 -13q0 -8 -8 -14l-156 -109q-10 -7 -18.5 -10.5t-22.5 -3.5h-97z" />
    <glyph glyph-name="Thorn" unicode="&#xde;" horiz-adv-x="677" 
d="M32 0q-10 0 -16 7.5t-4 17.5l138 650q2 11 11 18t19 7h136q11 0 17 -7t4 -18l-20 -90h105q61 0 110 -14.5t82.5 -43.5t46.5 -72t1 -101q-25 -116 -101.5 -171t-206.5 -55h-134l-22 -103q-2 -10 -10.5 -17.5t-19.5 -7.5h-136zM246 266h115q41 0 73 22t42 67q6 26 2.5 46.5
t-20.5 32.5t-54 12h-120z" />
    <glyph glyph-name="germandbls" unicode="&#xdf;" horiz-adv-x="639" 
d="M35 0q-11 0 -16 7.5t-3 17.5l94 446q15 66 53 120t102.5 86.5t155.5 32.5q92 0 141.5 -29t65.5 -74.5t5 -94.5q-7 -33 -21.5 -59t-34.5 -45t-43 -32q32 -14 49 -37.5t21 -55.5t-5 -72q-8 -37 -31 -74t-60 -68t-89.5 -50t-120.5 -19h-50q-14 0 -19.5 7.5t-3.5 17.5l16 77
q2 10 11.5 17.5t22.5 7.5h26q49 0 81.5 25.5t40.5 65.5q9 39 -12 65t-74 26h-26q-13 0 -17.5 7t-2.5 18l14 67q2 10 8.5 17.5t22.5 7.5h22q47 1 76 21.5t36 56.5q7 34 -13.5 56.5t-62.5 22.5t-72.5 -26.5t-42.5 -83.5l-96 -448q-2 -10 -11 -17.5t-19 -7.5h-118z" />
    <glyph glyph-name="agrave" unicode="&#xe0;" horiz-adv-x="626" 
d="M195 -10q-48 0 -84.5 15.5t-58.5 46t-29 74t2 99.5q4 20 7 35.5t8 35.5q13 53 36 96t55 74t74.5 47.5t93.5 16.5q61 0 92.5 -17.5t50.5 -43.5l5 26q2 11 10.5 18t19.5 7h112q11 0 16.5 -7t3.5 -18l-99 -470q-2 -10 -10.5 -17.5t-19.5 -7.5h-113q-10 0 -16 7.5t-4 17.5
l7 32q-31 -29 -66.5 -48t-92.5 -19zM265 124q33 0 56 14.5t38 37.5t21 50q6 20 9.5 38t6.5 37q5 25 0.5 46.5t-21 35t-47.5 13.5q-32 0 -54 -14t-35.5 -38t-22.5 -53q-4 -15 -8 -31t-6 -31q-3 -29 -1 -53t17 -38t47 -14zM339 595q-14 0 -21 3.5t-14 10.5l-109 108
q-4 6 -3 14q3 19 22 19h139q12 0 19 -3.5t14 -15.5l65 -106q4 -6 2 -14q-3 -16 -19 -16h-95z" />
    <glyph glyph-name="aacute" unicode="&#xe1;" horiz-adv-x="626" 
d="M195 -10q-48 0 -84.5 15.5t-58.5 46t-29 74t2 99.5q4 20 7 35.5t8 35.5q13 53 36 96t55 74t74.5 47.5t93.5 16.5q61 0 92.5 -17.5t50.5 -43.5l5 26q2 11 10.5 18t19.5 7h112q11 0 16.5 -7t3.5 -18l-99 -470q-2 -10 -10.5 -17.5t-19.5 -7.5h-113q-10 0 -16 7.5t-4 17.5
l7 32q-31 -29 -66.5 -48t-92.5 -19zM265 124q33 0 56 14.5t38 37.5t21 50q6 20 9.5 38t6.5 37q5 25 0.5 46.5t-21 35t-47.5 13.5q-32 0 -54 -14t-35.5 -38t-22.5 -53q-4 -15 -8 -31t-6 -31q-3 -29 -1 -53t17 -38t47 -14zM310 595q-16 0 -13 16q2 8 8 13l111 107
q13 12 21 15.5t20 3.5h132q17 0 15 -18q-1 -9 -8 -14l-155 -109q-10 -7 -19 -10.5t-23 -3.5h-89z" />
    <glyph glyph-name="acircumflex" unicode="&#xe2;" horiz-adv-x="626" 
d="M195 -10q-48 0 -84.5 15.5t-58.5 46t-29 74t2 99.5q4 20 7 35.5t8 35.5q13 53 36 96t55 74t74.5 47.5t93.5 16.5q61 0 92.5 -17.5t50.5 -43.5l5 26q2 11 10.5 18t19.5 7h112q11 0 16.5 -7t3.5 -18l-99 -470q-2 -10 -10.5 -17.5t-19.5 -7.5h-113q-10 0 -16 7.5t-4 17.5
l7 32q-31 -29 -66.5 -48t-92.5 -19zM265 124q33 0 56 14.5t38 37.5t21 50q6 20 9.5 38t6.5 37q5 25 0.5 46.5t-21 35t-47.5 13.5q-32 0 -54 -14t-35.5 -38t-22.5 -53q-4 -15 -8 -31t-6 -31q-3 -29 -1 -53t17 -38t47 -14zM197 595q-14 0 -12 14q1 8 8 14l129 110
q12 11 20.5 14t17.5 3h79q10 0 17 -3t15 -14l81 -110q5 -6 3 -14q-3 -14 -18 -14h-44q-8 0 -15.5 1.5t-14.5 5.5l-77 49l-97 -49q-9 -4 -16.5 -5.5t-16.5 -1.5h-59z" />
    <glyph glyph-name="atilde" unicode="&#xe3;" horiz-adv-x="626" 
d="M195 -10q-48 0 -84.5 15.5t-58.5 46t-29 74t2 99.5q4 20 7 35.5t8 35.5q13 53 36 96t55 74t74.5 47.5t93.5 16.5q61 0 92.5 -17.5t50.5 -43.5l5 26q2 11 10.5 18t19.5 7h112q11 0 16.5 -7t3.5 -18l-99 -470q-2 -10 -10.5 -17.5t-19.5 -7.5h-113q-10 0 -16 7.5t-4 17.5
l7 32q-31 -29 -66.5 -48t-92.5 -19zM265 124q33 0 56 14.5t38 37.5t21 50q6 20 9.5 38t6.5 37q5 25 0.5 46.5t-21 35t-47.5 13.5q-32 0 -54 -14t-35.5 -38t-22.5 -53q-4 -15 -8 -31t-6 -31q-3 -29 -1 -53t17 -38t47 -14zM443 590q-28 0 -45 9t-30.5 17.5t-31.5 8.5
q-13 0 -21.5 -7t-15.5 -15t-18 -8h-60q-7 0 -11 5.5t-3 11.5q3 16 12 37.5t25 41.5t39.5 33.5t54.5 13.5q28 0 45 -9t31 -17.5t31 -8.5q14 0 21.5 7.5t14.5 15t18 7.5h60q8 0 12 -5t2 -13q-3 -16 -12 -37t-25 -41.5t-39 -33.5t-54 -13z" />
    <glyph glyph-name="adieresis" unicode="&#xe4;" horiz-adv-x="626" 
d="M195 -10q-48 0 -84.5 15.5t-58.5 46t-29 74t2 99.5q4 20 7 35.5t8 35.5q13 53 36 96t55 74t74.5 47.5t93.5 16.5q61 0 92.5 -17.5t50.5 -43.5l5 26q2 11 10.5 18t19.5 7h112q11 0 16.5 -7t3.5 -18l-99 -470q-2 -10 -10.5 -17.5t-19.5 -7.5h-113q-10 0 -16 7.5t-4 17.5
l7 32q-31 -29 -66.5 -48t-92.5 -19zM265 124q33 0 56 14.5t38 37.5t21 50q6 20 9.5 38t6.5 37q5 25 0.5 46.5t-21 35t-47.5 13.5q-32 0 -54 -14t-35.5 -38t-22.5 -53q-4 -15 -8 -31t-6 -31q-3 -29 -1 -53t17 -38t47 -14zM430 607q-10 0 -15 6.5t-3 16.5l19 91q2 10 10 16.5
t18 6.5h91q10 0 15.5 -6.5t3.5 -16.5l-20 -91q-2 -10 -9.5 -16.5t-17.5 -6.5h-92zM223 607q-10 0 -15 6.5t-3 16.5l20 91q2 10 9.5 16.5t17.5 6.5h92q10 0 15 -6.5t3 -16.5l-20 -91q-2 -10 -9.5 -16.5t-17.5 -6.5h-92z" />
    <glyph glyph-name="aring" unicode="&#xe5;" horiz-adv-x="626" 
d="M195 -10q-48 0 -84.5 15.5t-58.5 46t-29 74t2 99.5q4 20 7 35.5t8 35.5q13 53 36 96t55 74t74.5 47.5t93.5 16.5q61 0 92.5 -17.5t50.5 -43.5l5 26q2 11 10.5 18t19.5 7h112q11 0 16.5 -7t3.5 -18l-99 -470q-2 -10 -10.5 -17.5t-19.5 -7.5h-113q-10 0 -16 7.5t-4 17.5
l7 32q-31 -29 -66.5 -48t-92.5 -19zM265 124q33 0 56 14.5t38 37.5t21 50q6 20 9.5 38t6.5 37q5 25 0.5 46.5t-21 35t-47.5 13.5q-32 0 -54 -14t-35.5 -38t-22.5 -53q-4 -15 -8 -31t-6 -31q-3 -29 -1 -53t17 -38t47 -14zM367 590q-38 0 -60.5 25t-14.5 63q9 38 40.5 62.5
t69.5 24.5t61 -24.5t14 -62.5q-8 -39 -40 -63.5t-70 -24.5zM377 648q14 0 24.5 8.5t13.5 21.5t-3.5 21.5t-19.5 8.5q-14 0 -24 -8.5t-13 -21.5t3.5 -21.5t18.5 -8.5z" />
    <glyph glyph-name="ae" unicode="&#xe6;" horiz-adv-x="915" 
d="M177 -10q-63 0 -103.5 20.5t-57 55.5t-7.5 79q15 71 82 113t165 57l130 19l3 14q7 36 -4 54.5t-51 18.5q-24 0 -41.5 -9t-31.5 -19.5t-27 -17.5q-3 -4 -5.5 -6t-6.5 -2h-110q-10 0 -14.5 6.5t-2.5 15.5q3 18 21.5 41.5t51.5 46.5t80.5 38t110.5 15t99.5 -15.5t53.5 -40.5
q35 25 78.5 40.5t94.5 15.5q58 0 97.5 -15t64 -41.5t36 -60.5t11.5 -72.5t-7 -77.5l-5 -24q-2 -11 -11.5 -18t-19.5 -7h-316l-2 -7q-7 -37 -0.5 -60t22.5 -34t38 -11q20 0 40 9t38 27q11 10 17 13t18 3h122q10 0 14.5 -6t2.5 -16q-3 -16 -23 -40t-55.5 -47t-85 -39
t-111.5 -16q-66 0 -109.5 21.5t-67.5 57.5q-48 -45 -104.5 -62t-111.5 -17zM236 104q29 0 55 12.5t45.5 39t27.5 66.5l2 14l-88 -15q-49 -8 -74 -24.5t-29 -38.5q-3 -17 4 -29t22 -18.5t35 -6.5zM556 313h165l1 4q4 32 0 55.5t-18.5 36t-42.5 12.5q-22 0 -44 -11t-38.5 -34
t-22.5 -59v-4z" />
    <glyph glyph-name="ccedilla" unicode="&#xe7;" horiz-adv-x="589" 
d="M203 -220q-27 0 -49.5 9t-31.5 21t3 21l21 16q10 8 16 5t15 -8t28 -5q16 0 26.5 8.5t13.5 21.5q3 12 -4.5 20.5t-22.5 8.5q-12 0 -23 -3.5t-20 -4t-14 5.5l-18 24q-4 7 -1.5 15t9.5 19l28 42q-53 11 -92.5 40t-57 75.5t-6.5 107.5q3 16 8 40.5t9 40.5q27 110 104.5 170
t193.5 60q67 0 113 -19.5t73 -49.5t37.5 -60.5t7.5 -53.5q-1 -10 -9.5 -17.5t-19.5 -7.5h-129q-10 0 -15.5 5t-7.5 16q-2 30 -17.5 44t-45.5 14q-40 0 -68.5 -26t-41.5 -80q-5 -19 -9 -37.5t-6 -33.5q-10 -55 5 -80t55 -25q31 0 53.5 13.5t38.5 43.5q7 10 14 15t17 5h129
q10 0 16 -7t3 -18q-6 -20 -24.5 -50.5t-52.5 -60t-86 -49.5t-126 -21l-28 -39q7 2 17.5 3.5t16.5 1.5q35 0 51.5 -26t8.5 -65q-8 -38 -34 -61.5t-71 -23.5z" />
    <glyph glyph-name="egrave" unicode="&#xe8;" horiz-adv-x="592" 
d="M248 -10q-78 0 -130.5 28.5t-72 85.5t-4.5 140q2 7 4 18t4 17q20 79 64 135.5t108 86t141 29.5q88 0 138 -35t66 -95t1 -137l-5 -24q-2 -11 -11.5 -18t-19.5 -7h-320q0 -1 -0.5 -3t-1.5 -4q-5 -29 -1 -53t20 -38t43 -14q20 0 34.5 6.5t25.5 15t18 14.5q11 11 17 13.5
t18 2.5h124q10 0 15 -6t2 -16q-5 -17 -25.5 -41t-56.5 -47.5t-85 -38.5t-110 -15zM232 313h169l1 2q8 33 2.5 56.5t-22 36.5t-43.5 13t-48 -13t-35.5 -36.5t-22.5 -56.5zM340 595q-14 0 -21 3.5t-14 10.5l-109 108q-4 6 -3 14q3 19 22 19h139q12 0 19 -3.5t14 -15.5l65 -106
q4 -6 2 -14q-3 -16 -19 -16h-95z" />
    <glyph glyph-name="eacute" unicode="&#xe9;" horiz-adv-x="592" 
d="M248 -10q-78 0 -130.5 28.5t-72 85.5t-4.5 140q2 7 4 18t4 17q20 79 64 135.5t108 86t141 29.5q88 0 138 -35t66 -95t1 -137l-5 -24q-2 -11 -11.5 -18t-19.5 -7h-320q0 -1 -0.5 -3t-1.5 -4q-5 -29 -1 -53t20 -38t43 -14q20 0 34.5 6.5t25.5 15t18 14.5q11 11 17 13.5
t18 2.5h124q10 0 15 -6t2 -16q-5 -17 -25.5 -41t-56.5 -47.5t-85 -38.5t-110 -15zM232 313h169l1 2q8 33 2.5 56.5t-22 36.5t-43.5 13t-48 -13t-35.5 -36.5t-22.5 -56.5zM311 595q-16 0 -13 16q2 8 8 13l111 107q13 12 21 15.5t20 3.5h132q17 0 15 -18q-1 -9 -8 -14
l-155 -109q-10 -7 -19 -10.5t-23 -3.5h-89z" />
    <glyph glyph-name="ecircumflex" unicode="&#xea;" horiz-adv-x="592" 
d="M248 -10q-78 0 -130.5 28.5t-72 85.5t-4.5 140q2 7 4 18t4 17q20 79 64 135.5t108 86t141 29.5q88 0 138 -35t66 -95t1 -137l-5 -24q-2 -11 -11.5 -18t-19.5 -7h-320q0 -1 -0.5 -3t-1.5 -4q-5 -29 -1 -53t20 -38t43 -14q20 0 34.5 6.5t25.5 15t18 14.5q11 11 17 13.5
t18 2.5h124q10 0 15 -6t2 -16q-5 -17 -25.5 -41t-56.5 -47.5t-85 -38.5t-110 -15zM232 313h169l1 2q8 33 2.5 56.5t-22 36.5t-43.5 13t-48 -13t-35.5 -36.5t-22.5 -56.5zM197 595q-14 0 -12 14q1 8 8 14l129 110q12 11 20.5 14t17.5 3h79q10 0 17 -3t15 -14l81 -110
q5 -6 3 -14q-3 -14 -18 -14h-44q-8 0 -15.5 1.5t-14.5 5.5l-77 49l-97 -49q-9 -4 -16.5 -5.5t-16.5 -1.5h-59z" />
    <glyph glyph-name="edieresis" unicode="&#xeb;" horiz-adv-x="592" 
d="M248 -10q-78 0 -130.5 28.5t-72 85.5t-4.5 140q2 7 4 18t4 17q20 79 64 135.5t108 86t141 29.5q88 0 138 -35t66 -95t1 -137l-5 -24q-2 -11 -11.5 -18t-19.5 -7h-320q0 -1 -0.5 -3t-1.5 -4q-5 -29 -1 -53t20 -38t43 -14q20 0 34.5 6.5t25.5 15t18 14.5q11 11 17 13.5
t18 2.5h124q10 0 15 -6t2 -16q-5 -17 -25.5 -41t-56.5 -47.5t-85 -38.5t-110 -15zM232 313h169l1 2q8 33 2.5 56.5t-22 36.5t-43.5 13t-48 -13t-35.5 -36.5t-22.5 -56.5zM431 607q-10 0 -15 6.5t-3 16.5l19 91q2 10 10 16.5t18 6.5h91q10 0 15.5 -6.5t3.5 -16.5l-20 -91
q-2 -10 -9.5 -16.5t-17.5 -6.5h-92zM224 607q-10 0 -15 6.5t-3 16.5l20 91q2 10 9.5 16.5t17.5 6.5h92q10 0 15 -6.5t3 -16.5l-20 -91q-2 -10 -9.5 -16.5t-17.5 -6.5h-92z" />
    <glyph glyph-name="igrave" unicode="&#xec;" horiz-adv-x="286" 
d="M22 0q-11 0 -17 7.5t-4 17.5l100 470q2 11 11 18t20 7h118q11 0 16 -7t3 -18l-99 -470q-2 -10 -10.5 -17.5t-19.5 -7.5h-118zM176 595q-14 0 -21 3.5t-14 10.5l-109 108q-4 6 -3 14q3 19 22 19h139q12 0 19 -3.5t14 -15.5l65 -106q4 -6 2 -14q-3 -16 -19 -16h-95z" />
    <glyph glyph-name="iacute" unicode="&#xed;" horiz-adv-x="286" 
d="M22 0q-11 0 -17 7.5t-4 17.5l100 470q2 11 11 18t20 7h118q11 0 16 -7t3 -18l-99 -470q-2 -10 -10.5 -17.5t-19.5 -7.5h-118zM147 595q-16 0 -13 16q2 8 8 13l111 107q13 12 21 15.5t20 3.5h132q17 0 15 -18q-1 -9 -8 -14l-155 -109q-10 -7 -19 -10.5t-23 -3.5h-89z" />
    <glyph glyph-name="icircumflex" unicode="&#xee;" horiz-adv-x="286" 
d="M22 0q-11 0 -17 7.5t-4 17.5l100 470q2 11 11 18t20 7h118q11 0 16 -7t3 -18l-99 -470q-2 -10 -10.5 -17.5t-19.5 -7.5h-118zM34 595q-14 0 -12 14q1 8 8 14l129 110q12 11 20.5 14t17.5 3h79q10 0 17 -3t15 -14l81 -110q5 -6 3 -14q-3 -14 -18 -14h-44q-8 0 -15.5 1.5
t-14.5 5.5l-77 49l-97 -49q-9 -4 -16.5 -5.5t-16.5 -1.5h-59z" />
    <glyph glyph-name="idieresis" unicode="&#xef;" horiz-adv-x="286" 
d="M22 0q-11 0 -17 7.5t-4 17.5l100 470q2 11 11 18t20 7h118q11 0 16 -7t3 -18l-99 -470q-2 -10 -10.5 -17.5t-19.5 -7.5h-118zM267 607q-10 0 -15 6.5t-3 16.5l19 91q2 10 10 16.5t18 6.5h91q10 0 15.5 -6.5t3.5 -16.5l-20 -91q-2 -10 -9.5 -16.5t-17.5 -6.5h-92zM60 607
q-10 0 -15 6.5t-3 16.5l20 91q2 10 9.5 16.5t17.5 6.5h92q10 0 15 -6.5t3 -16.5l-20 -91q-2 -10 -9.5 -16.5t-17.5 -6.5h-92z" />
    <glyph glyph-name="eth" unicode="&#xf0;" horiz-adv-x="605" 
d="M249 -10q-81 0 -134 28t-74 82t-4 130q16 77 60.5 130.5t110 81.5t143.5 28q17 0 30.5 -3.5t24.5 -11.5q-3 23 -9.5 42.5t-16.5 37.5l-119 -43q-9 -3 -12 -3q-9 0 -13.5 5.5t-2.5 14.5l5 25q2 13 8.5 19.5t19.5 10.5l76 27q-15 18 -32 35t-36 33q-6 6 -8.5 11t-1.5 9
q2 9 9.5 15t16.5 6h125q17 0 27.5 -4t16.5 -9l20 -20t18 -21l98 36q9 3 13 3q9 0 13.5 -5.5t2.5 -14.5l-5 -25q-2 -12 -8.5 -18.5t-20.5 -11.5l-53 -19q34 -57 44.5 -134.5t-10.5 -189.5q-1 -10 -3.5 -20.5t-4.5 -19.5q-19 -75 -62 -128t-107 -81t-145 -28zM275 112
q30 0 52 13t36.5 36t20.5 51q3 10 4 17.5t3 17.5q6 29 2 52t-20 36t-48 13q-31 0 -53 -13t-35.5 -36t-19.5 -52q-3 -10 -5 -17.5t-3 -17.5q-5 -28 -1 -51t20 -36t47 -13z" />
    <glyph glyph-name="ntilde" unicode="&#xf1;" horiz-adv-x="643" 
d="M22 0q-11 0 -17 7.5t-4 17.5l100 470q2 11 11 18t20 7h115q11 0 16.5 -7t3.5 -18l-8 -38q31 31 74.5 52t98.5 21q63 0 104 -26t56 -76t-1 -124l-60 -279q-2 -10 -10.5 -17.5t-18.5 -7.5h-126q-11 0 -17 7.5t-4 17.5l58 273q11 49 -2.5 73.5t-59.5 24.5q-45 0 -76 -25.5
t-41 -72.5l-57 -273q-2 -10 -11 -17.5t-19 -7.5h-125zM455 590q-28 0 -45 9t-30.5 17.5t-31.5 8.5q-13 0 -21.5 -7t-15.5 -15t-18 -8h-60q-7 0 -11 5.5t-3 11.5q3 16 12 37.5t25 41.5t39.5 33.5t54.5 13.5q28 0 45 -9t31 -17.5t31 -8.5q14 0 21.5 7.5t14.5 15t18 7.5h60
q8 0 12 -5t2 -13q-3 -16 -12 -37t-25 -41.5t-39 -33.5t-54 -13z" />
    <glyph glyph-name="ograve" unicode="&#xf2;" horiz-adv-x="609" 
d="M247 -10q-80 0 -134 27t-77.5 77.5t-12.5 120.5q2 20 7.5 45.5t11.5 44.5q19 71 58 121t100.5 77t144.5 27q79 0 133 -27t79 -77t14 -121q-4 -19 -9 -44.5t-10 -45.5q-19 -70 -57 -120.5t-99 -77.5t-149 -27zM262 112q45 0 73 27t42 81q4 15 9.5 40t7.5 40q9 53 -5 80.5
t-59 27.5q-43 0 -71 -27.5t-42 -80.5q-4 -15 -9.5 -40t-7.5 -40q-9 -54 4.5 -81t57.5 -27zM334 595q-14 0 -21 3.5t-14 10.5l-109 108q-4 6 -3 14q3 19 22 19h139q12 0 19 -3.5t14 -15.5l65 -106q4 -6 2 -14q-3 -16 -19 -16h-95z" />
    <glyph glyph-name="oacute" unicode="&#xf3;" horiz-adv-x="609" 
d="M247 -10q-80 0 -134 27t-77.5 77.5t-12.5 120.5q2 20 7.5 45.5t11.5 44.5q19 71 58 121t100.5 77t144.5 27q79 0 133 -27t79 -77t14 -121q-4 -19 -9 -44.5t-10 -45.5q-19 -70 -57 -120.5t-99 -77.5t-149 -27zM262 112q45 0 73 27t42 81q4 15 9.5 40t7.5 40q9 53 -5 80.5
t-59 27.5q-43 0 -71 -27.5t-42 -80.5q-4 -15 -9.5 -40t-7.5 -40q-9 -54 4.5 -81t57.5 -27zM305 595q-16 0 -13 16q2 8 8 13l111 107q13 12 21 15.5t20 3.5h132q17 0 15 -18q-1 -9 -8 -14l-155 -109q-10 -7 -19 -10.5t-23 -3.5h-89z" />
    <glyph glyph-name="ocircumflex" unicode="&#xf4;" horiz-adv-x="609" 
d="M247 -10q-80 0 -134 27t-77.5 77.5t-12.5 120.5q2 20 7.5 45.5t11.5 44.5q19 71 58 121t100.5 77t144.5 27q79 0 133 -27t79 -77t14 -121q-4 -19 -9 -44.5t-10 -45.5q-19 -70 -57 -120.5t-99 -77.5t-149 -27zM262 112q45 0 73 27t42 81q4 15 9.5 40t7.5 40q9 53 -5 80.5
t-59 27.5q-43 0 -71 -27.5t-42 -80.5q-4 -15 -9.5 -40t-7.5 -40q-9 -54 4.5 -81t57.5 -27zM191 595q-14 0 -12 14q1 8 8 14l129 110q12 11 20.5 14t17.5 3h79q10 0 17 -3t15 -14l81 -110q5 -6 3 -14q-3 -14 -18 -14h-44q-8 0 -15.5 1.5t-14.5 5.5l-77 49l-97 -49
q-9 -4 -16.5 -5.5t-16.5 -1.5h-59z" />
    <glyph glyph-name="otilde" unicode="&#xf5;" horiz-adv-x="609" 
d="M247 -10q-80 0 -134 27t-77.5 77.5t-12.5 120.5q2 20 7.5 45.5t11.5 44.5q19 71 58 121t100.5 77t144.5 27q79 0 133 -27t79 -77t14 -121q-4 -19 -9 -44.5t-10 -45.5q-19 -70 -57 -120.5t-99 -77.5t-149 -27zM262 112q45 0 73 27t42 81q4 15 9.5 40t7.5 40q9 53 -5 80.5
t-59 27.5q-43 0 -71 -27.5t-42 -80.5q-4 -15 -9.5 -40t-7.5 -40q-9 -54 4.5 -81t57.5 -27zM438 590q-28 0 -45 9t-30.5 17.5t-31.5 8.5q-13 0 -21.5 -7t-15.5 -15t-18 -8h-60q-7 0 -11 5.5t-3 11.5q3 16 12 37.5t25 41.5t39.5 33.5t54.5 13.5q28 0 45 -9t31 -17.5t31 -8.5
q14 0 21.5 7.5t14.5 15t18 7.5h60q8 0 12 -5t2 -13q-3 -16 -12 -37t-25 -41.5t-39 -33.5t-54 -13z" />
    <glyph glyph-name="odieresis" unicode="&#xf6;" horiz-adv-x="609" 
d="M247 -10q-80 0 -134 27t-77.5 77.5t-12.5 120.5q2 20 7.5 45.5t11.5 44.5q19 71 58 121t100.5 77t144.5 27q79 0 133 -27t79 -77t14 -121q-4 -19 -9 -44.5t-10 -45.5q-19 -70 -57 -120.5t-99 -77.5t-149 -27zM262 112q45 0 73 27t42 81q4 15 9.5 40t7.5 40q9 53 -5 80.5
t-59 27.5q-43 0 -71 -27.5t-42 -80.5q-4 -15 -9.5 -40t-7.5 -40q-9 -54 4.5 -81t57.5 -27zM425 607q-10 0 -15 6.5t-3 16.5l19 91q2 10 10 16.5t18 6.5h91q10 0 15.5 -6.5t3.5 -16.5l-20 -91q-2 -10 -9.5 -16.5t-17.5 -6.5h-92zM218 607q-10 0 -15 6.5t-3 16.5l20 91
q2 10 9.5 16.5t17.5 6.5h92q10 0 15 -6.5t3 -16.5l-20 -91q-2 -10 -9.5 -16.5t-17.5 -6.5h-92z" />
    <glyph glyph-name="divide" unicode="&#xf7;" horiz-adv-x="532" 
d="M164 45q-10 0 -16 7.5t-4 17.5l19 89q2 11 11 18.5t19 7.5h96q11 0 16.5 -7.5t3.5 -18.5l-19 -89q-2 -10 -10.5 -17.5t-19.5 -7.5h-96zM243 416q-11 0 -16.5 7.5t-3.5 17.5l19 90q2 10 11 17.5t20 7.5h95q11 0 16.5 -7.5t3.5 -17.5l-19 -90q-2 -10 -11 -17.5t-20 -7.5
h-95zM56 236q-11 0 -16.5 7.5t-3.5 18.5l17 77q2 11 11 18t19 7h394q11 0 16.5 -7t3.5 -18l-17 -77q-2 -11 -11 -18.5t-19 -7.5h-394z" />
    <glyph glyph-name="oslash" unicode="&#xf8;" horiz-adv-x="609" 
d="M247 -10q-80 0 -134 27t-77.5 77.5t-12.5 120.5q2 20 7.5 45.5t11.5 44.5q19 71 58 121t100.5 77t144.5 27q79 0 133 -27t79 -77t14 -121q-4 -19 -9 -44.5t-10 -45.5q-19 -70 -57 -120.5t-99 -77.5t-149 -27zM262 112q45 0 73 27t42 81q4 15 9.5 40t7.5 40q9 53 -5 80.5
t-59 27.5q-43 0 -71 -27.5t-42 -80.5q-4 -15 -9.5 -40t-7.5 -40q-9 -54 4.5 -81t57.5 -27zM4 -28q-7 0 -13 5t-6 13t10 18l544 524q7 6 14 10.5t17 4.5h31q6 0 12 -5.5t6 -12.5q0 -9 -8 -17l-546 -525q-6 -6 -13 -10.5t-18 -4.5h-30z" />
    <glyph glyph-name="ugrave" unicode="&#xf9;" horiz-adv-x="640" 
d="M195 -10q-60 0 -101.5 26t-57 76.5t0.5 123.5l58 279q2 11 11 18t20 7h126q10 0 15.5 -7t3.5 -18l-57 -273q-7 -32 -4 -54t19 -33t46 -11q43 0 74.5 25.5t41.5 72.5l58 273q2 11 11 18t19 7h125q11 0 16.5 -7t3.5 -18l-100 -470q-2 -10 -10.5 -17.5t-19.5 -7.5h-115
q-11 0 -17 7.5t-4 17.5l8 38q-21 -23 -45 -39.5t-54 -25t-72 -8.5zM342 595q-14 0 -21 3.5t-14 10.5l-109 108q-4 6 -3 14q3 19 22 19h139q12 0 19 -3.5t14 -15.5l65 -106q4 -6 2 -14q-3 -16 -19 -16h-95z" />
    <glyph glyph-name="uacute" unicode="&#xfa;" horiz-adv-x="640" 
d="M195 -10q-60 0 -101.5 26t-57 76.5t0.5 123.5l58 279q2 11 11 18t20 7h126q10 0 15.5 -7t3.5 -18l-57 -273q-7 -32 -4 -54t19 -33t46 -11q43 0 74.5 25.5t41.5 72.5l58 273q2 11 11 18t19 7h125q11 0 16.5 -7t3.5 -18l-100 -470q-2 -10 -10.5 -17.5t-19.5 -7.5h-115
q-11 0 -17 7.5t-4 17.5l8 38q-21 -23 -45 -39.5t-54 -25t-72 -8.5zM313 595q-16 0 -13 16q2 8 8 13l111 107q13 12 21 15.5t20 3.5h132q17 0 15 -18q-1 -9 -8 -14l-155 -109q-10 -7 -19 -10.5t-23 -3.5h-89z" />
    <glyph glyph-name="ucircumflex" unicode="&#xfb;" horiz-adv-x="640" 
d="M195 -10q-60 0 -101.5 26t-57 76.5t0.5 123.5l58 279q2 11 11 18t20 7h126q10 0 15.5 -7t3.5 -18l-57 -273q-7 -32 -4 -54t19 -33t46 -11q43 0 74.5 25.5t41.5 72.5l58 273q2 11 11 18t19 7h125q11 0 16.5 -7t3.5 -18l-100 -470q-2 -10 -10.5 -17.5t-19.5 -7.5h-115
q-11 0 -17 7.5t-4 17.5l8 38q-21 -23 -45 -39.5t-54 -25t-72 -8.5zM200 595q-14 0 -12 14q1 8 8 14l129 110q12 11 20.5 14t17.5 3h79q10 0 17 -3t15 -14l81 -110q5 -6 3 -14q-3 -14 -18 -14h-44q-8 0 -15.5 1.5t-14.5 5.5l-77 49l-97 -49q-9 -4 -16.5 -5.5t-16.5 -1.5h-59z
" />
    <glyph glyph-name="udieresis" unicode="&#xfc;" horiz-adv-x="640" 
d="M195 -10q-60 0 -101.5 26t-57 76.5t0.5 123.5l58 279q2 11 11 18t20 7h126q10 0 15.5 -7t3.5 -18l-57 -273q-7 -32 -4 -54t19 -33t46 -11q43 0 74.5 25.5t41.5 72.5l58 273q2 11 11 18t19 7h125q11 0 16.5 -7t3.5 -18l-100 -470q-2 -10 -10.5 -17.5t-19.5 -7.5h-115
q-11 0 -17 7.5t-4 17.5l8 38q-21 -23 -45 -39.5t-54 -25t-72 -8.5zM434 607q-10 0 -15 6.5t-3 16.5l19 91q2 10 10 16.5t18 6.5h91q10 0 15.5 -6.5t3.5 -16.5l-20 -91q-2 -10 -9.5 -16.5t-17.5 -6.5h-92zM227 607q-10 0 -15 6.5t-3 16.5l20 91q2 10 9.5 16.5t17.5 6.5h92
q10 0 15 -6.5t3 -16.5l-20 -91q-2 -10 -9.5 -16.5t-17.5 -6.5h-92z" />
    <glyph glyph-name="yacute" unicode="&#xfd;" horiz-adv-x="604" 
d="M52 -190q-12 0 -16 10.5t3 21.5l122 192l-97 457q-2 11 5 20t22 9h106q13 0 18.5 -6.5t6.5 -14.5l56 -291l183 291q4 8 12.5 14.5t21.5 6.5h119q12 0 16.5 -9.5t-1.5 -20.5l-425 -659q-5 -8 -13.5 -14.5t-21.5 -6.5h-117zM308 595q-16 0 -13 16q2 8 8 13l111 107
q13 12 21 15.5t20 3.5h132q17 0 15 -18q-1 -9 -8 -14l-155 -109q-10 -7 -19 -10.5t-23 -3.5h-89z" />
    <glyph glyph-name="thorn" unicode="&#xfe;" horiz-adv-x="630" 
d="M-19 -190q-11 0 -16.5 7.5t-3.5 17.5l181 850q2 11 10.5 18t19.5 7h122q11 0 17 -7t4 -18l-48 -220q25 26 59 45.5t92 19.5q49 0 85.5 -15.5t59 -46t29.5 -74t-2 -99.5q-3 -19 -6.5 -34.5t-8.5 -35.5q-14 -53 -36.5 -96.5t-54.5 -74.5t-73 -47.5t-91 -16.5q-51 0 -87 18
t-52 49l-48 -222q-2 -10 -10.5 -17.5t-19.5 -7.5h-122zM285 124q33 0 55 14t36.5 38t23.5 53q5 15 8.5 31t4.5 31q4 29 1 53t-18 38t-48 14q-32 0 -56.5 -14.5t-39 -37.5t-21.5 -50q-6 -19 -9.5 -37t-6.5 -38q-4 -25 0.5 -46.5t21.5 -35t48 -13.5z" />
    <glyph glyph-name="ydieresis" unicode="&#xff;" horiz-adv-x="604" 
d="M52 -190q-12 0 -16 10.5t3 21.5l122 192l-97 457q-2 11 5 20t22 9h106q13 0 18.5 -6.5t6.5 -14.5l56 -291l183 291q4 8 12.5 14.5t21.5 6.5h119q12 0 16.5 -9.5t-1.5 -20.5l-425 -659q-5 -8 -13.5 -14.5t-21.5 -6.5h-117zM428 607q-10 0 -15 6.5t-3 16.5l19 91
q2 10 10 16.5t18 6.5h91q10 0 15.5 -6.5t3.5 -16.5l-20 -91q-2 -10 -9.5 -16.5t-17.5 -6.5h-92zM221 607q-10 0 -15 6.5t-3 16.5l20 91q2 10 9.5 16.5t17.5 6.5h92q10 0 15 -6.5t3 -16.5l-20 -91q-2 -10 -9.5 -16.5t-17.5 -6.5h-92z" />
    <glyph glyph-name="Amacron" unicode="&#x100;" horiz-adv-x="721" 
d="M-31 0q-12 0 -17 10t1 20l371 642q6 11 17 19.5t28 8.5h154q17 0 24.5 -8.5t8.5 -19.5l98 -642q3 -14 -5 -22t-18 -8h-121q-15 0 -21.5 7t-8.5 17l-17 99h-267l-60 -102q-5 -7 -13.5 -14t-23.5 -7h-130zM267 267h186l-37 264zM296 750q-10 0 -14.5 6.5t-2.5 16.5l15 73
q2 10 10 16.5t18 6.5h310q10 0 14.5 -6.5t2.5 -16.5l-15 -73q-1 -10 -9 -16.5t-18 -6.5h-311z" />
    <glyph glyph-name="amacron" unicode="&#x101;" horiz-adv-x="626" 
d="M195 -10q-48 0 -84.5 15.5t-58.5 46t-29 74t2 99.5q4 20 7 35.5t8 35.5q13 53 36 96t55 74t74.5 47.5t93.5 16.5q61 0 92.5 -17.5t50.5 -43.5l5 26q2 11 10.5 18t19.5 7h112q11 0 16.5 -7t3.5 -18l-99 -470q-2 -10 -10.5 -17.5t-19.5 -7.5h-113q-10 0 -16 7.5t-4 17.5
l7 32q-31 -29 -66.5 -48t-92.5 -19zM265 124q33 0 56 14.5t38 37.5t21 50q6 20 9.5 38t6.5 37q5 25 0.5 46.5t-21 35t-47.5 13.5q-32 0 -54 -14t-35.5 -38t-22.5 -53q-4 -15 -8 -31t-6 -31q-3 -29 -1 -53t17 -38t47 -14zM231 605q-10 0 -15 6.5t-3 16.5l15 70q2 10 10 16.5
t18 6.5h279q10 0 14.5 -6.5t2.5 -16.5l-15 -70q-1 -10 -9 -16.5t-18 -6.5h-279z" />
    <glyph glyph-name="Abreve" unicode="&#x102;" horiz-adv-x="721" 
d="M-31 0q-12 0 -17 10t1 20l371 642q6 11 17 19.5t28 8.5h154q17 0 24.5 -8.5t8.5 -19.5l98 -642q3 -14 -5 -22t-18 -8h-121q-15 0 -21.5 7t-8.5 17l-17 99h-267l-60 -102q-5 -7 -13.5 -14t-23.5 -7h-130zM267 267h186l-37 264zM457 743q-50 0 -82.5 19.5t-45.5 51.5t-5 70
q2 8 8 13.5t15 5.5h68q9 0 13 -5.5t2 -13.5q-4 -23 1.5 -41t33.5 -18t42 18t19 41q2 8 8 13.5t15 5.5h68q9 0 13 -5.5t2 -13.5q-8 -38 -27.5 -70t-55 -51.5t-92.5 -19.5z" />
    <glyph glyph-name="abreve" unicode="&#x103;" horiz-adv-x="626" 
d="M195 -10q-48 0 -84.5 15.5t-58.5 46t-29 74t2 99.5q4 20 7 35.5t8 35.5q13 53 36 96t55 74t74.5 47.5t93.5 16.5q61 0 92.5 -17.5t50.5 -43.5l5 26q2 11 10.5 18t19.5 7h112q11 0 16.5 -7t3.5 -18l-99 -470q-2 -10 -10.5 -17.5t-19.5 -7.5h-113q-10 0 -16 7.5t-4 17.5
l7 32q-31 -29 -66.5 -48t-92.5 -19zM265 124q33 0 56 14.5t38 37.5t21 50q6 20 9.5 38t6.5 37q5 25 0.5 46.5t-21 35t-47.5 13.5q-32 0 -54 -14t-35.5 -38t-22.5 -53q-4 -15 -8 -31t-6 -31q-3 -29 -1 -53t17 -38t47 -14zM379 590q-47 0 -78.5 19t-44.5 51t-5 71q2 8 8 13.5
t15 5.5h64q9 0 13 -5.5t2 -13.5q-4 -23 1.5 -41t31.5 -18q28 0 41.5 18t18.5 41q2 8 8 13.5t15 5.5h65q9 0 13 -5.5t2 -13.5q-8 -39 -27.5 -71t-54 -51t-88.5 -19z" />
    <glyph glyph-name="Aogonek" unicode="&#x104;" horiz-adv-x="716" 
d="M547 -220q-53 0 -83.5 21t-40 57t0.5 81q6 30 22.5 51t38.5 31q-8 2 -11 7.5t-3 10.5l-14 84h-268l-60 -102q-4 -6 -13 -13.5t-25 -7.5h-124q-8 0 -13 6.5t-3 14.5q0 2 1 4.5t2 4.5l371 642q6 11 17 19.5t28 8.5h149q17 0 25 -8.5t9 -19.5l98 -642q1 -2 0.5 -4.5
t-1.5 -4.5q-2 -8 -9.5 -14.5t-16.5 -6.5h-30q-28 -1 -46 -19.5t-23 -41.5q-6 -25 5 -43t42 -18h12q10 0 16 -7.5t4 -17.5l-11 -48q-2 -10 -11 -17.5t-19 -7.5h-16zM260 267h187l-37 264z" />
    <glyph glyph-name="aogonek" unicode="&#x105;" horiz-adv-x="626" 
d="M430 -220q-61 0 -90.5 32t-29.5 81q0 25 9 52t26.5 52t43.5 41v-38h-20q-12 0 -18.5 6.5t-3.5 21.5l7 29q-31 -29 -66.5 -48t-92.5 -19q-49 0 -85.5 16t-58.5 46.5t-28.5 74t2.5 98.5q4 20 7 35.5t8 35.5q13 53 36 96t55 74t74.5 47.5t93.5 16.5q61 0 92.5 -17.5
t50.5 -43.5l5 26q2 11 10.5 18t19.5 7h112q11 0 16.5 -7t3.5 -18l-99 -471q-2 -10 -9 -17.5t-17 -8.5l-6 -1q-27 -5 -46 -27t-19 -53q0 -17 10 -28t32 -11h8q11 0 16.5 -7.5t3.5 -17.5l-10 -48q-2 -10 -11 -17.5t-20 -7.5h-12zM265 124q33 0 56 14.5t38 37.5t21 50
q6 20 9.5 38t6.5 37q4 18 2.5 35t-9 30.5t-22.5 21.5t-39 8q-32 0 -54 -14t-35.5 -38t-22.5 -53q-4 -15 -8 -31t-6 -31q-2 -21 -2 -40t6 -33.5t20 -23t39 -8.5z" />
    <glyph glyph-name="Cacute" unicode="&#x106;" horiz-adv-x="701" 
d="M307 -10q-68 0 -122.5 17t-90.5 51.5t-50 85t-3 117.5q7 41 17.5 88t20.5 90q22 87 68 148t117 92t166 31q64 0 119 -16t93.5 -47.5t56 -76t6.5 -101.5q-2 -9 -8.5 -15t-15.5 -6h-136q-13 0 -19.5 5.5t-8.5 20.5q1 52 -27 72t-74 20q-55 0 -95 -30.5t-57 -101.5
q-21 -82 -36 -168q-12 -71 13 -101.5t79 -30.5q47 0 83.5 20t60.5 72q8 15 16 20.5t21 5.5h136q9 0 14 -6t3 -15q-14 -56 -43.5 -100.5t-73.5 -76t-101.5 -48t-128.5 -16.5zM390 750q-16 0 -14 15q2 8 8 13l112 108q13 12 21 15.5t20 3.5h140q8 0 12 -5t3 -13q0 -8 -8 -14
l-156 -109q-10 -7 -18.5 -10.5t-22.5 -3.5h-97z" />
    <glyph glyph-name="cacute" unicode="&#x107;" horiz-adv-x="589" 
d="M240 -10q-69 0 -123 27t-80 78.5t-14 123.5q3 16 8 40.5t9 40.5q27 110 104.5 170t193.5 60q67 0 113 -19.5t73 -49.5t37.5 -60.5t7.5 -53.5q-1 -10 -9.5 -17.5t-19.5 -7.5h-129q-10 0 -15.5 5t-7.5 16q-2 30 -17.5 44t-45.5 14q-40 0 -68.5 -26t-41.5 -80
q-5 -19 -9 -37.5t-6 -33.5q-10 -55 5 -80t55 -25q31 0 53.5 13.5t38.5 43.5q7 10 14 15t17 5h129q10 0 16 -7t3 -18q-6 -20 -24.5 -50.5t-52.5 -60.5t-87 -50t-127 -20zM296 595q-16 0 -13 16q2 8 8 13l111 107q13 12 21 15.5t20 3.5h132q17 0 15 -18q-1 -9 -8 -14
l-155 -109q-10 -7 -19 -10.5t-23 -3.5h-89z" />
    <glyph glyph-name="Ccircumflex" unicode="&#x108;" horiz-adv-x="701" 
d="M307 -10q-68 0 -122.5 17t-90.5 51.5t-50 85t-3 117.5q7 41 17.5 88t20.5 90q22 87 68 148t117 92t166 31q64 0 119 -16t93.5 -47.5t56 -76t6.5 -101.5q-2 -9 -8.5 -15t-15.5 -6h-136q-13 0 -19.5 5.5t-8.5 20.5q1 52 -27 72t-74 20q-55 0 -95 -30.5t-57 -101.5
q-21 -82 -36 -168q-12 -71 13 -101.5t79 -30.5q47 0 83.5 20t60.5 72q8 15 16 20.5t21 5.5h136q9 0 14 -6t3 -15q-14 -56 -43.5 -100.5t-73.5 -76t-101.5 -48t-128.5 -16.5zM272 750q-14 0 -12 14q1 8 8 14l129 110q12 11 20.5 14t17.5 3h85q10 0 17.5 -3t14.5 -14l81 -110
q5 -6 3 -14q-3 -14 -18 -14h-47q-8 0 -15.5 1.5t-14.5 5.5l-77 49l-97 -49q-9 -4 -16.5 -5.5t-16.5 -1.5h-62z" />
    <glyph glyph-name="ccircumflex" unicode="&#x109;" horiz-adv-x="589" 
d="M240 -10q-69 0 -123 27t-80 78.5t-14 123.5q3 16 8 40.5t9 40.5q27 110 104.5 170t193.5 60q67 0 113 -19.5t73 -49.5t37.5 -60.5t7.5 -53.5q-1 -10 -9.5 -17.5t-19.5 -7.5h-129q-10 0 -15.5 5t-7.5 16q-2 30 -17.5 44t-45.5 14q-40 0 -68.5 -26t-41.5 -80
q-5 -19 -9 -37.5t-6 -33.5q-10 -55 5 -80t55 -25q31 0 53.5 13.5t38.5 43.5q7 10 14 15t17 5h129q10 0 16 -7t3 -18q-6 -20 -24.5 -50.5t-52.5 -60.5t-87 -50t-127 -20zM183 595q-14 0 -12 14q1 8 8 14l129 110q12 11 20.5 14t17.5 3h79q10 0 17 -3t15 -14l81 -110
q5 -6 3 -14q-3 -14 -18 -14h-44q-8 0 -15.5 1.5t-14.5 5.5l-77 49l-97 -49q-9 -4 -16.5 -5.5t-16.5 -1.5h-59z" />
    <glyph glyph-name="Cdotaccent" unicode="&#x10a;" horiz-adv-x="701" 
d="M307 -10q-68 0 -122.5 17t-90.5 51.5t-50 85t-3 117.5q7 41 17.5 88t20.5 90q22 87 68 148t117 92t166 31q64 0 119 -16t93.5 -47.5t56 -76t6.5 -101.5q-2 -9 -8.5 -15t-15.5 -6h-136q-13 0 -19.5 5.5t-8.5 20.5q1 52 -27 72t-74 20q-55 0 -95 -30.5t-57 -101.5
q-21 -82 -36 -168q-12 -71 13 -101.5t79 -30.5q47 0 83.5 20t60.5 72q8 15 16 20.5t21 5.5h136q9 0 14 -6t3 -15q-14 -56 -43.5 -100.5t-73.5 -76t-101.5 -48t-128.5 -16.5zM400 750q-10 0 -15 6t-3 17l22 103q2 10 9.5 16.5t18.5 6.5h103q10 0 15 -6.5t3 -16.5l-22 -103
q-2 -11 -10 -17t-18 -6h-103z" />
    <glyph glyph-name="cdotaccent" unicode="&#x10b;" horiz-adv-x="589" 
d="M240 -10q-69 0 -123 27t-80 78.5t-14 123.5q3 16 8 40.5t9 40.5q27 110 104.5 170t193.5 60q67 0 113 -19.5t73 -49.5t37.5 -60.5t7.5 -53.5q-1 -10 -9.5 -17.5t-19.5 -7.5h-129q-10 0 -15.5 5t-7.5 16q-2 30 -17.5 44t-45.5 14q-40 0 -68.5 -26t-41.5 -80
q-5 -19 -9 -37.5t-6 -33.5q-10 -55 5 -80t55 -25q31 0 53.5 13.5t38.5 43.5q7 10 14 15t17 5h129q10 0 16 -7t3 -18q-6 -20 -24.5 -50.5t-52.5 -60.5t-87 -50t-127 -20zM306 603q-10 0 -15 6.5t-3 16.5l22 100q2 10 9.5 16.5t17.5 6.5h100q10 0 15 -6.5t3 -16.5l-21 -100
q-2 -10 -10 -16.5t-18 -6.5h-100z" />
    <glyph glyph-name="Ccaron" unicode="&#x10c;" horiz-adv-x="701" 
d="M307 -10q-68 0 -122.5 17t-90.5 51.5t-50 85t-3 117.5q7 41 17.5 88t20.5 90q22 87 68 148t117 92t166 31q64 0 119 -16t93.5 -47.5t56 -76t6.5 -101.5q-2 -9 -8.5 -15t-15.5 -6h-136q-13 0 -19.5 5.5t-8.5 20.5q1 52 -27 72t-74 20q-55 0 -95 -30.5t-57 -101.5
q-21 -82 -36 -168q-12 -71 13 -101.5t79 -30.5q47 0 83.5 20t60.5 72q8 15 16 20.5t21 5.5h136q9 0 14 -6t3 -15q-14 -56 -43.5 -100.5t-73.5 -76t-101.5 -48t-128.5 -16.5zM409 750q-9 0 -16 3.5t-15 13.5l-81 110q-5 6 -3 14q3 14 18 14h46q9 0 16.5 -1.5t14.5 -5.5
l76 -49l98 49q8 4 16 5.5t16 1.5h63q14 0 12 -14q-1 -7 -9 -13l-128 -111q-12 -10 -20.5 -13.5t-18.5 -3.5h-85z" />
    <glyph glyph-name="ccaron" unicode="&#x10d;" horiz-adv-x="589" 
d="M240 -10q-69 0 -123 27t-80 78.5t-14 123.5q3 16 8 40.5t9 40.5q27 110 104.5 170t193.5 60q67 0 113 -19.5t73 -49.5t37.5 -60.5t7.5 -53.5q-1 -10 -9.5 -17.5t-19.5 -7.5h-129q-10 0 -15.5 5t-7.5 16q-2 30 -17.5 44t-45.5 14q-40 0 -68.5 -26t-41.5 -80
q-5 -19 -9 -37.5t-6 -33.5q-10 -55 5 -80t55 -25q31 0 53.5 13.5t38.5 43.5q7 10 14 15t17 5h129q10 0 16 -7t3 -18q-6 -20 -24.5 -50.5t-52.5 -60.5t-87 -50t-127 -20zM317 595q-9 0 -16 3.5t-15 13.5l-81 110q-5 6 -3 13q1 7 6 11t12 4h43q9 0 16.5 -1.5t14.5 -5.5l76 -49
l98 49q8 4 16 5.5t16 1.5h59q14 0 13 -14q-2 -7 -9 -13l-128 -111q-12 -10 -20.5 -13.5t-18.5 -3.5h-79z" />
    <glyph glyph-name="Dcaron" unicode="&#x10e;" horiz-adv-x="716" 
d="M32 0q-10 0 -16 7.5t-4 17.5l138 650q2 11 11 18t19 7h244q65 0 119.5 -18t93 -52.5t55 -85.5t3.5 -117q-7 -44 -14 -77t-18 -76q-23 -93 -65.5 -154t-111.5 -90.5t-173 -29.5h-281zM217 144h105q44 0 75.5 13.5t52 42.5t31.5 76q7 29 12.5 52t10 46t9.5 51
q12 68 -15 99.5t-93 31.5h-100zM369 750q-9 0 -16 3.5t-15 13.5l-81 110q-5 6 -3 14q3 14 18 14h46q9 0 16.5 -1.5t14.5 -5.5l76 -49l98 49q8 4 16 5.5t16 1.5h63q14 0 12 -14q-1 -7 -9 -13l-128 -111q-12 -10 -20.5 -13.5t-18.5 -3.5h-85z" />
    <glyph glyph-name="dcaron" unicode="&#x10f;" horiz-adv-x="737" 
d="M197 -10q-49 0 -85.5 15.5t-59 46t-29.5 74t1 99.5q4 20 7.5 35.5t8.5 35.5q13 53 36 96t55 74t73 47.5t91 16.5q51 0 87 -16.5t54 -42.5l46 214q2 11 10.5 18t18.5 7h122q11 0 17 -7t4 -18l-141 -660q-2 -10 -10.5 -17.5t-19.5 -7.5h-112q-11 0 -17 7.5t-4 17.5l7 32
q-30 -29 -66.5 -48t-93.5 -19zM266 124q33 0 57 14.5t39 37.5t22 50q5 20 9 38t7 37q4 25 -1 46.5t-21.5 35t-48.5 13.5q-31 0 -53.5 -14t-37 -38t-23.5 -53q-4 -15 -7.5 -31t-5.5 -31q-4 -29 -1 -53t18.5 -38t46.5 -14zM689 525q-9 0 -13 6.5t-2 15.5l47 129q5 13 16 23.5
t28 10.5h105q8 0 12 -6t2 -14q-1 -2 -1.5 -5t-3.5 -6l-75 -126q-7 -10 -16.5 -19t-26.5 -9h-72z" />
    <glyph glyph-name="Dcroat" unicode="&#x110;" horiz-adv-x="732" 
d="M49 0q-11 0 -17 7.5t-4 17.5l57 268h-47q-11 0 -16 7t-4 18l15 69q2 11 11 18t19 7h48l55 263q2 11 11 18t20 7h243q65 0 120 -18t93 -52.5t54.5 -85.5t4.5 -117q-8 -44 -15 -77t-18 -76q-23 -93 -65.5 -154t-111.5 -90.5t-172 -29.5h-281zM233 144h106q43 0 74.5 13.5
t52 42.5t31.5 76q8 29 13 52t9.5 46t9.5 51q12 68 -14.5 99.5t-93.5 31.5h-100l-30 -144h91q10 0 15.5 -7t3.5 -18l-14 -69q-2 -11 -11 -18t-20 -7h-91z" />
    <glyph glyph-name="dcroat" unicode="&#x111;" horiz-adv-x="631" 
d="M187 -10q-51 0 -87 16.5t-55.5 48t-24 74.5t4.5 96q3 20 6.5 35.5t8.5 35.5q12 50 35 93t56.5 74.5t76.5 49t94 17.5q50 0 82.5 -16.5t51.5 -42.5l18 86h-40q-11 0 -16.5 7t-3.5 18l8 37q2 11 10.5 18t19.5 7h40l10 41q2 11 10.5 18t18.5 7h122q11 0 17 -7t4 -18l-9 -41
h40q11 0 17 -7t4 -18l-8 -37q-2 -11 -11 -18t-20 -7h-41l-113 -532q-2 -10 -10.5 -17.5t-19.5 -7.5h-112q-11 0 -17 7.5t-4 17.5l8 37q-29 -31 -72 -51.5t-99 -20.5zM270 124q33 0 56 14.5t37 37.5t21 50q5 20 9 38t7 37q5 25 -0.5 46.5t-22.5 35t-49 13.5q-33 0 -55.5 -14
t-36 -38t-21.5 -53q-4 -15 -7.5 -31t-5.5 -31q-5 -29 -1.5 -53t20 -38t49.5 -14z" />
    <glyph glyph-name="Emacron" unicode="&#x112;" horiz-adv-x="638" 
d="M32 0q-10 0 -16 7.5t-4 17.5l138 650q2 11 11 18t19 7h467q11 0 17 -7t4 -18l-20 -94q-2 -11 -11 -18t-20 -7h-318l-30 -135h297q11 0 16.5 -7.5t3.5 -18.5l-19 -87q-2 -10 -10.5 -17.5t-19.5 -7.5h-297l-29 -139h326q11 0 16.5 -7t3.5 -18l-20 -94q-2 -10 -10.5 -17.5
t-19.5 -7.5h-475zM263 750q-10 0 -14.5 6.5t-2.5 16.5l15 73q2 10 10 16.5t18 6.5h310q10 0 14.5 -6.5t2.5 -16.5l-15 -73q-1 -10 -9 -16.5t-18 -6.5h-311z" />
    <glyph glyph-name="emacron" unicode="&#x113;" horiz-adv-x="592" 
d="M248 -10q-78 0 -130.5 28.5t-72 85.5t-4.5 140q2 7 4 18t4 17q20 79 64 135.5t108 86t141 29.5q88 0 138 -35t66 -95t1 -137l-5 -24q-2 -11 -11.5 -18t-19.5 -7h-320q0 -1 -0.5 -3t-1.5 -4q-5 -29 -1 -53t20 -38t43 -14q20 0 34.5 6.5t25.5 15t18 14.5q11 11 17 13.5
t18 2.5h124q10 0 15 -6t2 -16q-5 -17 -25.5 -41t-56.5 -47.5t-85 -38.5t-110 -15zM232 313h169l1 2q8 33 2.5 56.5t-22 36.5t-43.5 13t-48 -13t-35.5 -36.5t-22.5 -56.5zM232 605q-10 0 -15 6.5t-3 16.5l15 70q2 10 10 16.5t18 6.5h279q10 0 14.5 -6.5t2.5 -16.5l-15 -70
q-1 -10 -9 -16.5t-18 -6.5h-279z" />
    <glyph glyph-name="Ebreve" unicode="&#x114;" horiz-adv-x="638" 
d="M32 0q-10 0 -16 7.5t-4 17.5l138 650q2 11 11 18t19 7h467q11 0 17 -7t4 -18l-20 -94q-2 -11 -11 -18t-20 -7h-318l-30 -135h297q11 0 16.5 -7.5t3.5 -18.5l-19 -87q-2 -10 -10.5 -17.5t-19.5 -7.5h-297l-29 -139h326q11 0 16.5 -7t3.5 -18l-20 -94q-2 -10 -10.5 -17.5
t-19.5 -7.5h-475zM424 743q-50 0 -82.5 19.5t-45.5 51.5t-5 70q2 8 8 13.5t15 5.5h68q9 0 13 -5.5t2 -13.5q-4 -23 1.5 -41t33.5 -18t42 18t19 41q2 8 8 13.5t15 5.5h68q9 0 13 -5.5t2 -13.5q-8 -38 -27.5 -70t-55 -51.5t-92.5 -19.5z" />
    <glyph glyph-name="ebreve" unicode="&#x115;" horiz-adv-x="592" 
d="M248 -10q-78 0 -130.5 28.5t-72 85.5t-4.5 140q2 7 4 18t4 17q20 79 64 135.5t108 86t141 29.5q88 0 138 -35t66 -95t1 -137l-5 -24q-2 -11 -11.5 -18t-19.5 -7h-320q0 -1 -0.5 -3t-1.5 -4q-5 -29 -1 -53t20 -38t43 -14q20 0 34.5 6.5t25.5 15t18 14.5q11 11 17 13.5
t18 2.5h124q10 0 15 -6t2 -16q-5 -17 -25.5 -41t-56.5 -47.5t-85 -38.5t-110 -15zM232 313h169l1 2q8 33 2.5 56.5t-22 36.5t-43.5 13t-48 -13t-35.5 -36.5t-22.5 -56.5zM379 590q-47 0 -78.5 19t-44.5 51t-5 71q2 8 8 13.5t15 5.5h64q9 0 13 -5.5t2 -13.5q-4 -23 1.5 -41
t31.5 -18q28 0 41.5 18t18.5 41q2 8 8 13.5t15 5.5h65q9 0 13 -5.5t2 -13.5q-8 -39 -27.5 -71t-54 -51t-88.5 -19z" />
    <glyph glyph-name="Edotaccent" unicode="&#x116;" horiz-adv-x="638" 
d="M32 0q-10 0 -16 7.5t-4 17.5l138 650q2 11 11 18t19 7h467q11 0 17 -7t4 -18l-20 -94q-2 -11 -11 -18t-20 -7h-318l-30 -135h297q11 0 16.5 -7.5t3.5 -18.5l-19 -87q-2 -10 -10.5 -17.5t-19.5 -7.5h-297l-29 -139h326q11 0 16.5 -7t3.5 -18l-20 -94q-2 -10 -10.5 -17.5
t-19.5 -7.5h-475zM367 750q-10 0 -15 6t-3 17l22 103q2 10 9.5 16.5t18.5 6.5h103q10 0 15 -6.5t3 -16.5l-22 -103q-2 -11 -10 -17t-18 -6h-103z" />
    <glyph glyph-name="edotaccent" unicode="&#x117;" horiz-adv-x="592" 
d="M248 -10q-78 0 -130.5 28.5t-72 85.5t-4.5 140q2 7 4 18t4 17q20 79 64 135.5t108 86t141 29.5q88 0 138 -35t66 -95t1 -137l-5 -24q-2 -11 -11.5 -18t-19.5 -7h-320q0 -1 -0.5 -3t-1.5 -4q-5 -29 -1 -53t20 -38t43 -14q20 0 34.5 6.5t25.5 15t18 14.5q11 11 17 13.5
t18 2.5h124q10 0 15 -6t2 -16q-5 -17 -25.5 -41t-56.5 -47.5t-85 -38.5t-110 -15zM232 313h169l1 2q8 33 2.5 56.5t-22 36.5t-43.5 13t-48 -13t-35.5 -36.5t-22.5 -56.5zM321 603q-10 0 -15 6.5t-3 16.5l22 100q2 10 9.5 16.5t17.5 6.5h100q10 0 15 -6.5t3 -16.5l-21 -100
q-2 -10 -10 -16.5t-18 -6.5h-100z" />
    <glyph glyph-name="Eogonek" unicode="&#x118;" horiz-adv-x="638" 
d="M451 -220q-53 0 -85.5 22.5t-43.5 60t-1 82.5q3 16 8.5 29.5t12.5 25.5h-310q-10 0 -16 7.5t-4 17.5l138 650q2 11 11 18t19 7h467q11 0 17 -7t4 -18l-20 -94q-3 -11 -11.5 -18t-19.5 -7h-318l-30 -135h297q11 0 16.5 -7.5t3.5 -18.5l-19 -87q-2 -10 -10.5 -17.5
t-19.5 -7.5h-297l-29 -139h326q11 0 16.5 -7t3.5 -18l-20 -94q-2 -10 -10.5 -17.5t-19.5 -7.5h-18q-28 -1 -45 -19.5t-22 -41.5q-5 -25 6 -43t41 -18h12q11 0 16.5 -7.5t3.5 -17.5l-11 -48q-1 -10 -10 -17.5t-20 -7.5h-9z" />
    <glyph glyph-name="eogonek" unicode="&#x119;" horiz-adv-x="595" 
d="M256 -220q-52 0 -82.5 21t-40 57t0.5 81q3 17 9 33t15 29q-73 22 -104 83.5t-12 159.5q1 7 3 17t4 17q20 79 64 135.5t108 86.5t142 30q87 0 137.5 -35t66.5 -95t0 -137l-5 -24q-3 -11 -11.5 -18t-19.5 -7h-320l-1 -7q-5 -29 -1 -53t19.5 -38t42.5 -14q20 0 35 6.5
t25.5 15t17.5 14.5q11 11 17.5 13.5t17.5 2.5h124q10 0 15 -6t2 -16q-5 -20 -32.5 -48.5t-74 -53.5t-110.5 -35q-32 -6 -50 -19.5t-23 -36.5q-6 -25 5 -43t41 -18h12q11 0 16.5 -7.5t3.5 -17.5l-10 -48q-2 -10 -11 -17.5t-20 -7.5h-16zM232 313h169l1 2q7 33 1.5 56.5
t-21.5 36.5t-43 13t-48.5 -13t-36 -36.5t-21.5 -56.5z" />
    <glyph glyph-name="Ecaron" unicode="&#x11a;" horiz-adv-x="638" 
d="M32 0q-10 0 -16 7.5t-4 17.5l138 650q2 11 11 18t19 7h467q11 0 17 -7t4 -18l-20 -94q-2 -11 -11 -18t-20 -7h-318l-30 -135h297q11 0 16.5 -7.5t3.5 -18.5l-19 -87q-2 -10 -10.5 -17.5t-19.5 -7.5h-297l-29 -139h326q11 0 16.5 -7t3.5 -18l-20 -94q-2 -10 -10.5 -17.5
t-19.5 -7.5h-475zM376 750q-9 0 -16 3.5t-15 13.5l-81 110q-5 6 -3 14q3 14 18 14h46q9 0 16.5 -1.5t14.5 -5.5l76 -49l98 49q8 4 16 5.5t16 1.5h63q14 0 12 -14q-1 -7 -9 -13l-128 -111q-12 -10 -20.5 -13.5t-18.5 -3.5h-85z" />
    <glyph glyph-name="ecaron" unicode="&#x11b;" horiz-adv-x="592" 
d="M248 -10q-78 0 -130.5 28.5t-72 85.5t-4.5 140q2 7 4 18t4 17q20 79 64 135.5t108 86t141 29.5q88 0 138 -35t66 -95t1 -137l-5 -24q-2 -11 -11.5 -18t-19.5 -7h-320q0 -1 -0.5 -3t-1.5 -4q-5 -29 -1 -53t20 -38t43 -14q20 0 34.5 6.5t25.5 15t18 14.5q11 11 17 13.5
t18 2.5h124q10 0 15 -6t2 -16q-5 -17 -25.5 -41t-56.5 -47.5t-85 -38.5t-110 -15zM232 313h169l1 2q8 33 2.5 56.5t-22 36.5t-43.5 13t-48 -13t-35.5 -36.5t-22.5 -56.5zM331 595q-9 0 -16 3.5t-15 13.5l-81 110q-5 6 -3 13q1 7 6 11t12 4h43q9 0 16.5 -1.5t14.5 -5.5
l76 -49l98 49q8 4 16 5.5t16 1.5h59q14 0 13 -14q-2 -7 -9 -13l-128 -111q-12 -10 -20.5 -13.5t-18.5 -3.5h-79z" />
    <glyph glyph-name="Gcircumflex" unicode="&#x11c;" horiz-adv-x="720" 
d="M308 -10q-95 0 -156.5 31.5t-86.5 92t-10 147.5q8 43 18.5 91.5t20.5 92.5q21 85 72 144t126.5 90t168.5 31q75 0 129 -18.5t87 -49.5t46 -68t7 -73q-2 -9 -9.5 -15t-17.5 -6h-146q-10 0 -15 3.5t-8 10.5q-3 15 -13 31.5t-31 28.5t-59 12q-57 0 -96 -30t-56 -96
q-10 -42 -19.5 -86t-17.5 -88q-12 -70 15.5 -101t84.5 -31q37 0 69.5 13t55.5 40.5t31 70.5l4 19h-94q-11 0 -16.5 7.5t-3.5 18.5l16 74q2 11 11 18.5t20 7.5h252q11 0 16.5 -7.5t3.5 -18.5l-24 -114q-18 -86 -70.5 -147t-131 -93.5t-173.5 -32.5zM276 750q-14 0 -12 14
q1 8 8 14l129 110q12 11 20.5 14t17.5 3h85q10 0 17.5 -3t14.5 -14l81 -110q5 -6 3 -14q-3 -14 -18 -14h-47q-8 0 -15.5 1.5t-14.5 5.5l-77 49l-97 -49q-9 -4 -16.5 -5.5t-16.5 -1.5h-62z" />
    <glyph glyph-name="gcircumflex" unicode="&#x11d;" horiz-adv-x="633" 
d="M211 -220q-74 0 -121 20t-73 48t-35 55.5t-7 43.5q2 11 10.5 18.5t18.5 7.5h129q10 0 15 -5t6 -16q3 -11 8.5 -22.5t19.5 -19.5t41 -8t49.5 9.5t39 31t24.5 57.5l14 67q-30 -25 -64 -40.5t-85 -15.5q-52 0 -89 15t-58.5 45t-28 73t2.5 99q2 15 4.5 26.5t6.5 26.5
q14 53 36.5 96t53.5 74t72 47.5t93 16.5q54 0 92 -20.5t55 -51.5l8 37q2 10 11 17.5t20 7.5h115q11 0 16.5 -7.5t3.5 -17.5l-101 -481q-12 -57 -36 -100.5t-61 -73.5t-88.5 -45t-117.5 -15zM270 141q31 0 54.5 14t39 36t22.5 47q2 11 6.5 31t5.5 30q4 26 -0.5 48t-21 35.5
t-48.5 13.5q-31 0 -53.5 -14t-37.5 -38t-23 -53q-2 -10 -5 -22t-4 -23q-4 -29 -1.5 -53t18 -38t48.5 -14zM193 595q-14 0 -12 14q1 8 8 14l129 110q12 11 20.5 14t17.5 3h79q10 0 17 -3t15 -14l81 -110q5 -6 3 -14q-3 -14 -18 -14h-44q-8 0 -15.5 1.5t-14.5 5.5l-77 49
l-97 -49q-9 -4 -16.5 -5.5t-16.5 -1.5h-59z" />
    <glyph glyph-name="Gbreve" unicode="&#x11e;" horiz-adv-x="720" 
d="M308 -10q-95 0 -156.5 31.5t-86.5 92t-10 147.5q8 43 18.5 91.5t20.5 92.5q21 85 72 144t126.5 90t168.5 31q75 0 129 -18.5t87 -49.5t46 -68t7 -73q-2 -9 -9.5 -15t-17.5 -6h-146q-10 0 -15 3.5t-8 10.5q-3 15 -13 31.5t-31 28.5t-59 12q-57 0 -96 -30t-56 -96
q-10 -42 -19.5 -86t-17.5 -88q-12 -70 15.5 -101t84.5 -31q37 0 69.5 13t55.5 40.5t31 70.5l4 19h-94q-11 0 -16.5 7.5t-3.5 18.5l16 74q2 11 11 18.5t20 7.5h252q11 0 16.5 -7.5t3.5 -18.5l-24 -114q-18 -86 -70.5 -147t-131 -93.5t-173.5 -32.5zM461 743q-50 0 -82.5 19.5
t-45.5 51.5t-5 70q2 8 8 13.5t15 5.5h68q9 0 13 -5.5t2 -13.5q-4 -23 1.5 -41t33.5 -18t42 18t19 41q2 8 8 13.5t15 5.5h68q9 0 13 -5.5t2 -13.5q-8 -38 -27.5 -70t-55 -51.5t-92.5 -19.5z" />
    <glyph glyph-name="gbreve" unicode="&#x11f;" horiz-adv-x="633" 
d="M211 -220q-74 0 -121 20t-73 48t-35 55.5t-7 43.5q2 11 10.5 18.5t18.5 7.5h129q10 0 15 -5t6 -16q3 -11 8.5 -22.5t19.5 -19.5t41 -8t49.5 9.5t39 31t24.5 57.5l14 67q-30 -25 -64 -40.5t-85 -15.5q-52 0 -89 15t-58.5 45t-28 73t2.5 99q2 15 4.5 26.5t6.5 26.5
q14 53 36.5 96t53.5 74t72 47.5t93 16.5q54 0 92 -20.5t55 -51.5l8 37q2 10 11 17.5t20 7.5h115q11 0 16.5 -7.5t3.5 -17.5l-101 -481q-12 -57 -36 -100.5t-61 -73.5t-88.5 -45t-117.5 -15zM270 141q31 0 54.5 14t39 36t22.5 47q2 11 6.5 31t5.5 30q4 26 -0.5 48t-21 35.5
t-48.5 13.5q-31 0 -53.5 -14t-37.5 -38t-23 -53q-2 -10 -5 -22t-4 -23q-4 -29 -1.5 -53t18 -38t48.5 -14zM375 590q-47 0 -78.5 19t-44.5 51t-5 71q2 8 8 13.5t15 5.5h64q9 0 13 -5.5t2 -13.5q-4 -23 1.5 -41t31.5 -18q28 0 41.5 18t18.5 41q2 8 8 13.5t15 5.5h65
q9 0 13 -5.5t2 -13.5q-8 -39 -27.5 -71t-54 -51t-88.5 -19z" />
    <glyph glyph-name="Gdotaccent" unicode="&#x120;" horiz-adv-x="720" 
d="M308 -10q-95 0 -156.5 31.5t-86.5 92t-10 147.5q8 43 18.5 91.5t20.5 92.5q21 85 72 144t126.5 90t168.5 31q75 0 129 -18.5t87 -49.5t46 -68t7 -73q-2 -9 -9.5 -15t-17.5 -6h-146q-10 0 -15 3.5t-8 10.5q-3 15 -13 31.5t-31 28.5t-59 12q-57 0 -96 -30t-56 -96
q-10 -42 -19.5 -86t-17.5 -88q-12 -70 15.5 -101t84.5 -31q37 0 69.5 13t55.5 40.5t31 70.5l4 19h-94q-11 0 -16.5 7.5t-3.5 18.5l16 74q2 11 11 18.5t20 7.5h252q11 0 16.5 -7.5t3.5 -18.5l-24 -114q-18 -86 -70.5 -147t-131 -93.5t-173.5 -32.5zM404 750q-10 0 -15 6
t-3 17l22 103q2 10 9.5 16.5t18.5 6.5h103q10 0 15 -6.5t3 -16.5l-22 -103q-2 -11 -10 -17t-18 -6h-103z" />
    <glyph glyph-name="gdotaccent" unicode="&#x121;" horiz-adv-x="633" 
d="M211 -220q-74 0 -121 20t-73 48t-35 55.5t-7 43.5q2 11 10.5 18.5t18.5 7.5h129q10 0 15 -5t6 -16q3 -11 8.5 -22.5t19.5 -19.5t41 -8t49.5 9.5t39 31t24.5 57.5l14 67q-30 -25 -64 -40.5t-85 -15.5q-52 0 -89 15t-58.5 45t-28 73t2.5 99q2 15 4.5 26.5t6.5 26.5
q14 53 36.5 96t53.5 74t72 47.5t93 16.5q54 0 92 -20.5t55 -51.5l8 37q2 10 11 17.5t20 7.5h115q11 0 16.5 -7.5t3.5 -17.5l-101 -481q-12 -57 -36 -100.5t-61 -73.5t-88.5 -45t-117.5 -15zM270 141q31 0 54.5 14t39 36t22.5 47q2 11 6.5 31t5.5 30q4 26 -0.5 48t-21 35.5
t-48.5 13.5q-31 0 -53.5 -14t-37.5 -38t-23 -53q-2 -10 -5 -22t-4 -23q-4 -29 -1.5 -53t18 -38t48.5 -14zM316 603q-10 0 -15 6.5t-3 16.5l22 100q2 10 9.5 16.5t17.5 6.5h100q10 0 15 -6.5t3 -16.5l-21 -100q-2 -10 -10 -16.5t-18 -6.5h-100z" />
    <glyph glyph-name="uni0122" unicode="&#x122;" horiz-adv-x="720" 
d="M308 -10q-95 0 -156.5 31.5t-86.5 92t-10 147.5q8 43 18.5 91.5t20.5 92.5q21 85 72 144t126.5 90t168.5 31q75 0 129 -18.5t87 -49.5t46 -68t7 -73q-2 -9 -9.5 -15t-17.5 -6h-146q-10 0 -15 3.5t-8 10.5q-3 15 -13 31.5t-31 28.5t-59 12q-57 0 -96 -30t-56 -96
q-10 -42 -19.5 -86t-17.5 -88q-12 -70 15.5 -101t84.5 -31q37 0 69.5 13t55.5 40.5t31 70.5l4 19h-94q-11 0 -16.5 7.5t-3.5 18.5l16 74q2 11 11 18.5t20 7.5h252q11 0 16.5 -7.5t3.5 -18.5l-24 -114q-18 -86 -70.5 -147t-131 -93.5t-173.5 -32.5zM163 -235q-9 0 -13.5 7
t-0.5 16l47 128q5 13 16 23.5t28 10.5h111q8 0 12 -5.5t3 -11.5q0 -7 -4 -14l-77 -126q-6 -10 -16 -19t-26 -9h-80z" />
    <glyph glyph-name="uni0123" unicode="&#x123;" horiz-adv-x="633" 
d="M211 -220q-74 0 -121 20t-73 48t-35 55.5t-7 43.5q2 11 10.5 18.5t18.5 7.5h129q10 0 15 -5t6 -16q3 -11 8.5 -22.5t19.5 -19.5t41 -8t49.5 9.5t39 31t24.5 57.5l14 67q-30 -25 -64 -40.5t-85 -15.5q-52 0 -89 15t-58.5 45t-28 73t2.5 99q2 15 4.5 26.5t6.5 26.5
q14 53 36.5 96t53.5 74t72 47.5t93 16.5q54 0 92 -20.5t55 -51.5l8 37q2 10 11 17.5t20 7.5h115q11 0 16.5 -7.5t3.5 -17.5l-101 -481q-12 -57 -36 -100.5t-61 -73.5t-88.5 -45t-117.5 -15zM270 141q31 0 54.5 14t39 36t22.5 47q2 11 6.5 31t5.5 30q4 26 -0.5 48t-21 35.5
t-48.5 13.5q-31 0 -53.5 -14t-37.5 -38t-23 -53q-2 -10 -5 -22t-4 -23q-4 -29 -1.5 -53t18 -38t48.5 -14zM304 595q-9 0 -12.5 6t-2.5 14q1 3 2 5.5t3 5.5l76 126q6 10 16 19t26 9h72q9 0 13 -6.5t2 -15.5l-47 -128q-4 -13 -15.5 -24t-28.5 -11h-104z" />
    <glyph glyph-name="Hcircumflex" unicode="&#x124;" horiz-adv-x="745" 
d="M32 0q-10 0 -16 7t-4 18l138 650q2 11 11 18t19 7h129q11 0 17 -7t4 -18l-51 -241h246l51 241q2 11 10.5 18t19.5 7h129q11 0 17 -7t4 -18l-139 -650q-2 -10 -10.5 -17.5t-19.5 -7.5h-129q-11 0 -16.5 7.5t-3.5 17.5l53 249h-246l-53 -249q-2 -10 -11 -17.5t-20 -7.5
h-129zM279 750q-14 0 -12 14q1 8 8 14l129 110q12 11 20.5 14t17.5 3h85q10 0 17.5 -3t14.5 -14l81 -110q5 -6 3 -14q-3 -14 -18 -14h-47q-8 0 -15.5 1.5t-14.5 5.5l-77 49l-97 -49q-9 -4 -16.5 -5.5t-16.5 -1.5h-62z" />
    <glyph glyph-name="hcircumflex" unicode="&#x125;" horiz-adv-x="650" 
d="M22 0q-11 0 -17 7.5t-4 17.5l141 660q2 11 10.5 18t19.5 7h128q11 0 16.5 -7t3.5 -18l-47 -223q31 31 70.5 49.5t91.5 18.5q61 0 103.5 -26t59 -76t0.5 -124l-59 -279q-2 -10 -11 -17.5t-19 -7.5h-129q-11 0 -17 7.5t-4 17.5l58 273q10 47 -5 72.5t-58 25.5
q-28 0 -51.5 -11t-41 -33.5t-24.5 -53.5l-57 -273q-2 -10 -10.5 -17.5t-19.5 -7.5h-128zM220 751q-14 0 -12 14q1 8 8 14l129 110q12 11 20.5 14t17.5 3h79q10 0 17 -3t15 -14l81 -110q5 -6 3 -14q-3 -14 -18 -14h-44q-8 0 -15.5 1.5t-14.5 5.5l-77 49l-97 -49
q-9 -4 -16.5 -5.5t-16.5 -1.5h-59z" />
    <glyph glyph-name="Hbar" unicode="&#x126;" horiz-adv-x="748" 
d="M115 517q-11 0 -16.5 7.5t-3.5 17.5l10 49q2 11 11 18t20 7h606q11 0 16.5 -7t3.5 -18l-10 -49q-2 -10 -11 -17.5t-20 -7.5h-606zM32 0q-10 0 -16 7t-4 18l138 650q2 11 11 18t19 7h129q11 0 17 -7t4 -18l-51 -241h246l51 241q2 11 10.5 18t19.5 7h129q11 0 17 -7t4 -18
l-139 -650q-2 -10 -10.5 -17.5t-19.5 -7.5h-129q-11 0 -16.5 7.5t-3.5 17.5l53 249h-246l-53 -249q-2 -10 -11 -17.5t-20 -7.5h-129z" />
    <glyph glyph-name="hbar" unicode="&#x127;" horiz-adv-x="650" 
d="M75 550q-10 0 -16 7.5t-3 18.5l7 37q3 10 11.5 17.5t18.5 7.5h254q10 0 16 -7.5t4 -17.5l-8 -37q-2 -11 -11 -18.5t-20 -7.5h-253zM22 0q-11 0 -17 7.5t-4 17.5l141 660q2 11 10.5 18t19.5 7h128q11 0 16.5 -7t3.5 -18l-47 -223q31 31 70.5 49.5t91.5 18.5
q61 0 103.5 -26t59 -76t0.5 -124l-59 -279q-2 -10 -11 -17.5t-19 -7.5h-129q-11 0 -17 7.5t-4 17.5l58 273q10 47 -5 72.5t-58 25.5q-28 0 -51.5 -11t-41 -33.5t-24.5 -53.5l-57 -273q-2 -10 -10.5 -17.5t-19.5 -7.5h-128z" />
    <glyph glyph-name="Itilde" unicode="&#x128;" horiz-adv-x="324" 
d="M32 0q-11 0 -17 7.5t-4 17.5l139 650q2 11 11 18t19 7h135q10 0 16 -7t4 -18l-138 -650q-2 -10 -11 -17.5t-19 -7.5h-135zM332 745q-28 0 -45.5 9t-31.5 17.5t-32 8.5q-16 0 -24 -7t-14.5 -15t-17.5 -8h-60q-7 0 -11 5.5t-3 11.5q3 16 12.5 38t25 42.5t39 34t55.5 13.5
q27 0 45 -9t32 -18t31 -9q16 0 24 8t14.5 15.5t17.5 7.5h60q9 0 12.5 -5.5t1.5 -12.5q-3 -16 -12.5 -37.5t-25.5 -42t-39 -34t-54 -13.5z" />
    <glyph glyph-name="itilde" unicode="&#x129;" horiz-adv-x="286" 
d="M22 0q-11 0 -17 7.5t-4 17.5l100 470q2 11 11 18t20 7h118q11 0 16 -7t3 -18l-99 -470q-2 -10 -10.5 -17.5t-19.5 -7.5h-118zM280 590q-28 0 -45 9t-30.5 17.5t-31.5 8.5q-13 0 -21.5 -7t-15.5 -15t-18 -8h-60q-7 0 -11 5.5t-3 11.5q3 16 12 37.5t25 41.5t39.5 33.5
t54.5 13.5q28 0 45 -9t31 -17.5t31 -8.5q14 0 21.5 7.5t14.5 15t18 7.5h60q8 0 12 -5t2 -13q-3 -16 -12 -37t-25 -41.5t-39 -33.5t-54 -13z" />
    <glyph glyph-name="Imacron" unicode="&#x12a;" horiz-adv-x="324" 
d="M32 0q-11 0 -17 7.5t-4 17.5l139 650q2 11 11 18t19 7h135q10 0 16 -7t4 -18l-138 -650q-2 -10 -11 -17.5t-19 -7.5h-135zM103 750q-10 0 -14.5 6.5t-2.5 16.5l15 73q2 10 10 16.5t18 6.5h310q10 0 14.5 -6.5t2.5 -16.5l-15 -73q-1 -10 -9 -16.5t-18 -6.5h-311z" />
    <glyph glyph-name="imacron" unicode="&#x12b;" horiz-adv-x="286" 
d="M22 0q-11 0 -17 7.5t-4 17.5l100 470q2 11 11 18t20 7h118q11 0 16 -7t3 -18l-99 -470q-2 -10 -10.5 -17.5t-19.5 -7.5h-118zM68 605q-10 0 -15 6.5t-3 16.5l15 70q2 10 10 16.5t18 6.5h279q10 0 14.5 -6.5t2.5 -16.5l-15 -70q-1 -10 -9 -16.5t-18 -6.5h-279z" />
    <glyph glyph-name="Ibreve" unicode="&#x12c;" horiz-adv-x="324" 
d="M32 0q-11 0 -17 7.5t-4 17.5l139 650q2 11 11 18t19 7h135q10 0 16 -7t4 -18l-138 -650q-2 -10 -11 -17.5t-19 -7.5h-135zM264 743q-50 0 -82.5 19.5t-45.5 51.5t-5 70q2 8 8 13.5t15 5.5h68q9 0 13 -5.5t2 -13.5q-4 -23 1.5 -41t33.5 -18t42 18t19 41q2 8 8 13.5t15 5.5
h68q9 0 13 -5.5t2 -13.5q-8 -38 -27.5 -70t-55 -51.5t-92.5 -19.5z" />
    <glyph glyph-name="ibreve" unicode="&#x12d;" horiz-adv-x="286" 
d="M22 0q-11 0 -17 7.5t-4 17.5l100 470q2 11 11 18t20 7h118q11 0 16 -7t3 -18l-99 -470q-2 -10 -10.5 -17.5t-19.5 -7.5h-118zM216 590q-47 0 -78.5 19t-44.5 51t-5 71q2 8 8 13.5t15 5.5h64q9 0 13 -5.5t2 -13.5q-4 -23 1.5 -41t31.5 -18q28 0 41.5 18t18.5 41
q2 8 8 13.5t15 5.5h65q9 0 13 -5.5t2 -13.5q-8 -39 -27.5 -71t-54 -51t-88.5 -19z" />
    <glyph glyph-name="Iogonek" unicode="&#x12e;" horiz-adv-x="331" 
d="M124 -221q-53 0 -83.5 20.5t-39.5 57t1 81.5q5 31 22 52t39 31l-13 3q-7 1 -10.5 7t-2.5 14l134 630q2 11 11 18t20 7h134q11 0 16.5 -7t3.5 -18l-138 -650q-2 -10 -11 -17.5t-20 -7.5h-12q-30 0 -48.5 -19t-23.5 -43q-6 -24 5 -43t41 -19h12q11 0 16.5 -7t3.5 -18
l-10 -47q-2 -11 -11 -18t-20 -7h-16z" />
    <glyph glyph-name="iogonek" unicode="&#x12f;" horiz-adv-x="293" 
d="M105 -202q-74 0 -102.5 41t-15.5 105q5 28 20 47.5t36 28.5l-4 2q-7 1 -10.5 6.5t-2.5 12.5l97 454q2 11 11 18t20 7h118q10 0 15.5 -7t3.5 -18l-99 -470q-2 -10 -11.5 -17.5t-19.5 -7.5h-8q-31 0 -49 -15.5t-22 -40.5q-6 -24 5.5 -39.5t41.5 -15.5h12q11 0 16.5 -7.5
t3.5 -17.5l-9 -41q-2 -11 -11 -18t-20 -7h-16zM168 595q-11 0 -16.5 7t-3.5 18l19 90q2 10 11.5 17.5t19.5 7.5h120q11 0 16.5 -7.5t3.5 -17.5l-19 -90q-2 -11 -11.5 -18t-19.5 -7h-120z" />
    <glyph glyph-name="Idotaccent" unicode="&#x130;" horiz-adv-x="324" 
d="M32 0q-11 0 -17 7.5t-4 17.5l139 650q2 11 11 18t19 7h135q10 0 16 -7t4 -18l-138 -650q-2 -10 -11 -17.5t-19 -7.5h-135zM207 750q-10 0 -15 6t-3 17l22 103q2 10 9.5 16.5t18.5 6.5h103q10 0 15 -6.5t3 -16.5l-22 -103q-2 -11 -10 -17t-18 -6h-103z" />
    <glyph glyph-name="dotlessi" unicode="&#x131;" horiz-adv-x="286" 
d="M22 0q-11 0 -17 7.5t-4 17.5l100 470q2 11 11 18t20 7h118q11 0 16 -7t3 -18l-99 -470q-2 -10 -10.5 -17.5t-19.5 -7.5h-118z" />
    <glyph glyph-name="IJ" unicode="&#x132;" horiz-adv-x="726" 
d="M294 -10q-11 0 -16 7.5t-3 17.5l22 106q3 11 11.5 18.5t19.5 7.5q59 0 95 34t50 101l84 393q2 11 10.5 18t19.5 7h135q11 0 16.5 -7t3.5 -18l-89 -418q-20 -96 -62.5 -155t-114.5 -85.5t-182 -26.5zM32 0q-10 0 -16 7.5t-4 17.5l138 650q2 11 11 18t19 7h135q10 0 16 -7
t4 -18l-138 -650q-2 -10 -11 -17.5t-19 -7.5h-135z" />
    <glyph glyph-name="ij" unicode="&#x133;" horiz-adv-x="589" 
d="M22 0q-11 0 -17 7.5t-4 17.5l100 470q2 11 11 18t20 7h118q11 0 16 -7t3 -18l-99 -470q-2 -10 -10.5 -17.5t-19.5 -7.5h-118zM147 595q-11 0 -16.5 7t-4.5 18l20 90q2 10 11 17.5t19 7.5h120q11 0 16.5 -7.5t3.5 -17.5l-19 -90q-2 -11 -11 -18t-19 -7h-120zM155 -190
q-11 0 -16 7.5t-3 17.5l17 81q2 11 10.5 18t19.5 7h39q32 0 49.5 20.5t24.5 52.5l102 481q2 11 11 18t20 7h123q11 0 16.5 -7t3.5 -18l-103 -485q-13 -65 -45 -109.5t-82.5 -67.5t-122.5 -23h-64zM444 595q-11 0 -16.5 7t-4.5 18l20 90q2 10 11 17.5t19 7.5h126
q10 0 16 -7.5t4 -17.5l-20 -90q-1 -11 -10 -18t-20 -7h-125z" />
    <glyph glyph-name="Jcircumflex" unicode="&#x134;" horiz-adv-x="667" 
d="M265 -10q-51 0 -101.5 14.5t-90.5 43.5t-60 72t-10 100q2 9 9 15.5t16 6.5h136q14 0 20 -7t8 -21q0 -42 21 -61t64 -19q54 0 87 32.5t46 95.5l61 289h-323q-11 0 -16.5 7t-3.5 18l21 99q2 11 10.5 18t19.5 7h484q11 0 17 -7t4 -18l-89 -418q-18 -87 -59 -146.5t-108 -90
t-163 -30.5zM251 750q-14 0 -12 14q1 8 8 14l129 110q12 11 20.5 14t17.5 3h85q10 0 17.5 -3t14.5 -14l81 -110q5 -6 3 -14q-3 -14 -18 -14h-47q-8 0 -15.5 1.5t-14.5 5.5l-77 49l-97 -49q-9 -4 -16.5 -5.5t-16.5 -1.5h-62z" />
    <glyph glyph-name="jcircumflex" unicode="&#x135;" horiz-adv-x="400" 
d="M-63 -190q-9 0 -14.5 7.5t-3.5 17.5l21 103q2 11 10.5 18t19.5 7h64q25 0 40 9.5t23.5 26t12.5 37.5l75 348h-120q-11 0 -16.5 7t-3.5 18l18 86q2 11 11 18t20 7h270q10 0 15.5 -7t3.5 -18l-97 -459q-15 -69 -51.5 -119.5t-90.5 -78.5t-122 -28h-85zM71 595q-14 0 -12 14
q1 8 8 14l129 110q12 11 20.5 14t17.5 3h79q10 0 17 -3t15 -14l81 -110q5 -6 3 -14q-3 -14 -18 -14h-44q-8 0 -15.5 1.5t-14.5 5.5l-77 49l-97 -49q-9 -4 -16.5 -5.5t-16.5 -1.5h-59z" />
    <glyph glyph-name="uni0136" unicode="&#x136;" horiz-adv-x="656" 
d="M32 0q-10 0 -16 7.5t-4 17.5l138 650q2 11 10.5 18t18.5 7h127q11 0 17 -7t4 -18l-47 -218l222 224q6 6 16 12.5t27 6.5h148q14 0 17.5 -12t-4.5 -21l-307 -315l189 -319q8 -13 -1 -23t-20 -10h-140q-16 0 -24 6t-12 14l-150 250l-53 -245q-2 -10 -10 -17.5t-19 -7.5
h-127zM138 -235q-9 0 -13.5 7t-0.5 16l47 128q5 13 16 23.5t28 10.5h111q8 0 12 -5.5t3 -11.5q0 -7 -4 -14l-77 -126q-6 -10 -16 -19t-26 -9h-80z" />
    <glyph glyph-name="uni0137" unicode="&#x137;" horiz-adv-x="588" 
d="M22 0q-11 0 -17 7.5t-4 17.5l141 660q2 11 10.5 18t19.5 7h115q11 0 17 -7t4 -18l-71 -333l167 151q8 7 16 12t22 5h143q17 0 18.5 -13.5t-12.5 -25.5l-221 -205l147 -240q8 -12 1 -24t-23 -12h-131q-13 0 -19.5 5t-10.5 11l-126 204l-41 -195q-2 -10 -10.5 -17.5
t-19.5 -7.5h-115zM102 -235q-8 0 -12 6.5t-2 15.5l47 129q5 13 16 23.5t28 10.5h104q8 0 12.5 -6t2.5 -14q-1 -2 -2 -5t-3 -6l-76 -126q-6 -10 -16 -19t-26 -9h-73z" />
    <glyph glyph-name="kgreenlandic" unicode="&#x138;" horiz-adv-x="585" 
d="M35 0q-11 0 -16.5 7.5t-3.5 17.5l100 470q2 11 11 18t20 7h115q11 0 16.5 -7t3.5 -18l-37 -174l186 182q9 7 17 12t21 5h126q10 0 15 -6.5t3 -15.5q-1 -4 -4.5 -9t-7.5 -8l-223 -217l152 -226q3 -3 4.5 -7t-0.5 -8q-1 -10 -9.5 -16.5t-17.5 -6.5h-138q-15 0 -21 6t-10 11
l-120 179l-36 -171q-2 -10 -11 -17.5t-20 -7.5h-115z" />
    <glyph glyph-name="Lacute" unicode="&#x139;" horiz-adv-x="592" 
d="M32 0q-10 0 -16 7.5t-4 17.5l138 650q2 11 11 18t19 7h132q11 0 17 -7t4 -18l-112 -524h302q11 0 16.5 -7.5t3.5 -18.5l-21 -100q-2 -10 -10.5 -17.5t-19.5 -7.5h-460zM198 750q-16 0 -14 15q2 8 8 13l112 108q13 12 21 15.5t20 3.5h140q8 0 12 -5t3 -13q0 -8 -8 -14
l-156 -109q-10 -7 -18.5 -10.5t-22.5 -3.5h-97z" />
    <glyph glyph-name="lacute" unicode="&#x13a;" horiz-adv-x="287" 
d="M22 0q-11 0 -17 7.5t-4 17.5l141 660q2 11 10.5 18t19.5 7h118q11 0 16.5 -7t3.5 -18l-140 -660q-2 -10 -10.5 -17.5t-19.5 -7.5h-118zM190 750q-16 0 -13 16q2 8 8 13l111 107q13 12 21 15.5t20 3.5h132q17 0 15 -18q-1 -9 -8 -14l-155 -109q-10 -7 -19 -10.5t-23 -3.5
h-89z" />
    <glyph glyph-name="uni013B" unicode="&#x13b;" horiz-adv-x="592" 
d="M32 0q-10 0 -16 7.5t-4 17.5l138 650q2 11 11 18t19 7h132q11 0 17 -7t4 -18l-112 -524h302q11 0 16.5 -7.5t3.5 -18.5l-21 -100q-2 -10 -10.5 -17.5t-19.5 -7.5h-460zM110 -235q-9 0 -13.5 7t-0.5 16l47 128q5 13 16 23.5t28 10.5h111q8 0 12 -5.5t3 -11.5q0 -7 -4 -14
l-77 -126q-6 -10 -16 -19t-26 -9h-80z" />
    <glyph glyph-name="uni013C" unicode="&#x13c;" horiz-adv-x="287" 
d="M22 0q-11 0 -17 7.5t-4 17.5l141 660q2 11 10.5 18t19.5 7h118q11 0 16.5 -7t3.5 -18l-140 -660q-2 -10 -10.5 -17.5t-19.5 -7.5h-118zM-53 -235q-8 0 -12 6.5t-2 15.5l47 129q5 13 16 23.5t28 10.5h104q8 0 12.5 -6t2.5 -14q-1 -2 -2 -5t-3 -6l-76 -126q-6 -10 -16 -19
t-26 -9h-73z" />
    <glyph glyph-name="Lcaron" unicode="&#x13d;" horiz-adv-x="596" 
d="M396 525q-9 0 -13.5 7t-0.5 16l47 128q5 13 16 23.5t28 10.5h111q8 0 12 -5.5t3 -11.5q0 -7 -4 -14l-77 -126q-6 -10 -16 -19t-26 -9h-80zM32 0q-10 0 -16 7.5t-4 17.5l138 650q2 11 11 18t19 7h132q11 0 17 -7t4 -18l-112 -524h302q11 0 16.5 -7.5t3.5 -18.5l-21 -100
q-2 -10 -10.5 -17.5t-19.5 -7.5h-460z" />
    <glyph glyph-name="lcaron" unicode="&#x13e;" horiz-adv-x="397" 
d="M22 0q-11 0 -17 7.5t-4 17.5l141 660q2 11 10.5 18t19.5 7h118q11 0 16.5 -7t3.5 -18l-140 -660q-2 -10 -10.5 -17.5t-19.5 -7.5h-118zM346 525q-9 0 -13 6.5t-2 15.5l47 129q5 13 16 23.5t28 10.5h105q8 0 12 -6t2 -14q-1 -2 -1.5 -5t-3.5 -6l-75 -126q-7 -10 -16.5 -19
t-26.5 -9h-72z" />
    <glyph glyph-name="Ldot" unicode="&#x13f;" horiz-adv-x="596" 
d="M32 0q-10 0 -16 7.5t-4 17.5l138 650q2 11 11 18t19 7h132q11 0 17 -7t4 -18l-112 -524h302q11 0 16.5 -7.5t3.5 -18.5l-21 -100q-2 -10 -10.5 -17.5t-19.5 -7.5h-460zM407 311q-10 0 -15 6t-3 16l23 103q2 10 9.5 16.5t17.5 6.5h103q10 0 15 -6.5t3 -16.5l-22 -103
q-2 -10 -9.5 -16t-18.5 -6h-103z" />
    <glyph glyph-name="ldot" unicode="&#x140;" horiz-adv-x="437" 
d="M22 0q-11 0 -17 7.5t-4 17.5l141 660q2 11 10.5 18t19.5 7h118q11 0 16.5 -7t3.5 -18l-140 -660q-2 -10 -10.5 -17.5t-19.5 -7.5h-118zM310 287q-10 0 -15 6.5t-3 16.5l22 100q2 10 9.5 16.5t17.5 6.5h100q9 0 14.5 -6.5t3.5 -16.5l-21 -100q-3 -10 -10.5 -16.5
t-17.5 -6.5h-100z" />
    <glyph glyph-name="Lslash" unicode="&#x141;" horiz-adv-x="600" 
d="M40 0q-10 0 -16 7.5t-4 17.5l48 225l-36 -12q-9 -3 -13 -3q-8 0 -12.5 5t-2.5 14l16 75q2 13 8.5 19.5t19.5 10.5l46 17l64 299q2 11 11 18t19 7h132q11 0 17 -7t4 -18l-49 -227l157 56q9 3 13 3q8 0 13 -5.5t3 -14.5l-16 -74q-3 -13 -9 -19t-19 -11l-168 -61l-37 -171
h303q10 0 16 -7.5t4 -17.5l-22 -101q-2 -10 -10.5 -17.5t-19.5 -7.5h-460z" />
    <glyph glyph-name="lslash" unicode="&#x142;" horiz-adv-x="343" 
d="M64 0q-11 0 -16.5 7.5t-3.5 17.5l51 237l-34 -12q-9 -3 -13 -3q-9 0 -13.5 5.5t-2.5 14.5l16 75q2 13 8.5 19.5t19.5 10.5l45 15l63 298q3 11 11.5 18t19.5 7h118q11 0 16.5 -7t3.5 -18l-49 -232l34 12q8 3 13 3q8 0 12.5 -5.5t2.5 -14.5l-15 -74q-3 -12 -9.5 -18.5
t-19.5 -11.5l-45 -17l-64 -302q-2 -10 -11 -17.5t-20 -7.5h-118z" />
    <glyph glyph-name="Nacute" unicode="&#x143;" horiz-adv-x="720" 
d="M32 0q-10 0 -16 7.5t-4 17.5l138 650q2 11 10.5 18t19.5 7h106q16 0 22 -7t8 -12l163 -387l81 381q2 11 11 18t19 7h120q11 0 17 -7t4 -18l-139 -649q-2 -11 -10.5 -18.5t-19.5 -7.5h-106q-16 0 -22 7.5t-8 11.5l-165 373l-78 -367q-2 -10 -11 -17.5t-20 -7.5h-120z
M383 750q-16 0 -14 15q2 8 8 13l112 108q13 12 21 15.5t20 3.5h140q8 0 12 -5t3 -13q0 -8 -8 -14l-156 -109q-10 -7 -18.5 -10.5t-22.5 -3.5h-97z" />
    <glyph glyph-name="nacute" unicode="&#x144;" horiz-adv-x="643" 
d="M22 0q-11 0 -17 7.5t-4 17.5l100 470q2 11 11 18t20 7h115q11 0 16.5 -7t3.5 -18l-8 -38q31 31 74.5 52t98.5 21q63 0 104 -26t56 -76t-1 -124l-60 -279q-2 -10 -10.5 -17.5t-18.5 -7.5h-126q-11 0 -17 7.5t-4 17.5l58 273q11 49 -2.5 73.5t-59.5 24.5q-45 0 -76 -25.5
t-41 -72.5l-57 -273q-2 -10 -11 -17.5t-19 -7.5h-125zM322 595q-16 0 -13 16q2 8 8 13l111 107q13 12 21 15.5t20 3.5h132q17 0 15 -18q-1 -9 -8 -14l-155 -109q-10 -7 -19 -10.5t-23 -3.5h-89z" />
    <glyph glyph-name="uni0145" unicode="&#x145;" horiz-adv-x="720" 
d="M32 0q-10 0 -16 7.5t-4 17.5l138 650q2 11 10.5 18t19.5 7h106q16 0 22 -7t8 -12l163 -387l81 381q2 11 11 18t19 7h120q11 0 17 -7t4 -18l-139 -649q-2 -11 -10.5 -18.5t-19.5 -7.5h-106q-16 0 -22 7.5t-8 11.5l-165 373l-78 -367q-2 -10 -11 -17.5t-20 -7.5h-120z
M166 -235q-9 0 -13.5 7t-0.5 16l47 128q5 13 16 23.5t28 10.5h111q8 0 12 -5.5t3 -11.5q0 -7 -4 -14l-77 -126q-6 -10 -16 -19t-26 -9h-80z" />
    <glyph glyph-name="uni0146" unicode="&#x146;" horiz-adv-x="643" 
d="M22 0q-11 0 -17 7.5t-4 17.5l100 470q2 11 11 18t20 7h115q11 0 16.5 -7t3.5 -18l-8 -38q31 31 74.5 52t98.5 21q63 0 104 -26t56 -76t-1 -124l-60 -279q-2 -10 -10.5 -17.5t-18.5 -7.5h-126q-11 0 -17 7.5t-4 17.5l58 273q11 49 -2.5 73.5t-59.5 24.5q-45 0 -76 -25.5
t-41 -72.5l-57 -273q-2 -10 -11 -17.5t-19 -7.5h-125zM128 -235q-8 0 -12 6.5t-2 15.5l47 129q5 13 16 23.5t28 10.5h104q8 0 12.5 -6t2.5 -14q-1 -2 -2 -5t-3 -6l-76 -126q-6 -10 -16 -19t-26 -9h-73z" />
    <glyph glyph-name="Ncaron" unicode="&#x147;" horiz-adv-x="720" 
d="M32 0q-10 0 -16 7.5t-4 17.5l138 650q2 11 10.5 18t19.5 7h106q16 0 22 -7t8 -12l163 -387l81 381q2 11 11 18t19 7h120q11 0 17 -7t4 -18l-139 -649q-2 -11 -10.5 -18.5t-19.5 -7.5h-106q-16 0 -22 7.5t-8 11.5l-165 373l-78 -367q-2 -10 -11 -17.5t-20 -7.5h-120z
M402 750q-9 0 -16 3.5t-15 13.5l-81 110q-5 6 -3 14q3 14 18 14h46q9 0 16.5 -1.5t14.5 -5.5l76 -49l98 49q8 4 16 5.5t16 1.5h63q14 0 12 -14q-1 -7 -9 -13l-128 -111q-12 -10 -20.5 -13.5t-18.5 -3.5h-85z" />
    <glyph glyph-name="ncaron" unicode="&#x148;" horiz-adv-x="643" 
d="M22 0q-11 0 -17 7.5t-4 17.5l100 470q2 11 11 18t20 7h115q11 0 16.5 -7t3.5 -18l-8 -38q31 31 74.5 52t98.5 21q63 0 104 -26t56 -76t-1 -124l-60 -279q-2 -10 -10.5 -17.5t-18.5 -7.5h-126q-11 0 -17 7.5t-4 17.5l58 273q11 49 -2.5 73.5t-59.5 24.5q-45 0 -76 -25.5
t-41 -72.5l-57 -273q-2 -10 -11 -17.5t-19 -7.5h-125zM343 595q-9 0 -16 3.5t-15 13.5l-81 110q-5 6 -3 13q1 7 6 11t12 4h43q9 0 16.5 -1.5t14.5 -5.5l76 -49l98 49q8 4 16 5.5t16 1.5h59q14 0 13 -14q-2 -7 -9 -13l-128 -111q-12 -10 -20.5 -13.5t-18.5 -3.5h-79z" />
    <glyph glyph-name="napostrophe" unicode="&#x149;" horiz-adv-x="643" 
d="M-9 558q-9 0 -13 6t-2 15l47 129q5 13 16 24t28 11h105q8 0 12 -6t2 -14q-1 -2 -1.5 -5t-3.5 -6l-75 -127q-7 -10 -16.5 -18.5t-26.5 -8.5h-72zM22 0q-11 0 -17 7.5t-4 17.5l100 470q2 11 11 18t20 7h115q11 0 16.5 -7t3.5 -18l-8 -38q31 31 74.5 52t98.5 21
q63 0 104 -26t56 -76t-1 -124l-60 -279q-2 -10 -10.5 -17.5t-18.5 -7.5h-126q-11 0 -17 7.5t-4 17.5l58 273q11 49 -2.5 73.5t-59.5 24.5q-45 0 -76 -25.5t-41 -72.5l-57 -273q-2 -10 -11 -17.5t-19 -7.5h-125z" />
    <glyph glyph-name="Eng" unicode="&#x14a;" horiz-adv-x="719" 
d="M281 -225q-11 0 -16.5 7.5t-3.5 17.5l21 99q2 11 11 18t20 7h26q28 0 46.5 10.5t29.5 27.5t15 39l6 26l-162 362l-77 -364q-2 -10 -11 -17.5t-20 -7.5h-120q-11 0 -16.5 7.5t-3.5 17.5l138 650q2 11 11 18t20 7h106q17 0 23 -7.5t7 -11.5l162 -384l80 378q2 11 11 18
t20 7h120q11 0 16.5 -7t3.5 -18l-144 -680q-15 -71 -57.5 -120t-106 -74.5t-144.5 -25.5h-11z" />
    <glyph glyph-name="eng" unicode="&#x14b;" horiz-adv-x="643" 
d="M201 -225q-10 0 -16 7.5t-4 17.5l21 99q2 10 11 17.5t20 7.5h25q29 0 47.5 10t30 30.5t17.5 51.5l60 282q11 49 -2.5 73.5t-59.5 24.5q-45 0 -76 -25.5t-41 -72.5l-57 -273q-2 -10 -11 -17.5t-19 -7.5h-125q-11 0 -17 7.5t-4 17.5l100 470q2 11 11 18t20 7h115
q11 0 16.5 -7t3.5 -18l-8 -38q31 31 74.5 52t98.5 21q63 0 104 -26t56 -76t-1 -124l-63 -295q-16 -77 -54.5 -129t-99.5 -78.5t-147 -26.5h-26z" />
    <glyph glyph-name="Omacron" unicode="&#x14c;" horiz-adv-x="712" 
d="M306 -10q-63 0 -116.5 17t-91 51t-53 85t-4.5 119q8 43 17.5 86.5t19.5 86.5q33 135 119 205t232 70q63 0 116.5 -17.5t91 -52.5t53 -86t3.5 -119q-7 -43 -16.5 -86.5t-19.5 -86.5q-34 -137 -120 -204.5t-231 -67.5zM320 134q54 0 94.5 32t57.5 102q11 44 19.5 83
t15.5 81q13 70 -12 102t-79 32t-94.5 -32t-57.5 -102q-11 -42 -19.5 -81t-16.5 -83q-12 -70 12 -102t80 -32zM291 750q-10 0 -14.5 6.5t-2.5 16.5l15 73q2 10 10 16.5t18 6.5h310q10 0 14.5 -6.5t2.5 -16.5l-15 -73q-1 -10 -9 -16.5t-18 -6.5h-311z" />
    <glyph glyph-name="omacron" unicode="&#x14d;" horiz-adv-x="609" 
d="M247 -10q-80 0 -134 27t-77.5 77.5t-12.5 120.5q2 20 7.5 45.5t11.5 44.5q19 71 58 121t100.5 77t144.5 27q79 0 133 -27t79 -77t14 -121q-4 -19 -9 -44.5t-10 -45.5q-19 -70 -57 -120.5t-99 -77.5t-149 -27zM262 112q45 0 73 27t42 81q4 15 9.5 40t7.5 40q9 53 -5 80.5
t-59 27.5q-43 0 -71 -27.5t-42 -80.5q-4 -15 -9.5 -40t-7.5 -40q-9 -54 4.5 -81t57.5 -27zM226 605q-10 0 -15 6.5t-3 16.5l15 70q2 10 10 16.5t18 6.5h279q10 0 14.5 -6.5t2.5 -16.5l-15 -70q-1 -10 -9 -16.5t-18 -6.5h-279z" />
    <glyph glyph-name="Obreve" unicode="&#x14e;" horiz-adv-x="712" 
d="M306 -10q-63 0 -116.5 17t-91 51t-53 85t-4.5 119q8 43 17.5 86.5t19.5 86.5q33 135 119 205t232 70q63 0 116.5 -17.5t91 -52.5t53 -86t3.5 -119q-7 -43 -16.5 -86.5t-19.5 -86.5q-34 -137 -120 -204.5t-231 -67.5zM320 134q54 0 94.5 32t57.5 102q11 44 19.5 83
t15.5 81q13 70 -12 102t-79 32t-94.5 -32t-57.5 -102q-11 -42 -19.5 -81t-16.5 -83q-12 -70 12 -102t80 -32zM452 743q-50 0 -82.5 19.5t-45.5 51.5t-5 70q2 8 8 13.5t15 5.5h68q9 0 13 -5.5t2 -13.5q-4 -23 1.5 -41t33.5 -18t42 18t19 41q2 8 8 13.5t15 5.5h68q9 0 13 -5.5
t2 -13.5q-8 -38 -27.5 -70t-55 -51.5t-92.5 -19.5z" />
    <glyph glyph-name="obreve" unicode="&#x14f;" horiz-adv-x="609" 
d="M247 -10q-80 0 -134 27t-77.5 77.5t-12.5 120.5q2 20 7.5 45.5t11.5 44.5q19 71 58 121t100.5 77t144.5 27q79 0 133 -27t79 -77t14 -121q-4 -19 -9 -44.5t-10 -45.5q-19 -70 -57 -120.5t-99 -77.5t-149 -27zM262 112q45 0 73 27t42 81q4 15 9.5 40t7.5 40q9 53 -5 80.5
t-59 27.5q-43 0 -71 -27.5t-42 -80.5q-4 -15 -9.5 -40t-7.5 -40q-9 -54 4.5 -81t57.5 -27zM373 590q-47 0 -78.5 19t-44.5 51t-5 71q2 8 8 13.5t15 5.5h64q9 0 13 -5.5t2 -13.5q-4 -23 1.5 -41t31.5 -18q28 0 41.5 18t18.5 41q2 8 8 13.5t15 5.5h65q9 0 13 -5.5t2 -13.5
q-8 -39 -27.5 -71t-54 -51t-88.5 -19z" />
    <glyph glyph-name="Ohungarumlaut" unicode="&#x150;" horiz-adv-x="712" 
d="M306 -10q-63 0 -116.5 17t-91 51t-53 85t-4.5 119q8 43 17.5 86.5t19.5 86.5q33 135 119 205t232 70q63 0 116.5 -17.5t91 -52.5t53 -86t3.5 -119q-7 -43 -16.5 -86.5t-19.5 -86.5q-34 -137 -120 -204.5t-231 -67.5zM320 134q54 0 94.5 32t57.5 102q11 44 19.5 83
t15.5 81q13 70 -12 102t-79 32t-94.5 -32t-57.5 -102q-11 -42 -19.5 -81t-16.5 -83q-12 -70 12 -102t80 -32zM504 750q-16 0 -14 14q1 4 3.5 7.5t4.5 6.5l71 108q7 10 16 14.5t25 4.5h113q19 0 16 -17q-1 -8 -8 -14l-122 -110q-16 -14 -35 -14h-70zM295 750q-15 0 -13 14
q0 4 2.5 7.5t4.5 6.5l71 108q7 10 16 14.5t25 4.5h113q20 0 16 -17q0 -8 -8 -14l-121 -110q-16 -14 -36 -14h-70z" />
    <glyph glyph-name="ohungarumlaut" unicode="&#x151;" horiz-adv-x="609" 
d="M247 -10q-80 0 -134 27t-77.5 77.5t-12.5 120.5q2 20 7.5 45.5t11.5 44.5q19 71 58 121t100.5 77t144.5 27q79 0 133 -27t79 -77t14 -121q-4 -19 -9 -44.5t-10 -45.5q-19 -70 -57 -120.5t-99 -77.5t-149 -27zM262 112q45 0 73 27t42 81q4 15 9.5 40t7.5 40q9 53 -5 80.5
t-59 27.5q-43 0 -71 -27.5t-42 -80.5q-4 -15 -9.5 -40t-7.5 -40q-9 -54 4.5 -81t57.5 -27zM429 595q-16 0 -14 14q1 4 3.5 7.5t4.5 6.5l71 108q7 10 16 14.5t25 4.5h105q19 0 16 -17q-1 -8 -8 -14l-122 -110q-16 -14 -35 -14h-62zM215 595q-15 0 -13 14q0 4 2.5 7.5t4.5 6.5
l71 108q7 10 16 14.5t25 4.5h105q19 0 16 -17q0 -8 -8 -14l-122 -110q-16 -14 -35 -14h-62z" />
    <glyph glyph-name="OE" unicode="&#x152;" horiz-adv-x="962" 
d="M312 0q-66 0 -120.5 17t-92 51t-53 85.5t-3.5 120.5q8 42 15.5 75.5t17.5 77.5q22 90 65.5 151t114.5 91.5t172 30.5h544q11 0 16.5 -7t3.5 -18l-20 -94q-2 -11 -11 -18t-20 -7h-290l-30 -135h269q11 0 17 -7.5t4 -18.5l-19 -87q-2 -10 -11 -17.5t-20 -7.5h-269l-29 -139
h299q11 0 16.5 -7t3.5 -18l-20 -94q-2 -10 -10.5 -17.5t-19.5 -7.5h-520zM330 144h60l88 412h-59q-43 0 -75.5 -13.5t-53 -42.5t-32.5 -75q-7 -28 -12.5 -51t-10 -46t-9.5 -52q-12 -67 13.5 -99.5t90.5 -32.5z" />
    <glyph glyph-name="oe" unicode="&#x153;" horiz-adv-x="951" 
d="M255 -10q-85 0 -136.5 27t-71.5 77.5t-9 120.5q3 20 8.5 45.5t10.5 44.5q19 71 61.5 121t106.5 77t145 27q59 0 100.5 -17t66.5 -47q37 30 83.5 47t99.5 17q88 0 138.5 -35t66.5 -95t0 -137l-5 -24q-3 -11 -12 -18t-19 -7h-320l-2 -7q-5 -29 -1 -53t20 -38t43 -14
q18 0 33 6.5t25.5 15t17.5 14.5q11 11 17 13.5t18 2.5h124q10 0 15 -6t2 -16q-4 -17 -25 -41t-56.5 -47.5t-84.5 -38.5t-109 -15q-54 0 -94 16t-64 46q-37 -29 -85 -45.5t-108 -16.5zM280 112q45 0 71.5 27t41.5 81q4 15 9 40t7 40q9 53 -6 80.5t-59 27.5t-71 -27.5
t-41 -80.5q-4 -15 -9 -40t-7 -40q-10 -54 5.5 -81t58.5 -27zM590 313h169l1 2q7 33 1.5 56.5t-21.5 36.5t-43 13t-48.5 -13t-36 -36.5t-21.5 -56.5z" />
    <glyph glyph-name="Racute" unicode="&#x154;" horiz-adv-x="691" 
d="M46 0q-11 0 -16.5 7.5t-3.5 17.5l138 650q2 11 11 18t20 7h272q130 0 191 -59.5t38 -168.5q-15 -71 -59.5 -120t-105.5 -74l85 -246q1 -3 1 -5t-1 -6q-1 -8 -9 -14.5t-16 -6.5h-133q-19 0 -25.5 9.5t-9.5 17.5l-67 220h-102l-48 -222q-2 -10 -11 -17.5t-20 -7.5h-129z
M283 389h116q47 0 75 23t37 62q8 39 -9.5 63t-66.5 24h-115zM353 750q-16 0 -14 15q2 8 8 13l112 108q13 12 21 15.5t20 3.5h140q8 0 12 -5t3 -13q0 -8 -8 -14l-156 -109q-10 -7 -18.5 -10.5t-22.5 -3.5h-97z" />
    <glyph glyph-name="racute" unicode="&#x155;" horiz-adv-x="456" 
d="M22 0q-11 0 -17 7.5t-4 17.5l100 470q2 10 11 17.5t20 7.5h115q11 0 16.5 -7.5t3.5 -17.5l-8 -40q24 30 60 47.5t90 17.5h56q11 0 16 -7t3 -18l-21 -103q-2 -10 -11 -17.5t-20 -7.5h-96q-42 0 -68.5 -22.5t-36.5 -63.5l-54 -256q-2 -10 -11 -17.5t-20 -7.5h-124zM246 595
q-16 0 -13 16q2 8 8 13l111 107q13 12 21 15.5t20 3.5h132q17 0 15 -18q-1 -9 -8 -14l-155 -109q-10 -7 -19 -10.5t-23 -3.5h-89z" />
    <glyph glyph-name="uni0156" unicode="&#x156;" horiz-adv-x="691" 
d="M46 0q-11 0 -16.5 7.5t-3.5 17.5l138 650q2 11 11 18t20 7h272q130 0 191 -59.5t38 -168.5q-15 -71 -59.5 -120t-105.5 -74l85 -246q1 -3 1 -5t-1 -6q-1 -8 -9 -14.5t-16 -6.5h-133q-19 0 -25.5 9.5t-9.5 17.5l-67 220h-102l-48 -222q-2 -10 -11 -17.5t-20 -7.5h-129z
M283 389h116q47 0 75 23t37 62q8 39 -9.5 63t-66.5 24h-115zM154 -235q-9 0 -13.5 7t-0.5 16l47 128q5 13 16 23.5t28 10.5h111q8 0 12 -5.5t3 -11.5q0 -7 -4 -14l-77 -126q-6 -10 -16 -19t-26 -9h-80z" />
    <glyph glyph-name="uni0157" unicode="&#x157;" horiz-adv-x="456" 
d="M22 0q-11 0 -17 7.5t-4 17.5l100 470q2 10 11 17.5t20 7.5h115q11 0 16.5 -7.5t3.5 -17.5l-8 -40q24 30 60 47.5t90 17.5h56q11 0 16 -7t3 -18l-21 -103q-2 -10 -11 -17.5t-20 -7.5h-96q-42 0 -68.5 -22.5t-36.5 -63.5l-54 -256q-2 -10 -11 -17.5t-20 -7.5h-124z
M-48 -235q-8 0 -12 6.5t-2 15.5l47 129q5 13 16 23.5t28 10.5h104q8 0 12.5 -6t2.5 -14q-1 -2 -2 -5t-3 -6l-76 -126q-6 -10 -16 -19t-26 -9h-73z" />
    <glyph glyph-name="Rcaron" unicode="&#x158;" horiz-adv-x="691" 
d="M46 0q-11 0 -16.5 7.5t-3.5 17.5l138 650q2 11 11 18t20 7h272q130 0 191 -59.5t38 -168.5q-15 -71 -59.5 -120t-105.5 -74l85 -246q1 -3 1 -5t-1 -6q-1 -8 -9 -14.5t-16 -6.5h-133q-19 0 -25.5 9.5t-9.5 17.5l-67 220h-102l-48 -222q-2 -10 -11 -17.5t-20 -7.5h-129z
M283 389h116q47 0 75 23t37 62q8 39 -9.5 63t-66.5 24h-115zM372 750q-9 0 -16 3.5t-15 13.5l-81 110q-5 6 -3 14q3 14 18 14h46q9 0 16.5 -1.5t14.5 -5.5l76 -49l98 49q8 4 16 5.5t16 1.5h63q14 0 12 -14q-1 -7 -9 -13l-128 -111q-12 -10 -20.5 -13.5t-18.5 -3.5h-85z" />
    <glyph glyph-name="rcaron" unicode="&#x159;" horiz-adv-x="456" 
d="M22 0q-11 0 -17 7.5t-4 17.5l100 470q2 10 11 17.5t20 7.5h115q11 0 16.5 -7.5t3.5 -17.5l-8 -40q24 30 60 47.5t90 17.5h56q11 0 16 -7t3 -18l-21 -103q-2 -10 -11 -17.5t-20 -7.5h-96q-42 0 -68.5 -22.5t-36.5 -63.5l-54 -256q-2 -10 -11 -17.5t-20 -7.5h-124zM267 595
q-9 0 -16 3.5t-15 13.5l-81 110q-5 6 -3 13q1 7 6 11t12 4h43q9 0 16.5 -1.5t14.5 -5.5l76 -49l98 49q8 4 16 5.5t16 1.5h59q14 0 13 -14q-2 -7 -9 -13l-128 -111q-12 -10 -20.5 -13.5t-18.5 -3.5h-79z" />
    <glyph glyph-name="Sacute" unicode="&#x15a;" horiz-adv-x="662" 
d="M280 -10q-99 0 -163 28t-91.5 74.5t-19.5 98.5q2 8 8.5 14.5t15.5 6.5h128q14 0 20 -5t12 -13q4 -15 16 -29t33.5 -22.5t53.5 -8.5q58 0 93 18t41 49q6 23 -7.5 37t-47 25.5t-89.5 23.5q-73 16 -120 44.5t-65.5 73t-5.5 106.5q20 92 99 145.5t206 53.5q64 0 114.5 -18
t84.5 -48t49 -63.5t10 -65.5q-1 -8 -8 -14.5t-16 -6.5h-134q-10 0 -17.5 4t-12.5 13q0 22 -23 38.5t-61 16.5q-43 0 -72 -15.5t-36 -47.5q-5 -20 5.5 -35t40 -26t82.5 -23q87 -17 137 -45.5t67.5 -71.5t4.5 -105q-21 -102 -106 -154.5t-226 -52.5zM356 750q-16 0 -14 15
q2 8 8 13l112 108q13 12 21 15.5t20 3.5h140q8 0 12 -5t3 -13q0 -8 -8 -14l-156 -109q-10 -7 -18.5 -10.5t-22.5 -3.5h-97z" />
    <glyph glyph-name="sacute" unicode="&#x15b;" horiz-adv-x="553" 
d="M222 -10q-65 0 -107.5 14.5t-66.5 35.5t-33 43.5t-6 39.5q2 11 10.5 18t17.5 7h114q3 0 5.5 -1t4.5 -4q12 -7 22.5 -17.5t26 -18.5t40.5 -8q27 0 49 11.5t26 32.5q4 16 -3.5 26.5t-32.5 20.5t-78 20q-50 12 -84.5 31.5t-48.5 51t-5 76.5q9 40 42 77t88.5 60.5t129.5 23.5
q57 0 97 -13.5t65 -34.5t35 -43t7 -40q-1 -10 -9.5 -17.5t-17.5 -7.5h-104q-4 0 -7.5 1.5t-5.5 3.5q-12 6 -22 16t-24 18t-38 8q-27 0 -44.5 -12t-21.5 -31q-3 -13 3 -24t30.5 -20t78.5 -20q67 -11 102.5 -35.5t46 -57t3.5 -68.5q-10 -48 -47 -85t-97 -57.5t-141 -20.5z
M271 595q-16 0 -13 16q2 8 8 13l111 107q13 12 21 15.5t20 3.5h132q17 0 15 -18q-1 -9 -8 -14l-155 -109q-10 -7 -19 -10.5t-23 -3.5h-89z" />
    <glyph glyph-name="Scircumflex" unicode="&#x15c;" horiz-adv-x="662" 
d="M280 -10q-99 0 -163 28t-91.5 74.5t-19.5 98.5q2 8 8.5 14.5t15.5 6.5h128q14 0 20 -5t12 -13q4 -15 16 -29t33.5 -22.5t53.5 -8.5q58 0 93 18t41 49q6 23 -7.5 37t-47 25.5t-89.5 23.5q-73 16 -120 44.5t-65.5 73t-5.5 106.5q20 92 99 145.5t206 53.5q64 0 114.5 -18
t84.5 -48t49 -63.5t10 -65.5q-1 -8 -8 -14.5t-16 -6.5h-134q-10 0 -17.5 4t-12.5 13q0 22 -23 38.5t-61 16.5q-43 0 -72 -15.5t-36 -47.5q-5 -20 5.5 -35t40 -26t82.5 -23q87 -17 137 -45.5t67.5 -71.5t4.5 -105q-21 -102 -106 -154.5t-226 -52.5zM238 750q-14 0 -12 14
q1 8 8 14l129 110q12 11 20.5 14t17.5 3h85q10 0 17.5 -3t14.5 -14l81 -110q5 -6 3 -14q-3 -14 -18 -14h-47q-8 0 -15.5 1.5t-14.5 5.5l-77 49l-97 -49q-9 -4 -16.5 -5.5t-16.5 -1.5h-62z" />
    <glyph glyph-name="scircumflex" unicode="&#x15d;" horiz-adv-x="553" 
d="M222 -10q-65 0 -107.5 14.5t-66.5 35.5t-33 43.5t-6 39.5q2 11 10.5 18t17.5 7h114q3 0 5.5 -1t4.5 -4q12 -7 22.5 -17.5t26 -18.5t40.5 -8q27 0 49 11.5t26 32.5q4 16 -3.5 26.5t-32.5 20.5t-78 20q-50 12 -84.5 31.5t-48.5 51t-5 76.5q9 40 42 77t88.5 60.5t129.5 23.5
q57 0 97 -13.5t65 -34.5t35 -43t7 -40q-1 -10 -9.5 -17.5t-17.5 -7.5h-104q-4 0 -7.5 1.5t-5.5 3.5q-12 6 -22 16t-24 18t-38 8q-27 0 -44.5 -12t-21.5 -31q-3 -13 3 -24t30.5 -20t78.5 -20q67 -11 102.5 -35.5t46 -57t3.5 -68.5q-10 -48 -47 -85t-97 -57.5t-141 -20.5z
M157 595q-14 0 -12 14q1 8 8 14l129 110q12 11 20.5 14t17.5 3h79q10 0 17 -3t15 -14l81 -110q5 -6 3 -14q-3 -14 -18 -14h-44q-8 0 -15.5 1.5t-14.5 5.5l-77 49l-97 -49q-9 -4 -16.5 -5.5t-16.5 -1.5h-59z" />
    <glyph glyph-name="Scedilla" unicode="&#x15e;" horiz-adv-x="662" 
d="M233 -220q-27 0 -46.5 9t-26 21t4.5 21l22 16q10 8 16 5.5t15 -8t28 -5.5q15 0 26.5 8.5t13.5 21.5q3 12 -4 20.5t-23 8.5q-12 0 -22.5 -3.5t-19.5 -4t-15 5.5l-15 20q-4 6 -2 13t9 19l29 44q-85 7 -135.5 36.5t-70 72t-11.5 90.5q2 8 10 14.5t17 6.5h126q14 0 20 -5
t11 -13q4 -15 16 -29t34 -22.5t57 -8.5q58 0 91.5 18t39.5 49q5 23 -8 37t-46.5 25.5t-89.5 23.5q-73 16 -121 41.5t-67 67t-6 103.5q14 61 58 109t112 75t152 27q69 0 118 -18t78.5 -48t41 -63.5t6.5 -65.5q-1 -8 -9 -14.5t-17 -6.5h-132q-11 0 -18 4t-12 13
q0 22 -22.5 38.5t-63.5 16.5q-44 0 -72 -15.5t-34 -47.5q-5 -20 5.5 -35t40 -26t81.5 -23q87 -17 138 -42.5t68.5 -66t4.5 -101.5q-14 -65 -61 -113.5t-116.5 -75t-153.5 -29.5l-28 -41q6 3 17 4.5t17 1.5q37 0 53 -24t8 -63q-8 -38 -39.5 -63.5t-77.5 -25.5z" />
    <glyph glyph-name="scedilla" unicode="&#x15f;" horiz-adv-x="553" 
d="M203 -220q-27 0 -46.5 9t-26 21t4.5 21l22 16q10 8 16 5.5t15 -8t28 -5.5q15 0 26.5 8.5t13.5 21.5q3 12 -4 20.5t-23 8.5q-9 0 -19 -3.5t-18.5 -4t-14.5 5.5l-15 20q-5 6 -3.5 13.5t8.5 18.5l28 43q-75 7 -117 30.5t-57.5 52t-11.5 49.5q2 11 10.5 18t17.5 7h109
q4 0 7 -1t6 -4q12 -7 23 -17.5t27 -18.5t41 -8q27 0 49 11.5t26 32.5q4 16 -3.5 26.5t-32.5 20.5t-78 20q-50 12 -84.5 31.5t-48.5 51t-5 76.5q9 40 42 77t88.5 60.5t129.5 23.5q57 0 97 -13.5t65 -34.5t35 -43t7 -40q-1 -10 -9.5 -17.5t-17.5 -7.5h-105q-5 0 -7.5 1.5
t-4.5 3.5q-12 6 -22 16t-24 18t-38 8q-27 0 -44.5 -12t-21.5 -31q-3 -13 3 -24t30.5 -20t78.5 -20q67 -11 102.5 -35.5t46 -57t3.5 -68.5q-15 -67 -80.5 -111.5t-173.5 -50.5l-24 -39q7 2 16.5 3t13.5 1q37 0 53 -24t8 -63q-8 -38 -39.5 -63.5t-77.5 -25.5z" />
    <glyph glyph-name="Scaron" unicode="&#x160;" horiz-adv-x="662" 
d="M280 -10q-99 0 -163 28t-91.5 74.5t-19.5 98.5q2 8 8.5 14.5t15.5 6.5h128q14 0 20 -5t12 -13q4 -15 16 -29t33.5 -22.5t53.5 -8.5q58 0 93 18t41 49q6 23 -7.5 37t-47 25.5t-89.5 23.5q-73 16 -120 44.5t-65.5 73t-5.5 106.5q20 92 99 145.5t206 53.5q64 0 114.5 -18
t84.5 -48t49 -63.5t10 -65.5q-1 -8 -8 -14.5t-16 -6.5h-134q-10 0 -17.5 4t-12.5 13q0 22 -23 38.5t-61 16.5q-43 0 -72 -15.5t-36 -47.5q-5 -20 5.5 -35t40 -26t82.5 -23q87 -17 137 -45.5t67.5 -71.5t4.5 -105q-21 -102 -106 -154.5t-226 -52.5zM375 750q-9 0 -16 3.5
t-15 13.5l-81 110q-5 6 -3 14q3 14 18 14h46q9 0 16.5 -1.5t14.5 -5.5l76 -49l98 49q8 4 16 5.5t16 1.5h63q14 0 12 -14q-1 -7 -9 -13l-128 -111q-12 -10 -20.5 -13.5t-18.5 -3.5h-85z" />
    <glyph glyph-name="scaron" unicode="&#x161;" horiz-adv-x="553" 
d="M222 -10q-65 0 -107.5 14.5t-66.5 35.5t-33 43.5t-6 39.5q2 11 10.5 18t17.5 7h114q3 0 5.5 -1t4.5 -4q12 -7 22.5 -17.5t26 -18.5t40.5 -8q27 0 49 11.5t26 32.5q4 16 -3.5 26.5t-32.5 20.5t-78 20q-50 12 -84.5 31.5t-48.5 51t-5 76.5q9 40 42 77t88.5 60.5t129.5 23.5
q57 0 97 -13.5t65 -34.5t35 -43t7 -40q-1 -10 -9.5 -17.5t-17.5 -7.5h-104q-4 0 -7.5 1.5t-5.5 3.5q-12 6 -22 16t-24 18t-38 8q-27 0 -44.5 -12t-21.5 -31q-3 -13 3 -24t30.5 -20t78.5 -20q67 -11 102.5 -35.5t46 -57t3.5 -68.5q-10 -48 -47 -85t-97 -57.5t-141 -20.5z
M292 595q-9 0 -16 3.5t-15 13.5l-81 110q-5 6 -3 13q1 7 6 11t12 4h43q9 0 16.5 -1.5t14.5 -5.5l76 -49l98 49q8 4 16 5.5t16 1.5h59q14 0 13 -14q-2 -7 -9 -13l-128 -111q-12 -10 -20.5 -13.5t-18.5 -3.5h-79z" />
    <glyph glyph-name="Tcaron" unicode="&#x164;" horiz-adv-x="627" 
d="M185 0q-11 0 -17 7.5t-4 17.5l111 518h-178q-10 0 -16 7.5t-4 17.5l23 107q2 11 10.5 18t19.5 7h538q11 0 16.5 -7t3.5 -18l-23 -107q-2 -10 -10.5 -17.5t-19.5 -7.5h-177l-111 -518q-2 -10 -10.5 -17.5t-19.5 -7.5h-132zM370 750q-9 0 -16 3.5t-15 13.5l-81 110
q-5 6 -3 14q3 14 18 14h46q9 0 16.5 -1.5t14.5 -5.5l76 -49l98 49q8 4 16 5.5t16 1.5h63q14 0 12 -14q-1 -7 -9 -13l-128 -111q-12 -10 -20.5 -13.5t-18.5 -3.5h-85z" />
    <glyph glyph-name="tcaron" unicode="&#x165;" horiz-adv-x="462" 
d="M269 0q-69 0 -113.5 20.5t-60.5 64t-2 112.5l41 192h-78q-11 0 -16.5 7t-3.5 18l17 81q2 11 11 18t19 7h79l35 165q2 11 11 18t19 7h116q11 0 16.5 -7t3.5 -18l-35 -165h125q11 0 16.5 -7t3.5 -18l-17 -81q-2 -11 -11 -18t-19 -7h-126l-38 -178q-4 -22 -4 -39t10 -26
t34 -9h79q11 0 16 -7t3 -18l-18 -87q-2 -10 -10.5 -17.5t-19.5 -7.5h-83zM442 610q-9 0 -13 6.5t-2 15.5l47 129q5 13 16 23.5t28 10.5h105q8 0 12 -6t2 -14q-1 -2 -1.5 -5t-3.5 -6l-75 -126q-7 -10 -16.5 -19t-26.5 -9h-72z" />
    <glyph glyph-name="Tbar" unicode="&#x166;" horiz-adv-x="637" 
d="M189 0q-11 0 -16.5 7.5t-3.5 17.5l56 268h-100q-11 0 -16.5 7t-3.5 18l11 50q2 11 11 18t20 7h100l32 150h-178q-10 0 -16 7.5t-4 17.5l23 107q2 11 10.5 18t19.5 7h538q11 0 16.5 -7t3.5 -18l-23 -107q-2 -10 -10.5 -17.5t-19.5 -7.5h-177l-32 -150h100q11 0 16.5 -7
t3.5 -18l-11 -50q-2 -11 -11 -18t-20 -7h-100l-57 -268q-2 -10 -10.5 -17.5t-19.5 -7.5h-132z" />
    <glyph glyph-name="tbar" unicode="&#x167;" horiz-adv-x="467" 
d="M267 0q-70 0 -113 20.5t-57.5 64t0.5 112.5l18 83h-79q-11 0 -16.5 7t-3.5 18l8 37q2 11 11 18t19 7h79l14 66h-78q-11 0 -16.5 7t-4.5 18l8 37q2 11 11 18t20 7h79l35 165q2 11 10.5 18t19.5 7h115q11 0 17 -7t4 -18l-35 -165h125q10 0 15.5 -7t3.5 -18l-8 -37
q-1 -11 -10 -18t-19 -7h-126l-14 -66h125q11 0 17 -7t3 -18l-7 -37q-3 -11 -12 -18t-19 -7h-125l-15 -69q-5 -22 -4.5 -39t10.5 -26t33 -9h79q11 0 16.5 -7t3.5 -18l-19 -87q-2 -10 -10.5 -17.5t-18.5 -7.5h-89z" />
    <glyph glyph-name="Utilde" unicode="&#x168;" horiz-adv-x="725" 
d="M312 -10q-64 0 -117.5 16.5t-90 50.5t-49.5 86t2 124l86 408q2 11 11 18t20 7h129q11 0 16.5 -7t3.5 -18l-87 -407q-14 -65 7 -97.5t82 -32.5q60 0 98 32.5t52 97.5l87 407q2 11 11 18t19 7h129q11 0 17 -7t4 -18l-87 -408q-30 -143 -113 -210t-230 -67zM523 745
q-28 0 -45.5 9t-31.5 17.5t-32 8.5q-16 0 -24 -7t-14.5 -15t-17.5 -8h-60q-7 0 -11 5.5t-3 11.5q3 16 12.5 38t25 42.5t39 34t55.5 13.5q27 0 45 -9t32 -18t31 -9q16 0 24 8t14.5 15.5t17.5 7.5h60q9 0 12.5 -5.5t1.5 -12.5q-3 -16 -12.5 -37.5t-25.5 -42t-39 -34t-54 -13.5
z" />
    <glyph glyph-name="utilde" unicode="&#x169;" horiz-adv-x="640" 
d="M195 -10q-60 0 -101.5 26t-57 76.5t0.5 123.5l58 279q2 11 11 18t20 7h126q10 0 15.5 -7t3.5 -18l-57 -273q-7 -32 -4 -54t19 -33t46 -11q43 0 74.5 25.5t41.5 72.5l58 273q2 11 11 18t19 7h125q11 0 16.5 -7t3.5 -18l-100 -470q-2 -10 -10.5 -17.5t-19.5 -7.5h-115
q-11 0 -17 7.5t-4 17.5l8 38q-21 -23 -45 -39.5t-54 -25t-72 -8.5zM446 590q-28 0 -45 9t-30.5 17.5t-31.5 8.5q-13 0 -21.5 -7t-15.5 -15t-18 -8h-60q-7 0 -11 5.5t-3 11.5q3 16 12 37.5t25 41.5t39.5 33.5t54.5 13.5q28 0 45 -9t31 -17.5t31 -8.5q14 0 21.5 7.5t14.5 15
t18 7.5h60q8 0 12 -5t2 -13q-3 -16 -12 -37t-25 -41.5t-39 -33.5t-54 -13z" />
    <glyph glyph-name="Umacron" unicode="&#x16a;" horiz-adv-x="725" 
d="M312 -10q-64 0 -117.5 16.5t-90 50.5t-49.5 86t2 124l86 408q2 11 11 18t20 7h129q11 0 16.5 -7t3.5 -18l-87 -407q-14 -65 7 -97.5t82 -32.5q60 0 98 32.5t52 97.5l87 407q2 11 11 18t19 7h129q11 0 17 -7t4 -18l-87 -408q-30 -143 -113 -210t-230 -67zM294 750
q-10 0 -14.5 6.5t-2.5 16.5l15 73q2 10 10 16.5t18 6.5h310q10 0 14.5 -6.5t2.5 -16.5l-15 -73q-1 -10 -9 -16.5t-18 -6.5h-311z" />
    <glyph glyph-name="umacron" unicode="&#x16b;" horiz-adv-x="640" 
d="M195 -10q-60 0 -101.5 26t-57 76.5t0.5 123.5l58 279q2 11 11 18t20 7h126q10 0 15.5 -7t3.5 -18l-57 -273q-7 -32 -4 -54t19 -33t46 -11q43 0 74.5 25.5t41.5 72.5l58 273q2 11 11 18t19 7h125q11 0 16.5 -7t3.5 -18l-100 -470q-2 -10 -10.5 -17.5t-19.5 -7.5h-115
q-11 0 -17 7.5t-4 17.5l8 38q-21 -23 -45 -39.5t-54 -25t-72 -8.5zM234 605q-10 0 -15 6.5t-3 16.5l15 70q2 10 10 16.5t18 6.5h279q10 0 14.5 -6.5t2.5 -16.5l-15 -70q-1 -10 -9 -16.5t-18 -6.5h-279z" />
    <glyph glyph-name="Ubreve" unicode="&#x16c;" horiz-adv-x="725" 
d="M312 -10q-64 0 -117.5 16.5t-90 50.5t-49.5 86t2 124l86 408q2 11 11 18t20 7h129q11 0 16.5 -7t3.5 -18l-87 -407q-14 -65 7 -97.5t82 -32.5q60 0 98 32.5t52 97.5l87 407q2 11 11 18t19 7h129q11 0 17 -7t4 -18l-87 -408q-30 -143 -113 -210t-230 -67zM455 743
q-50 0 -82.5 19.5t-45.5 51.5t-5 70q2 8 8 13.5t15 5.5h68q9 0 13 -5.5t2 -13.5q-4 -23 1.5 -41t33.5 -18t42 18t19 41q2 8 8 13.5t15 5.5h68q9 0 13 -5.5t2 -13.5q-8 -38 -27.5 -70t-55 -51.5t-92.5 -19.5z" />
    <glyph glyph-name="ubreve" unicode="&#x16d;" horiz-adv-x="640" 
d="M195 -10q-60 0 -101.5 26t-57 76.5t0.5 123.5l58 279q2 11 11 18t20 7h126q10 0 15.5 -7t3.5 -18l-57 -273q-7 -32 -4 -54t19 -33t46 -11q43 0 74.5 25.5t41.5 72.5l58 273q2 11 11 18t19 7h125q11 0 16.5 -7t3.5 -18l-100 -470q-2 -10 -10.5 -17.5t-19.5 -7.5h-115
q-11 0 -17 7.5t-4 17.5l8 38q-21 -23 -45 -39.5t-54 -25t-72 -8.5zM382 590q-47 0 -78.5 19t-44.5 51t-5 71q2 8 8 13.5t15 5.5h64q9 0 13 -5.5t2 -13.5q-4 -23 1.5 -41t31.5 -18q28 0 41.5 18t18.5 41q2 8 8 13.5t15 5.5h65q9 0 13 -5.5t2 -13.5q-8 -39 -27.5 -71t-54 -51
t-88.5 -19z" />
    <glyph glyph-name="Uring" unicode="&#x16e;" horiz-adv-x="725" 
d="M312 -10q-64 0 -117.5 16.5t-90 50.5t-49.5 86t2 124l86 408q2 11 11 18t20 7h129q11 0 16.5 -7t3.5 -18l-87 -407q-14 -65 7 -97.5t82 -32.5q60 0 98 32.5t52 97.5l87 407q2 11 11 18t19 7h129q11 0 17 -7t4 -18l-87 -408q-30 -143 -113 -210t-230 -67zM447 740
q-38 0 -60.5 25t-14.5 63q9 38 40.5 62.5t69.5 24.5t61 -24.5t14 -62.5q-8 -39 -40 -63.5t-70 -24.5zM457 798q14 0 24.5 8.5t13.5 21.5t-3.5 21.5t-19.5 8.5q-14 0 -24 -8.5t-13 -21.5t3.5 -21.5t18.5 -8.5z" />
    <glyph glyph-name="uring" unicode="&#x16f;" horiz-adv-x="640" 
d="M195 -10q-60 0 -101.5 26t-57 76.5t0.5 123.5l58 279q2 11 11 18t20 7h126q10 0 15.5 -7t3.5 -18l-57 -273q-7 -32 -4 -54t19 -33t46 -11q43 0 74.5 25.5t41.5 72.5l58 273q2 11 11 18t19 7h125q11 0 16.5 -7t3.5 -18l-100 -470q-2 -10 -10.5 -17.5t-19.5 -7.5h-115
q-11 0 -17 7.5t-4 17.5l8 38q-21 -23 -45 -39.5t-54 -25t-72 -8.5zM370 590q-38 0 -60.5 25t-14.5 63q9 38 40.5 62.5t69.5 24.5t61 -24.5t14 -62.5q-8 -39 -40 -63.5t-70 -24.5zM380 648q14 0 24.5 8.5t13.5 21.5t-3.5 21.5t-19.5 8.5q-14 0 -24 -8.5t-13 -21.5t3.5 -21.5
t18.5 -8.5z" />
    <glyph glyph-name="Uhungarumlaut" unicode="&#x170;" horiz-adv-x="725" 
d="M312 -10q-64 0 -117.5 16.5t-90 50.5t-49.5 86t2 124l86 408q2 11 11 18t20 7h129q11 0 16.5 -7t3.5 -18l-87 -407q-14 -65 7 -97.5t82 -32.5q60 0 98 32.5t52 97.5l87 407q2 11 11 18t19 7h129q11 0 17 -7t4 -18l-87 -408q-30 -143 -113 -210t-230 -67zM507 750
q-16 0 -14 14q1 4 3.5 7.5t4.5 6.5l71 108q7 10 16 14.5t25 4.5h113q19 0 16 -17q-1 -8 -8 -14l-122 -110q-16 -14 -35 -14h-70zM298 750q-15 0 -13 14q0 4 2.5 7.5t4.5 6.5l71 108q7 10 16 14.5t25 4.5h113q20 0 16 -17q0 -8 -8 -14l-121 -110q-16 -14 -36 -14h-70z" />
    <glyph glyph-name="uhungarumlaut" unicode="&#x171;" horiz-adv-x="640" 
d="M195 -10q-60 0 -101.5 26t-57 76.5t0.5 123.5l58 279q2 11 11 18t20 7h126q10 0 15.5 -7t3.5 -18l-57 -273q-7 -32 -4 -54t19 -33t46 -11q43 0 74.5 25.5t41.5 72.5l58 273q2 11 11 18t19 7h125q11 0 16.5 -7t3.5 -18l-100 -470q-2 -10 -10.5 -17.5t-19.5 -7.5h-115
q-11 0 -17 7.5t-4 17.5l8 38q-21 -23 -45 -39.5t-54 -25t-72 -8.5zM437 595q-16 0 -14 14q1 4 3.5 7.5t4.5 6.5l71 108q7 10 16 14.5t25 4.5h105q19 0 16 -17q-1 -8 -8 -14l-122 -110q-16 -14 -35 -14h-62zM223 595q-15 0 -13 14q0 4 2.5 7.5t4.5 6.5l71 108q7 10 16 14.5
t25 4.5h105q19 0 16 -17q0 -8 -8 -14l-122 -110q-16 -14 -35 -14h-62z" />
    <glyph glyph-name="Uogonek" unicode="&#x172;" horiz-adv-x="725" 
d="M340 -220q-50 0 -84 22.5t-46.5 60t-4.5 82.5q3 16 8 29t12 24q-63 13 -107 46t-61 88.5t0 134.5l86 408q2 11 11 18t20 7h129q11 0 16.5 -7t3.5 -18l-87 -407q-13 -65 7.5 -97.5t81.5 -32.5q60 0 98 32.5t52 97.5l87 407q2 11 11 18t19 7h129q11 0 17 -7t4 -18l-87 -408
q-17 -89 -55 -147t-95 -89t-132 -38q-28 -2 -44.5 -16.5t-21.5 -37.5q-5 -25 6.5 -43t39.5 -18h13q10 0 15.5 -7.5t3.5 -17.5l-11 -50q-2 -10 -10 -16.5t-19 -6.5h-5z" />
    <glyph glyph-name="uogonek" unicode="&#x173;" horiz-adv-x="641" 
d="M449 -220q-49 0 -78 20t-38.5 55.5t0.5 80.5q4 17 12 31.5t18.5 26.5t19.5 19q-5 2 -7.5 7.5t-1.5 12.5l7 30q-33 -36 -79 -54.5t-103 -18.5t-96 26t-53 76.5t1 123.5l59 279q2 11 11 18t20 7h125q11 0 16.5 -7t3.5 -18l-58 -273q-21 -98 66 -98q42 0 71.5 25.5
t39.5 72.5l58 273q2 11 11 18t20 7h125q11 0 16.5 -7t3.5 -18l-100 -470q-2 -9 -10 -16t-19 -9l-11 -1q-29 -6 -44.5 -23.5t-20.5 -39.5q-5 -25 4 -41.5t36 -16.5h8q11 0 16.5 -7.5t3.5 -17.5l-10 -48q-2 -10 -11 -17.5t-20 -7.5h-12z" />
    <glyph glyph-name="Wcircumflex" unicode="&#x174;" horiz-adv-x="825" 
d="M120 0q-17 0 -25 10t-8 23l21 644q1 9 8 16t17 7h121q14 0 20.5 -6t5.5 -18l-16 -384l119 226q5 8 14 17.5t25 9.5h71q17 0 22 -9.5t6 -17.5l25 -229l148 389q8 22 35 22h128q11 0 15 -8t0 -17l-237 -642q-5 -13 -17.5 -23t-29.5 -10h-97q-17 0 -23.5 9t-8.5 17l-49 286
l-152 -286q-4 -8 -14.5 -17t-27.5 -9h-96zM316 750q-14 0 -12 14q1 8 8 14l129 110q12 11 20.5 14t17.5 3h85q10 0 17.5 -3t14.5 -14l81 -110q5 -6 3 -14q-3 -14 -18 -14h-47q-8 0 -15.5 1.5t-14.5 5.5l-77 49l-97 -49q-9 -4 -16.5 -5.5t-16.5 -1.5h-62z" />
    <glyph glyph-name="wcircumflex" unicode="&#x175;" horiz-adv-x="840" 
d="M139 0q-14 0 -20 7.5t-7 17.5l-47 466q-1 11 7 20t21 9h99q13 0 19 -6.5t7 -14.5l24 -286l150 285q4 7 12.5 14.5t22.5 7.5h67q14 0 19.5 -7.5t6.5 -14.5l30 -285l145 286q4 7 12 14t21 7h112q14 0 16.5 -9.5t-2.5 -20.5l-242 -465q-5 -10 -14 -17.5t-23 -7.5h-91
q-14 0 -20.5 7.5t-8.5 17.5l-40 274l-149 -274q-6 -10 -15 -17.5t-24 -7.5h-88zM299 595q-14 0 -12 14q1 8 8 14l129 110q12 11 20.5 14t17.5 3h79q10 0 17 -3t15 -14l81 -110q5 -6 3 -14q-3 -14 -18 -14h-44q-8 0 -15.5 1.5t-14.5 5.5l-77 49l-97 -49q-9 -4 -16.5 -5.5
t-16.5 -1.5h-59z" />
    <glyph glyph-name="Ycircumflex" unicode="&#x176;" horiz-adv-x="679" 
d="M212 0q-11 0 -16.5 7.5t-3.5 17.5l45 215l-141 428q-4 12 4 22t21 10h118q15 0 21.5 -7.5t8.5 -13.5l88 -257l197 257q4 6 14 13.5t25 7.5h135q16 0 18 -11t-5 -21l-324 -428l-46 -215q-2 -10 -10.5 -17.5t-19.5 -7.5h-129zM236 750q-14 0 -12 14q1 8 8 14l129 110
q12 11 20.5 14t17.5 3h85q10 0 17.5 -3t14.5 -14l81 -110q5 -6 3 -14q-3 -14 -18 -14h-47q-8 0 -15.5 1.5t-14.5 5.5l-77 49l-97 -49q-9 -4 -16.5 -5.5t-16.5 -1.5h-62z" />
    <glyph glyph-name="ycircumflex" unicode="&#x177;" horiz-adv-x="604" 
d="M52 -190q-12 0 -16 10.5t3 21.5l122 192l-97 457q-2 11 5 20t22 9h106q13 0 18.5 -6.5t6.5 -14.5l56 -291l183 291q4 8 12.5 14.5t21.5 6.5h119q12 0 16.5 -9.5t-1.5 -20.5l-425 -659q-5 -8 -13.5 -14.5t-21.5 -6.5h-117zM194 595q-14 0 -12 14q1 8 8 14l129 110
q12 11 20.5 14t17.5 3h79q10 0 17 -3t15 -14l81 -110q5 -6 3 -14q-3 -14 -18 -14h-44q-8 0 -15.5 1.5t-14.5 5.5l-77 49l-97 -49q-9 -4 -16.5 -5.5t-16.5 -1.5h-59z" />
    <glyph glyph-name="Ydieresis" unicode="&#x178;" horiz-adv-x="679" 
d="M212 0q-11 0 -16.5 7.5t-3.5 17.5l45 215l-141 428q-4 12 4 22t21 10h118q15 0 21.5 -7.5t8.5 -13.5l88 -257l197 257q4 6 14 13.5t25 7.5h135q16 0 18 -11t-5 -21l-324 -428l-46 -215q-2 -10 -10.5 -17.5t-19.5 -7.5h-129zM488 750q-10 0 -14.5 6t-2.5 17l19 91
q2 10 9.5 16.5t18.5 6.5h91q10 0 15 -6.5t3 -16.5l-19 -91q-2 -11 -10 -17t-18 -6h-92zM252 750q-10 0 -15 6t-3 17l19 91q2 10 10 16.5t18 6.5h92q10 0 15 -6.5t3 -16.5l-20 -91q-2 -11 -10 -17t-18 -6h-91z" />
    <glyph glyph-name="Zacute" unicode="&#x179;" horiz-adv-x="648" 
d="M-1 0q-10 0 -16 7.5t-4 18.5l21 97q4 14 11 23t11 13l397 392h-293q-11 0 -16.5 7t-3.5 18l21 99q2 11 10.5 18t19.5 7h504q11 0 17 -7t4 -18l-21 -97q-2 -11 -8 -19t-13 -15l-388 -393h304q11 0 17 -7.5t3 -18.5l-21 -100q-2 -10 -10.5 -17.5t-19.5 -7.5h-526zM360 750
q-16 0 -14 15q2 8 8 13l112 108q13 12 21 15.5t20 3.5h140q8 0 12 -5t3 -13q0 -8 -8 -14l-156 -109q-10 -7 -18.5 -10.5t-22.5 -3.5h-97z" />
    <glyph glyph-name="zacute" unicode="&#x17a;" horiz-adv-x="552" 
d="M1 0q-11 0 -17 7.5t-4 17.5l17 78q2 11 7 17.5t11 11.5l287 259h-211q-10 0 -16 7t-4 18l17 79q2 11 11 18t20 7h402q11 0 16.5 -7t3.5 -18l-18 -85q-3 -15 -17 -25l-280 -256h233q10 0 16 -7t3 -18l-17 -79q-2 -10 -10.5 -17.5t-18.5 -7.5h-431zM284 595q-16 0 -13 16
q2 8 8 13l111 107q13 12 21 15.5t20 3.5h132q17 0 15 -18q-1 -9 -8 -14l-155 -109q-10 -7 -19 -10.5t-23 -3.5h-89z" />
    <glyph glyph-name="Zdotaccent" unicode="&#x17b;" horiz-adv-x="648" 
d="M-1 0q-10 0 -16 7.5t-4 18.5l21 97q4 14 11 23t11 13l397 392h-293q-11 0 -16.5 7t-3.5 18l21 99q2 11 10.5 18t19.5 7h504q11 0 17 -7t4 -18l-21 -97q-2 -11 -8 -19t-13 -15l-388 -393h304q11 0 17 -7.5t3 -18.5l-21 -100q-2 -10 -10.5 -17.5t-19.5 -7.5h-526zM371 750
q-10 0 -15 6t-3 17l22 103q2 10 9.5 16.5t18.5 6.5h103q10 0 15 -6.5t3 -16.5l-22 -103q-2 -11 -10 -17t-18 -6h-103z" />
    <glyph glyph-name="zdotaccent" unicode="&#x17c;" horiz-adv-x="552" 
d="M1 0q-11 0 -17 7.5t-4 17.5l17 78q2 11 7 17.5t11 11.5l287 259h-211q-10 0 -16 7t-4 18l17 79q2 11 11 18t20 7h402q11 0 16.5 -7t3.5 -18l-18 -85q-3 -15 -17 -25l-280 -256h233q10 0 16 -7t3 -18l-17 -79q-2 -10 -10.5 -17.5t-18.5 -7.5h-431zM294 603q-10 0 -15 6.5
t-3 16.5l22 100q2 10 9.5 16.5t17.5 6.5h100q10 0 15 -6.5t3 -16.5l-21 -100q-2 -10 -10 -16.5t-18 -6.5h-100z" />
    <glyph glyph-name="Zcaron" unicode="&#x17d;" horiz-adv-x="648" 
d="M-1 0q-10 0 -16 7.5t-4 18.5l21 97q4 14 11 23t11 13l397 392h-293q-11 0 -16.5 7t-3.5 18l21 99q2 11 10.5 18t19.5 7h504q11 0 17 -7t4 -18l-21 -97q-2 -11 -8 -19t-13 -15l-388 -393h304q11 0 17 -7.5t3 -18.5l-21 -100q-2 -10 -10.5 -17.5t-19.5 -7.5h-526zM379 750
q-9 0 -16 3.5t-15 13.5l-81 110q-5 6 -3 14q3 14 18 14h46q9 0 16.5 -1.5t14.5 -5.5l76 -49l98 49q8 4 16 5.5t16 1.5h63q14 0 12 -14q-1 -7 -9 -13l-128 -111q-12 -10 -20.5 -13.5t-18.5 -3.5h-85z" />
    <glyph glyph-name="zcaron" unicode="&#x17e;" horiz-adv-x="552" 
d="M1 0q-11 0 -17 7.5t-4 17.5l17 78q2 11 7 17.5t11 11.5l287 259h-211q-10 0 -16 7t-4 18l17 79q2 11 11 18t20 7h402q11 0 16.5 -7t3.5 -18l-18 -85q-3 -15 -17 -25l-280 -256h233q10 0 16 -7t3 -18l-17 -79q-2 -10 -10.5 -17.5t-18.5 -7.5h-431zM305 595q-9 0 -16 3.5
t-15 13.5l-81 110q-5 6 -3 13q1 7 6 11t12 4h43q9 0 16.5 -1.5t14.5 -5.5l76 -49l98 49q8 4 16 5.5t16 1.5h59q14 0 13 -14q-2 -7 -9 -13l-128 -111q-12 -10 -20.5 -13.5t-18.5 -3.5h-79z" />
    <glyph glyph-name="longs" unicode="&#x17f;" horiz-adv-x="342" 
d="M79 0q-10 0 -16 7.5t-4 17.5l78 364h-77q-10 0 -16 7t-4 18l17 81q2 11 11 18t20 7h76l7 32q15 68 48 109.5t82.5 60t114.5 18.5h92q11 0 16.5 -7t3.5 -18l-18 -81q-2 -11 -10.5 -18t-19.5 -7h-67q-34 0 -52.5 -16t-24.5 -46l-111 -522q-2 -10 -10.5 -17.5t-19.5 -7.5
h-116z" />
    <glyph glyph-name="florin" unicode="&#x192;" horiz-adv-x="470" 
d="M-85 -225q-10 0 -16 7.5t-4 17.5l21 99q2 10 11 17.5t19 7.5h27q29 0 47.5 10t30 30.5t17.5 51.5l80 373h-77q-10 0 -16 7t-4 18l17 81q2 11 11 18t20 7h76l7 32q15 68 46.5 109.5t81 60t116.5 18.5h93q11 0 16.5 -7t3.5 -18l-18 -81q-2 -11 -10.5 -18t-19.5 -7h-68
q-36 0 -53 -16t-23 -46l-6 -27h121q11 0 16.5 -7t3.5 -18l-17 -81q-2 -11 -11 -18t-19 -7h-121l-81 -380q-16 -77 -49.5 -129t-88.5 -78.5t-137 -26.5h-43z" />
    <glyph glyph-name="AEacute" unicode="&#x1fc;" horiz-adv-x="989" 
d="M-25 0q-14 0 -17.5 11t2.5 21l369 640q6 12 17.5 20t26.5 8h625q11 0 16.5 -7t3.5 -18l-20 -94q-2 -11 -10.5 -18t-19.5 -7h-300l-29 -135h277q11 0 17 -7.5t4 -18.5l-19 -87q-2 -10 -11 -17.5t-20 -7.5h-277l-30 -139h308q11 0 16.5 -7t3.5 -18l-20 -94
q-2 -10 -10.5 -17.5t-19.5 -7.5h-456q-11 0 -17 7.5t-4 17.5l21 98h-200l-61 -102q-5 -7 -13.5 -14t-23.5 -7h-129zM273 267h159l62 286h-61zM556 750q-16 0 -14 15q2 8 8 13l112 108q13 12 21 15.5t20 3.5h140q8 0 12 -5t3 -13q0 -8 -8 -14l-156 -109q-10 -7 -18.5 -10.5
t-22.5 -3.5h-97z" />
    <glyph glyph-name="aeacute" unicode="&#x1fd;" horiz-adv-x="915" 
d="M177 -10q-63 0 -103.5 20.5t-57 55.5t-7.5 79q15 71 82 113t165 57l130 19l3 14q7 36 -4 54.5t-51 18.5q-24 0 -41.5 -9t-31.5 -19.5t-27 -17.5q-3 -4 -5.5 -6t-6.5 -2h-110q-10 0 -14.5 6.5t-2.5 15.5q3 18 21.5 41.5t51.5 46.5t80.5 38t110.5 15t99.5 -15.5t53.5 -40.5
q35 25 78.5 40.5t94.5 15.5q58 0 97.5 -15t64 -41.5t36 -60.5t11.5 -72.5t-7 -77.5l-5 -24q-2 -11 -11.5 -18t-19.5 -7h-316l-2 -7q-7 -37 -0.5 -60t22.5 -34t38 -11q20 0 40 9t38 27q11 10 17 13t18 3h122q10 0 14.5 -6t2.5 -16q-3 -16 -23 -40t-55.5 -47t-85 -39
t-111.5 -16q-66 0 -109.5 21.5t-67.5 57.5q-48 -45 -104.5 -62t-111.5 -17zM236 104q29 0 55 12.5t45.5 39t27.5 66.5l2 14l-88 -15q-49 -8 -74 -24.5t-29 -38.5q-3 -17 4 -29t22 -18.5t35 -6.5zM556 313h165l1 4q4 32 0 55.5t-18.5 36t-42.5 12.5q-22 0 -44 -11t-38.5 -34
t-22.5 -59v-4zM474 595q-16 0 -13 16q2 8 8 13l111 107q13 12 21 15.5t20 3.5h132q17 0 15 -18q-1 -9 -8 -14l-155 -109q-10 -7 -19 -10.5t-23 -3.5h-89z" />
    <glyph glyph-name="Oslashacute" unicode="&#x1fe;" horiz-adv-x="741" 
d="M402 750q-16 0 -14 15q2 8 8 13l112 108q13 12 21 15.5t20 3.5h140q8 0 12 -5t3 -13q0 -8 -8 -14l-156 -109q-10 -7 -18.5 -10.5t-22.5 -3.5h-97zM306 -10q-63 0 -116.5 17t-91 51t-53 85t-4.5 119q8 43 17.5 86.5t19.5 86.5q33 135 119 205t232 70q63 0 116.5 -17.5
t91 -52.5t53 -86t3.5 -119q-7 -43 -16.5 -86.5t-19.5 -86.5q-34 -137 -120 -204.5t-231 -67.5zM320 134q54 0 94.5 32t57.5 102q11 44 19.5 83t15.5 81q13 70 -12 102t-79 32t-94.5 -32t-57.5 -102q-11 -42 -19.5 -81t-16.5 -83q-12 -70 12 -102t80 -32zM29 -65
q-12 0 -17.5 11.5t4.5 23.5l647 781q2 3 8 8.5t16 5.5h34q13 0 18 -11t-4 -23l-649 -781q-2 -3 -7.5 -9t-17.5 -6h-32z" />
    <glyph glyph-name="oslashacute" unicode="&#x1ff;" horiz-adv-x="609" 
d="M247 -10q-80 0 -134 27t-77.5 77.5t-12.5 120.5q2 20 7.5 45.5t11.5 44.5q19 71 58 121t100.5 77t144.5 27q79 0 133 -27t79 -77t14 -121q-4 -19 -9 -44.5t-10 -45.5q-19 -70 -57 -120.5t-99 -77.5t-149 -27zM262 112q45 0 73 27t42 81q4 15 9.5 40t7.5 40q9 53 -5 80.5
t-59 27.5q-43 0 -71 -27.5t-42 -80.5q-4 -15 -9.5 -40t-7.5 -40q-9 -54 4.5 -81t57.5 -27zM4 -28q-7 0 -13 5t-6 13t10 18l544 524q7 6 14 10.5t17 4.5h31q6 0 12 -5.5t6 -12.5q0 -9 -8 -17l-546 -525q-6 -6 -13 -10.5t-18 -4.5h-30zM316 595q-16 0 -13 16q2 8 8 13l111 107
q13 12 21 15.5t20 3.5h132q17 0 15 -18q-1 -9 -8 -14l-155 -109q-10 -7 -19 -10.5t-23 -3.5h-89z" />
    <glyph glyph-name="uni0218" unicode="&#x218;" horiz-adv-x="662" 
d="M280 -10q-99 0 -163 28t-91.5 74.5t-19.5 98.5q2 8 8.5 14.5t15.5 6.5h128q14 0 20 -5t12 -13q4 -15 16 -29t33.5 -22.5t53.5 -8.5q58 0 93 18t41 49q6 23 -7.5 37t-47 25.5t-89.5 23.5q-73 16 -120 44.5t-65.5 73t-5.5 106.5q20 92 99 145.5t206 53.5q64 0 114.5 -18
t84.5 -48t49 -63.5t10 -65.5q-1 -8 -8 -14.5t-16 -6.5h-134q-10 0 -17.5 4t-12.5 13q0 22 -23 38.5t-61 16.5q-43 0 -72 -15.5t-36 -47.5q-5 -20 5.5 -35t40 -26t82.5 -23q87 -17 137 -45.5t67.5 -71.5t4.5 -105q-21 -102 -106 -154.5t-226 -52.5zM136 -235q-9 0 -13.5 7
t-0.5 16l47 128q5 13 16 23.5t28 10.5h111q8 0 12 -5.5t3 -11.5q0 -7 -4 -14l-77 -126q-6 -10 -16 -19t-26 -9h-80z" />
    <glyph glyph-name="uni0219" unicode="&#x219;" horiz-adv-x="553" 
d="M222 -10q-65 0 -107.5 14.5t-66.5 35.5t-33 43.5t-6 39.5q2 11 10.5 18t17.5 7h114q3 0 5.5 -1t4.5 -4q12 -7 22.5 -17.5t26 -18.5t40.5 -8q27 0 49 11.5t26 32.5q4 16 -3.5 26.5t-32.5 20.5t-78 20q-50 12 -84.5 31.5t-48.5 51t-5 76.5q9 40 42 77t88.5 60.5t129.5 23.5
q57 0 97 -13.5t65 -34.5t35 -43t7 -40q-1 -10 -9.5 -17.5t-17.5 -7.5h-104q-4 0 -7.5 1.5t-5.5 3.5q-12 6 -22 16t-24 18t-38 8q-27 0 -44.5 -12t-21.5 -31q-3 -13 3 -24t30.5 -20t78.5 -20q67 -11 102.5 -35.5t46 -57t3.5 -68.5q-10 -48 -47 -85t-97 -57.5t-141 -20.5z
M92 -235q-8 0 -12 6.5t-2 15.5l47 129q5 13 16 23.5t28 10.5h104q8 0 12.5 -6t2.5 -14q-1 -2 -2 -5t-3 -6l-76 -126q-6 -10 -16 -19t-26 -9h-73z" />
    <glyph glyph-name="uni021A" unicode="&#x21a;" horiz-adv-x="627" 
d="M185 0q-11 0 -17 7.5t-4 17.5l111 518h-178q-10 0 -16 7.5t-4 17.5l23 107q2 11 10.5 18t19.5 7h538q11 0 16.5 -7t3.5 -18l-23 -107q-2 -10 -10.5 -17.5t-19.5 -7.5h-177l-111 -518q-2 -10 -10.5 -17.5t-19.5 -7.5h-132zM115 -235q-9 0 -13.5 7t-0.5 16l47 128
q5 13 16 23.5t28 10.5h111q8 0 12 -5.5t3 -11.5q0 -7 -4 -14l-77 -126q-6 -10 -16 -19t-26 -9h-80z" />
    <glyph glyph-name="uni021B" unicode="&#x21b;" horiz-adv-x="462" 
d="M269 0q-69 0 -113.5 20.5t-60.5 64t-2 112.5l41 192h-78q-11 0 -16.5 7t-3.5 18l17 81q2 11 11 18t19 7h79l35 165q2 11 11 18t19 7h116q11 0 16.5 -7t3.5 -18l-35 -165h125q11 0 16.5 -7t3.5 -18l-17 -81q-2 -11 -11 -18t-19 -7h-126l-38 -178q-4 -22 -4 -39t10 -26
t34 -9h79q11 0 16 -7t3 -18l-18 -87q-2 -10 -10.5 -17.5t-19.5 -7.5h-83zM85 -235q-8 0 -12 6.5t-2 15.5l47 129q5 13 16 23.5t28 10.5h104q8 0 12.5 -6t2.5 -14q-1 -2 -2 -5t-3 -6l-76 -126q-6 -10 -16 -19t-26 -9h-73z" />
    <glyph glyph-name="uni0237" unicode="&#x237;" horiz-adv-x="400" 
d="M-63 -190q-9 0 -14.5 7.5t-3.5 17.5l21 103q2 11 10.5 18t19.5 7h64q25 0 40 9.5t23.5 26t12.5 37.5l75 348h-120q-11 0 -16.5 7t-3.5 18l18 86q2 11 11 18t20 7h270q10 0 15.5 -7t3.5 -18l-97 -459q-15 -69 -51.5 -119.5t-90.5 -78.5t-122 -28h-85z" />
    <glyph glyph-name="uni02BC" unicode="&#x2bc;" horiz-adv-x="180" 
d="M-99 610q-9 0 -12 6.5t3 15.5l73 129q8 13 21 23.5t30 10.5h105q8 0 11 -6t0 -14q-2 -2 -3.5 -5t-4.5 -6l-102 -126q-8 -10 -20 -19t-29 -9h-72z" />
    <glyph glyph-name="circumflex" unicode="&#x2c6;" horiz-adv-x="402" 
d="M43 595q-14 0 -12 14q1 8 8 14l129 110q12 11 20.5 14t17.5 3h79q10 0 17 -3t15 -14l81 -110q5 -6 3 -14q-3 -14 -18 -14h-44q-8 0 -15.5 1.5t-14.5 5.5l-77 49l-97 -49q-9 -4 -16.5 -5.5t-16.5 -1.5h-59z" />
    <glyph glyph-name="caron" unicode="&#x2c7;" horiz-adv-x="402" 
d="M146 595q-9 0 -16 3.5t-15 13.5l-81 110q-5 6 -3 13q1 7 6 11t12 4h43q9 0 16.5 -1.5t14.5 -5.5l76 -49l98 49q8 4 16 5.5t16 1.5h59q14 0 13 -14q-2 -7 -9 -13l-128 -111q-12 -10 -20.5 -13.5t-18.5 -3.5h-79z" />
    <glyph glyph-name="breve" unicode="&#x2d8;" horiz-adv-x="333" 
d="M162 590q-47 0 -78.5 19t-44.5 51t-5 71q2 8 8 13.5t15 5.5h64q9 0 13 -5.5t2 -13.5q-4 -23 1.5 -41t31.5 -18q28 0 41.5 18t18.5 41q2 8 8 13.5t15 5.5h65q9 0 13 -5.5t2 -13.5q-8 -39 -27.5 -71t-54 -51t-88.5 -19z" />
    <glyph glyph-name="dotaccent" unicode="&#x2d9;" horiz-adv-x="199" 
d="M49 603q-10 0 -15 6.5t-3 16.5l22 100q2 10 9.5 16.5t17.5 6.5h100q10 0 15 -6.5t3 -16.5l-21 -100q-2 -10 -10 -16.5t-18 -6.5h-100z" />
    <glyph glyph-name="ring" unicode="&#x2da;" horiz-adv-x="220" 
d="M107 590q-38 0 -60.5 25t-14.5 63q9 38 40.5 62.5t69.5 24.5t61 -24.5t14 -62.5q-8 -39 -40 -63.5t-70 -24.5zM117 648q14 0 24.5 8.5t13.5 21.5t-3.5 21.5t-19.5 8.5q-14 0 -24 -8.5t-13 -21.5t3.5 -21.5t18.5 -8.5z" />
    <glyph glyph-name="ogonek" unicode="&#x2db;" horiz-adv-x="262" 
d="M169 -220q-51 0 -84.5 22.5t-46.5 60t-4 82.5q14 68 55.5 110.5t116.5 42.5h35q11 0 16.5 -7.5t3.5 -17.5l-10 -48q-2 -10 -11 -17.5t-19 -7.5h-9q-31 0 -51 -18.5t-25 -42.5q-5 -25 6.5 -43t39.5 -18h13q10 0 15.5 -7.5t3.5 -17.5l-11 -50q-3 -10 -10.5 -16.5
t-18.5 -6.5h-5z" />
    <glyph glyph-name="tilde" unicode="&#x2dc;" horiz-adv-x="398" 
d="M267 590q-28 0 -45 9t-30.5 17.5t-31.5 8.5q-13 0 -21.5 -7t-15.5 -15t-18 -8h-60q-7 0 -11 5.5t-3 11.5q3 16 12 37.5t25 41.5t39.5 33.5t54.5 13.5q28 0 45 -9t31 -17.5t31 -8.5q14 0 21.5 7.5t14.5 15t18 7.5h60q8 0 12 -5t2 -13q-3 -16 -12 -37t-25 -41.5t-39 -33.5
t-54 -13z" />
    <glyph glyph-name="hungarumlaut" unicode="&#x2dd;" horiz-adv-x="486" 
d="M258 595q-16 0 -14 14q1 4 3.5 7.5t4.5 6.5l71 108q7 10 16 14.5t25 4.5h105q19 0 16 -17q-1 -8 -8 -14l-122 -110q-16 -14 -35 -14h-62zM44 595q-15 0 -13 14q0 4 2.5 7.5t4.5 6.5l71 108q7 10 16 14.5t25 4.5h105q19 0 16 -17q0 -8 -8 -14l-122 -110q-16 -14 -35 -14
h-62z" />
    <glyph glyph-name="gravecomb" unicode="&#x300;" 
d="M178 595q-14 0 -21 3.5t-14 10.5l-109 108q-4 6 -3 14q3 19 22 19h139q12 0 19 -3.5t14 -15.5l65 -106q4 -6 2 -14q-3 -16 -19 -16h-95z" />
    <glyph glyph-name="acutecomb" unicode="&#x301;" 
d="M44 595q-16 0 -13 16q2 8 8 13l111 107q13 12 21 15.5t20 3.5h132q17 0 15 -18q-1 -9 -8 -14l-155 -109q-10 -7 -19 -10.5t-23 -3.5h-89z" />
    <glyph glyph-name="uni0302" unicode="&#x302;" 
d="M43 595q-14 0 -12 14q1 8 8 14l129 110q12 11 20.5 14t17.5 3h79q10 0 17 -3t15 -14l81 -110q5 -6 3 -14q-3 -14 -18 -14h-44q-8 0 -15.5 1.5t-14.5 5.5l-77 49l-97 -49q-9 -4 -16.5 -5.5t-16.5 -1.5h-59z" />
    <glyph glyph-name="tildecomb" unicode="&#x303;" 
d="M267 590q-28 0 -45 9t-30.5 17.5t-31.5 8.5q-13 0 -21.5 -7t-15.5 -15t-18 -8h-60q-7 0 -11 5.5t-3 11.5q3 16 12 37.5t25 41.5t39.5 33.5t54.5 13.5q28 0 45 -9t31 -17.5t31 -8.5q14 0 21.5 7.5t14.5 15t18 7.5h60q8 0 12 -5t2 -13q-3 -16 -12 -37t-25 -41.5t-39 -33.5
t-54 -13z" />
    <glyph glyph-name="uni0304" unicode="&#x304;" 
d="M49 605q-10 0 -15 6.5t-3 16.5l15 70q2 10 10 16.5t18 6.5h279q10 0 14.5 -6.5t2.5 -16.5l-15 -70q-1 -10 -9 -16.5t-18 -6.5h-279z" />
    <glyph glyph-name="uni0306" unicode="&#x306;" 
d="M162 590q-47 0 -78.5 19t-44.5 51t-5 71q2 8 8 13.5t15 5.5h64q9 0 13 -5.5t2 -13.5q-4 -23 1.5 -41t31.5 -18q28 0 41.5 18t18.5 41q2 8 8 13.5t15 5.5h65q9 0 13 -5.5t2 -13.5q-8 -39 -27.5 -71t-54 -51t-88.5 -19z" />
    <glyph glyph-name="uni0307" unicode="&#x307;" 
d="M49 603q-10 0 -15 6.5t-3 16.5l22 100q2 10 9.5 16.5t17.5 6.5h100q10 0 15 -6.5t3 -16.5l-21 -100q-2 -10 -10 -16.5t-18 -6.5h-100z" />
    <glyph glyph-name="uni0308" unicode="&#x308;" 
d="M256 607q-10 0 -15 6.5t-3 16.5l19 91q2 10 10 16.5t18 6.5h91q10 0 15.5 -6.5t3.5 -16.5l-20 -91q-2 -10 -9.5 -16.5t-17.5 -6.5h-92zM49 607q-10 0 -15 6.5t-3 16.5l20 91q2 10 9.5 16.5t17.5 6.5h92q10 0 15 -6.5t3 -16.5l-20 -91q-2 -10 -9.5 -16.5t-17.5 -6.5h-92z
" />
    <glyph glyph-name="uni030A" unicode="&#x30a;" 
d="M107 590q-38 0 -60.5 25t-14.5 63q9 38 40.5 62.5t69.5 24.5t61 -24.5t14 -62.5q-8 -39 -40 -63.5t-70 -24.5zM117 648q14 0 24.5 8.5t13.5 21.5t-3.5 21.5t-19.5 8.5q-14 0 -24 -8.5t-13 -21.5t3.5 -21.5t18.5 -8.5z" />
    <glyph glyph-name="uni030B" unicode="&#x30b;" 
d="M258 595q-16 0 -14 14q1 4 3.5 7.5t4.5 6.5l71 108q7 10 16 14.5t25 4.5h105q19 0 16 -17q-1 -8 -8 -14l-122 -110q-16 -14 -35 -14h-62zM44 595q-15 0 -13 14q0 4 2.5 7.5t4.5 6.5l71 108q7 10 16 14.5t25 4.5h105q19 0 16 -17q0 -8 -8 -14l-122 -110q-16 -14 -35 -14
h-62z" />
    <glyph glyph-name="uni030C" unicode="&#x30c;" 
d="M146 595q-9 0 -16 3.5t-15 13.5l-81 110q-5 6 -3 13q1 7 6 11t12 4h43q9 0 16.5 -1.5t14.5 -5.5l76 -49l98 49q8 4 16 5.5t16 1.5h59q14 0 13 -14q-2 -7 -9 -13l-128 -111q-12 -10 -20.5 -13.5t-18.5 -3.5h-79z" />
    <glyph glyph-name="uni0312" unicode="&#x312;" 
d="M308 595q-9 0 -12.5 6t-2.5 14q1 3 2 5.5t3 5.5l76 126q6 10 16 19t26 9h72q9 0 13 -6.5t2 -15.5l-47 -128q-4 -13 -15.5 -24t-28.5 -11h-104z" />
    <glyph glyph-name="uni0326" unicode="&#x326;" 
d="M-21 -235q-8 0 -12 6.5t-2 15.5l47 129q5 13 16 23.5t28 10.5h104q8 0 12.5 -6t2.5 -14q-1 -2 -2 -5t-3 -6l-76 -126q-6 -10 -16 -19t-26 -9h-73z" />
    <glyph glyph-name="uni0327" unicode="&#x327;" 
d="M115 -220q-27 0 -50 9t-32 21t4 21l21 16q10 8 16 5t15 -8t28 -5q15 0 26 8.5t14 21.5q3 12 -4.5 20.5t-22.5 8.5q-12 0 -23 -3.5t-20 -4t-14 5.5l-18 24q-4 7 -2 15t10 19l48 73h70l-55 -77q7 3 17.5 4.5t16.5 1.5q35 0 51.5 -26t8.5 -65q-8 -38 -34.5 -61.5
t-70.5 -23.5z" />
    <glyph glyph-name="uni0328" unicode="&#x328;" 
d="M169 -220q-51 0 -84.5 22.5t-46.5 60t-4 82.5q14 68 55.5 110.5t116.5 42.5h35q11 0 16.5 -7.5t3.5 -17.5l-10 -48q-2 -10 -11 -17.5t-19 -7.5h-9q-31 0 -51 -18.5t-25 -42.5q-5 -25 6.5 -43t39.5 -18h13q10 0 15.5 -7.5t3.5 -17.5l-11 -50q-3 -10 -10.5 -16.5
t-18.5 -6.5h-5z" />
    <glyph glyph-name="uni0335" unicode="&#x335;" 
d="M65 246q-11 0 -16.5 7.5t-3.5 17.5l10 48q2 11 11 18t20 7h301q10 0 15.5 -7t3.5 -18l-9 -48q-2 -10 -11 -17.5t-20 -7.5h-301z" />
    <glyph glyph-name="uni0337" unicode="&#x337;" 
d="M-45 -34q-7 0 -13 5t-6 13t10 18l544 524q7 6 14 10.5t17 4.5h31q6 0 12 -5.5t6 -12.5q0 -9 -8 -17l-546 -525q-6 -6 -13 -10.5t-18 -4.5h-30z" />
    <glyph glyph-name="uni0338" unicode="&#x338;" 
d="M-76 -64q-12 0 -17.5 11.5t4.5 23.5l647 781q2 3 8 8.5t16 5.5h34q13 0 18 -11t-4 -23l-649 -781q-2 -3 -7.5 -9t-17.5 -6h-32z" />
    <glyph glyph-name="uni0400" unicode="&#x400;" horiz-adv-x="638" 
d="M32 0q-10 0 -16 7.5t-4 17.5l138 650q2 11 11 18t19 7h467q11 0 17 -7t4 -18l-20 -94q-2 -11 -11 -18t-20 -7h-318l-30 -135h297q11 0 16.5 -7.5t3.5 -18.5l-19 -87q-2 -10 -10.5 -17.5t-19.5 -7.5h-297l-29 -139h326q11 0 16.5 -7t3.5 -18l-20 -94q-2 -10 -10.5 -17.5
t-19.5 -7.5h-475zM386 750q-14 0 -21 3.5t-14 10.5l-109 108q-5 5 -3 14q3 19 23 19h134q12 0 18.5 -3.5t14.5 -15.5l65 -107q4 -6 2 -13q-3 -16 -19 -16h-91z" />
    <glyph glyph-name="uni0401" unicode="&#x401;" horiz-adv-x="638" 
d="M32 0q-10 0 -16 7.5t-4 17.5l138 650q2 11 11 18t19 7h467q11 0 17 -7t4 -18l-20 -94q-2 -11 -11 -18t-20 -7h-318l-30 -135h297q11 0 16.5 -7.5t3.5 -18.5l-19 -87q-2 -10 -10.5 -17.5t-19.5 -7.5h-297l-29 -139h326q11 0 16.5 -7t3.5 -18l-20 -94q-2 -10 -10.5 -17.5
t-19.5 -7.5h-475zM491 787q-10 0 -15 6.5t-3 16.5l19 91q2 10 10 16.5t18 6.5h91q10 0 15.5 -6.5t3.5 -16.5l-20 -91q-2 -10 -9.5 -16.5t-17.5 -6.5h-92zM284 787q-10 0 -15 6.5t-3 16.5l20 91q2 10 9.5 16.5t17.5 6.5h92q10 0 15 -6.5t3 -16.5l-20 -91q-2 -10 -9.5 -16.5
t-17.5 -6.5h-92z" />
    <glyph glyph-name="uni0402" unicode="&#x402;" horiz-adv-x="779" 
d="M129 0q-11 0 -17 7.5t-4 17.5l116 542h-125q-10 0 -15 6.5t-3 16.5l19 87q2 10 9 16.5t17 6.5h520q10 0 15.5 -6.5t3.5 -16.5l-19 -87q-2 -10 -10 -16.5t-18 -6.5h-215l-28 -134q18 14 45 23.5t58 14.5t59 5q121 0 166.5 -57t21.5 -171l-6 -30q-15 -71 -57.5 -120
t-110.5 -73.5t-160 -24.5h-14q-10 0 -16 7.5t-4 17.5l18 85q2 11 11 18t20 7h14q40 0 64 11t37 30t18 43l3 14q8 42 -11 60.5t-66 18.5q-23 0 -44.5 -3t-39.5 -10.5t-30 -20t-16 -31.5l-47 -222q-2 -10 -10.5 -17.5t-19.5 -7.5h-129z" />
    <glyph glyph-name="uni0403" unicode="&#x403;" horiz-adv-x="564" 
d="M21 0q-11 0 -17 7.5t-4 17.5l139 650q2 11 10.5 18t19.5 7h431q11 0 17 -7t4 -18l-22 -100q-2 -11 -11 -18.5t-20 -7.5h-276l-112 -524q-2 -10 -10.5 -17.5t-19.5 -7.5h-129zM339 750q-16 0 -14 15q2 8 8 13l112 108q13 12 21 15.5t20 3.5h140q8 0 12 -5t3 -13
q0 -8 -8 -14l-156 -109q-10 -7 -18.5 -10.5t-22.5 -3.5h-97z" />
    <glyph glyph-name="uni0404" unicode="&#x404;" horiz-adv-x="681" 
d="M288 -10q-89 0 -150.5 29.5t-86.5 92.5t-8 162q2 10 6 30.5t9 45t10 45.5t7 31q24 98 77 160.5t127.5 93t162.5 30.5q80 0 138 -22.5t88 -65.5t24 -106q-1 -9 -9.5 -15.5t-17.5 -6.5h-131q-12 0 -16.5 4t-7.5 14q-3 22 -25.5 38t-70.5 16q-59 0 -98 -32t-54 -102l-2 -15
h194q11 0 16.5 -8t3.5 -19l-18 -80q-2 -11 -11 -19t-19 -8h-195l-3 -16q-14 -64 11 -99t84 -35q47 0 76.5 15t44.5 39q9 10 15.5 13.5t17.5 3.5h130q9 0 14.5 -6t2.5 -15q-20 -64 -70.5 -107t-119.5 -64.5t-146 -21.5z" />
    <glyph glyph-name="uni0405" unicode="&#x405;" horiz-adv-x="662" 
d="M280 -10q-99 0 -163 28t-91.5 74.5t-19.5 98.5q2 8 8.5 14.5t15.5 6.5h128q14 0 20 -5t12 -13q4 -15 16 -29t33.5 -22.5t53.5 -8.5q58 0 93 18t41 49q6 23 -7.5 37t-47 25.5t-89.5 23.5q-73 16 -120 44.5t-65.5 73t-5.5 106.5q20 92 99 145.5t206 53.5q64 0 114.5 -18
t84.5 -48t49 -63.5t10 -65.5q-1 -8 -8 -14.5t-16 -6.5h-134q-10 0 -17.5 4t-12.5 13q0 22 -23 38.5t-61 16.5q-43 0 -72 -15.5t-36 -47.5q-5 -20 5.5 -35t40 -26t82.5 -23q87 -17 137 -45.5t67.5 -71.5t4.5 -105q-21 -102 -106 -154.5t-226 -52.5z" />
    <glyph glyph-name="uni0406" unicode="&#x406;" horiz-adv-x="324" 
d="M32 0q-11 0 -17 7.5t-4 17.5l139 650q2 11 11 18t19 7h135q10 0 16 -7t4 -18l-138 -650q-2 -10 -11 -17.5t-19 -7.5h-135z" />
    <glyph glyph-name="uni0407" unicode="&#x407;" horiz-adv-x="324" 
d="M32 0q-11 0 -17 7.5t-4 17.5l139 650q2 11 11 18t19 7h135q10 0 16 -7t4 -18l-138 -650q-2 -10 -11 -17.5t-19 -7.5h-135zM327 787q-10 0 -15 6.5t-3 16.5l19 91q2 10 10 16.5t18 6.5h91q10 0 15.5 -6.5t3.5 -16.5l-20 -91q-2 -10 -9.5 -16.5t-17.5 -6.5h-92zM120 787
q-10 0 -15 6.5t-3 16.5l20 91q2 10 9.5 16.5t17.5 6.5h92q10 0 15 -6.5t3 -16.5l-20 -91q-2 -10 -9.5 -16.5t-17.5 -6.5h-92z" />
    <glyph glyph-name="uni0408" unicode="&#x408;" horiz-adv-x="667" 
d="M265 -10q-51 0 -101.5 14.5t-90.5 43.5t-60 72t-10 100q2 9 9 15.5t16 6.5h136q14 0 20 -7t8 -21q0 -42 21 -61t64 -19q54 0 87 32.5t46 95.5l61 289h-323q-11 0 -16.5 7t-3.5 18l21 99q2 11 10.5 18t19.5 7h484q11 0 17 -7t4 -18l-89 -418q-18 -87 -59 -146.5t-108 -90
t-163 -30.5z" />
    <glyph glyph-name="uni0409" unicode="&#x409;" horiz-adv-x="1085" 
d="M-13 0q-10 0 -16.5 7.5t-4.5 18.5l23 105q3 22 29 26q29 5 53.5 28.5t44.5 64t37.5 97t32.5 125.5l43 203q2 11 11 18t19 7h478q10 0 16 -7t4 -18l-46 -217h94q131 0 188.5 -56.5t34.5 -168.5q-15 -69 -57.5 -122t-108.5 -82t-154 -29h-249q-10 0 -16 7.5t-4 17.5
l110 515h-175l-19 -91q-25 -121 -55 -205.5t-71 -138t-99.5 -78.5t-142.5 -27zM643 139h90q43 0 71.5 26.5t36.5 67.5q10 45 -8.5 67t-59.5 22h-91z" />
    <glyph glyph-name="uni040A" unicode="&#x40a;" horiz-adv-x="1076" 
d="M32 0q-11 0 -16.5 7t-4.5 18l139 650q2 11 10.5 18t19.5 7h129q11 0 17 -7t4 -18l-52 -241h239l51 241q2 11 11 18t19 7h130q10 0 16 -7t4 -18l-46 -217h94q88 0 142.5 -26t75 -76t5.5 -123q-15 -69 -57.5 -122t-108.5 -82t-154 -29h-249q-10 0 -16 7.5t-4 17.5l53 249
h-239l-53 -249q-1 -10 -10 -17.5t-20 -7.5h-129zM634 139h90q43 0 71.5 26.5t36.5 67.5q10 45 -8.5 67t-59.5 22h-91z" />
    <glyph glyph-name="uni040B" unicode="&#x40b;" horiz-adv-x="780" 
d="M129 0q-11 0 -17 7.5t-4 17.5l116 542h-125q-10 0 -15 6.5t-3 16.5l19 87q2 10 9 16.5t17 6.5h520q10 0 15.5 -6.5t3.5 -16.5l-19 -87q-2 -10 -10 -16.5t-18 -6.5h-215l-31 -146q19 14 46.5 23.5t58 14.5t57.5 5q121 0 167 -57t22 -172l-45 -210q-2 -10 -11 -17.5
t-19 -7.5h-129q-11 0 -17 7.5t-4 17.5l42 195q9 43 -10 61t-72 18q-17 0 -37 -2.5t-38.5 -9.5t-32 -19.5t-17.5 -33.5l-45 -209q-2 -10 -10.5 -17.5t-19.5 -7.5h-129z" />
    <glyph glyph-name="uni040C" unicode="&#x40c;" horiz-adv-x="712" 
d="M725 700q9 0 14 -6.5t3 -14.5q-2 -6 -7 -12l-250 -304l134 -329q2 -5 0 -11q-1 -10 -9 -16.5t-18 -6.5h-140q-16 0 -22.5 7.5t-8.5 11.5l-101 255h-76l-53 -249q-1 -10 -10 -17.5t-20 -7.5h-129q-11 0 -16.5 7t-4.5 18l139 650q2 11 10.5 18t19.5 7h129q11 0 17 -7t4 -18
l-52 -241h60l199 247q7 8 17 13.5t24 5.5h147zM382 750q-16 0 -14 15q2 8 8 13l112 108q13 12 21 15.5t20 3.5h140q8 0 12 -5t3 -13q0 -8 -8 -14l-156 -109q-10 -7 -18.5 -10.5t-22.5 -3.5h-97z" />
    <glyph glyph-name="uni040D" unicode="&#x40d;" horiz-adv-x="778" 
d="M32 0q-10 0 -16 7.5t-4 18.5l138 649q2 11 11 18t20 7h129q10 0 16 -7t4 -18l-86 -406l372 412q7 8 16 13.5t21 5.5h116q11 0 17 -7t4 -18l-139 -650q-2 -10 -10.5 -17.5t-19.5 -7.5h-129q-11 0 -17 7.5t-4 17.5l84 391l-370 -397q-4 -6 -13 -12.5t-23 -6.5h-117z
M451 750q-14 0 -21 3.5t-14 10.5l-109 108q-5 5 -3 14q3 19 23 19h134q12 0 18.5 -3.5t14.5 -15.5l65 -107q4 -6 2 -13q-3 -16 -19 -16h-91z" />
    <glyph glyph-name="uni040E" unicode="&#x40e;" horiz-adv-x="647" 
d="M68 0q-11 0 -17 7.5t-4 17.5l23 106q2 11 11 18t19 7h39q26 0 47 10.5t41 32t42 55.5l277 425q7 11 15.5 16t18.5 5h131q10 0 15 -6.5t3 -14.5q-1 -4 -3 -9t-5 -9l-296 -457q-37 -57 -68.5 -96t-65 -63t-74 -34.5t-96.5 -10.5h-53zM246 180l-158 489q-1 2 -1 4v5
q1 9 9 15.5t19 6.5h129q11 0 16 -5.5t8 -15.5l98 -323zM428 741q-64 0 -99 19.5t-46 52t-2 71.5q2 8 7.5 13.5t15.5 5.5h80q9 0 13 -5.5t2 -13.5q-3 -13 -0.5 -25.5t13.5 -20t35 -7.5q36 0 51.5 16t19.5 37q2 8 8 13.5t15 5.5h80q9 0 13 -5.5t2 -13.5q-9 -39 -33.5 -71.5
t-67.5 -52t-107 -19.5z" />
    <glyph glyph-name="uni040F" unicode="&#x40f;" horiz-adv-x="744" 
d="M215 -140q-11 0 -17 7.5t-4 17.5l24 115h-187q-11 0 -16.5 7.5t-3.5 17.5l139 650q2 11 10.5 18t19.5 7h129q11 0 17 -7t4 -18l-110 -515h246l110 515q2 11 10.5 18t19.5 7h129q11 0 17 -7t4 -18l-139 -650q-2 -10 -11 -17.5t-20 -7.5h-188l-24 -115q-2 -10 -10.5 -17.5
t-19.5 -7.5h-129z" />
    <glyph glyph-name="uni0410" unicode="&#x410;" horiz-adv-x="721" 
d="M-31 0q-12 0 -17 10t1 20l371 642q6 11 17 19.5t28 8.5h154q17 0 24.5 -8.5t8.5 -19.5l98 -642q3 -14 -5 -22t-18 -8h-121q-15 0 -21.5 7t-8.5 17l-17 99h-267l-60 -102q-5 -7 -13.5 -14t-23.5 -7h-130zM267 267h186l-37 264z" />
    <glyph glyph-name="uni0411" unicode="&#x411;" horiz-adv-x="657" 
d="M21 0q-11 0 -16.5 7.5t-4.5 17.5l139 650q2 11 10.5 18t19.5 7h480q11 0 16.5 -7t3.5 -18l-21 -100q-2 -11 -11 -18.5t-20 -7.5h-325l-26 -120h140q82 0 134.5 -26.5t72.5 -73.5t6 -111q-9 -46 -34.5 -85.5t-64.5 -69t-90 -46.5t-115 -17h-294zM203 130h123q29 0 51 12.5
t36.5 33t19.5 43.5q8 35 -9 60t-61 25h-123z" />
    <glyph glyph-name="uni0412" unicode="&#x412;" horiz-adv-x="705" 
d="M32 0q-10 0 -16 7.5t-4 17.5l138 650q2 11 11 18t19 7h293q81 0 134 -24t75.5 -68.5t9.5 -105.5q-8 -38 -27.5 -65.5t-42 -44.5t-42.5 -25q35 -19 56 -59.5t9 -95.5q-14 -66 -48.5 -113.5t-93 -73t-144.5 -25.5h-327zM214 130h139q42 0 70 25t35 57q8 35 -7.5 59
t-61.5 24h-140zM276 422h128q41 0 67 21.5t33 53.5t-7 52.5t-55 20.5h-134z" />
    <glyph glyph-name="uni0413" unicode="&#x413;" horiz-adv-x="564" 
d="M21 0q-11 0 -17 7.5t-4 17.5l139 650q2 11 10.5 18t19.5 7h431q11 0 17 -7t4 -18l-22 -100q-2 -11 -11 -18.5t-20 -7.5h-276l-112 -524q-2 -10 -10.5 -17.5t-19.5 -7.5h-129z" />
    <glyph glyph-name="uni0414" unicode="&#x414;" horiz-adv-x="784" 
d="M-34 -140q-11 0 -17 7t-4 19l54 249q2 11 10.5 18t19.5 7h18q24 0 45.5 23t40 65t35 99t30.5 125l43 203q2 11 11 18t19 7h470q11 0 16.5 -7t3.5 -18l-109 -515h47q11 0 16.5 -7t3.5 -18l-53 -249q-2 -11 -11 -18.5t-20 -7.5h-129q-11 0 -16.5 7.5t-3.5 18.5l24 114h-361
l-24 -114q-2 -11 -10.5 -18.5t-19.5 -7.5h-129zM259 160h213l81 380h-167l-19 -91q-23 -105 -49.5 -176t-58.5 -113z" />
    <glyph glyph-name="uni0415" unicode="&#x415;" horiz-adv-x="638" 
d="M32 0q-10 0 -16 7.5t-4 17.5l138 650q2 11 11 18t19 7h467q11 0 17 -7t4 -18l-20 -94q-2 -11 -11 -18t-20 -7h-318l-30 -135h297q11 0 16.5 -7.5t3.5 -18.5l-19 -87q-2 -10 -10.5 -17.5t-19.5 -7.5h-297l-29 -139h326q11 0 16.5 -7t3.5 -18l-20 -94q-2 -10 -10.5 -17.5
t-19.5 -7.5h-475z" />
    <glyph glyph-name="uni0416" unicode="&#x416;" horiz-adv-x="1114" 
d="M1123 700q10 0 15 -6.5t3 -14.5q-2 -6 -7 -12l-250 -304l138 -329q2 -5 0 -11q-2 -10 -10 -16.5t-17 -6.5h-141q-16 0 -22 7.5t-9 11.5l-104 255h-76l-53 -249q-2 -11 -10.5 -18t-19.5 -7h-123q-11 0 -16.5 7t-4.5 18l53 249h-55l-209 -255q-4 -4 -12.5 -11.5t-24.5 -7.5
h-158q-10 0 -15 6.5t-3 16.5q1 2 2 5.5t3 5.5l273 329l-121 304q-2 6 -1 12q2 8 9 14.5t16 6.5h136q16 0 23.5 -5.5t10.5 -13.5l95 -247h65l52 241q2 11 10.5 18t19.5 7h123q11 0 17 -7t4 -18l-52 -241h60l199 247q6 8 16 13.5t25 5.5h146z" />
    <glyph glyph-name="uni0417" unicode="&#x417;" horiz-adv-x="667" 
d="M265 -10q-77 0 -128.5 17t-81 45t-40.5 62.5t-7 69.5q1 9 9 14.5t17 5.5h128q12 0 18 -4t10 -14q6 -24 29.5 -38.5t68.5 -14.5q36 0 64 9.5t46 26.5t24 42q8 38 -17 58t-77 20h-74q-10 0 -15.5 7.5t-3.5 18.5l17 81q2 11 11 18.5t20 7.5h72q41 0 70.5 17.5t37.5 54.5
q5 21 -3 37.5t-28 25.5t-51 9q-44 0 -73.5 -14t-41.5 -40q-7 -9 -14 -13.5t-19 -4.5h-131q-9 0 -14 6.5t-3 15.5q11 35 35 70t63.5 62.5t96 44.5t133.5 17q86 0 142.5 -27.5t81.5 -72.5t13 -99q-8 -38 -32 -77.5t-77 -65.5q34 -18 50 -45t19 -58t-4 -62q-13 -64 -59 -111.5
t-118 -74.5t-164 -27z" />
    <glyph glyph-name="uni0418" unicode="&#x418;" horiz-adv-x="778" 
d="M32 0q-10 0 -16 7.5t-4 18.5l138 649q2 11 11 18t20 7h129q10 0 16 -7t4 -18l-86 -406l372 412q7 8 16 13.5t21 5.5h116q11 0 17 -7t4 -18l-139 -650q-2 -10 -10.5 -17.5t-19.5 -7.5h-129q-11 0 -17 7.5t-4 17.5l84 391l-370 -397q-4 -6 -13 -12.5t-23 -6.5h-117z" />
    <glyph glyph-name="uni0419" unicode="&#x419;" horiz-adv-x="778" 
d="M32 0q-10 0 -16 7.5t-4 18.5l138 649q2 11 11 18t20 7h129q10 0 16 -7t4 -18l-86 -406l372 412q7 8 16 13.5t21 5.5h116q11 0 17 -7t4 -18l-139 -650q-2 -10 -10.5 -17.5t-19.5 -7.5h-129q-11 0 -17 7.5t-4 17.5l84 391l-370 -397q-4 -6 -13 -12.5t-23 -6.5h-117z
M487 741q-64 0 -99 19.5t-46 52t-2 71.5q2 8 7.5 13.5t15.5 5.5h80q9 0 13 -5.5t2 -13.5q-3 -13 -0.5 -25.5t13.5 -20t35 -7.5q36 0 51.5 16t19.5 37q2 8 8 13.5t15 5.5h80q9 0 13 -5.5t2 -13.5q-9 -39 -33.5 -71.5t-67.5 -52t-107 -19.5z" />
    <glyph glyph-name="uni041A" unicode="&#x41a;" horiz-adv-x="712" 
d="M725 700q9 0 14 -6.5t3 -14.5q-2 -6 -7 -12l-250 -304l134 -329q2 -5 0 -11q-1 -10 -9 -16.5t-18 -6.5h-140q-16 0 -22.5 7.5t-8.5 11.5l-101 255h-76l-53 -249q-1 -10 -10 -17.5t-20 -7.5h-129q-11 0 -16.5 7t-4.5 18l139 650q2 11 10.5 18t19.5 7h129q11 0 17 -7t4 -18
l-52 -241h60l199 247q7 8 17 13.5t24 5.5h147z" />
    <glyph glyph-name="uni041B" unicode="&#x41b;" horiz-adv-x="757" 
d="M470 0q-10 0 -16 7.5t-4 17.5l110 515h-186l-19 -91q-25 -121 -55 -205.5t-71 -138t-99.5 -78.5t-142.5 -27q-10 0 -16.5 7.5t-4.5 18.5l23 105q3 22 29 26q29 5 53.5 28.5t44.5 64t37.5 97t32.5 125.5l43 203q2 11 11 18t19 7h489q11 0 17 -7t4 -18l-139 -650
q-2 -10 -10.5 -17.5t-19.5 -7.5h-130z" />
    <glyph glyph-name="uni041C" unicode="&#x41c;" horiz-adv-x="828" 
d="M33 0q-11 0 -17 7.5t-4 17.5l138 650q2 11 11 18t20 7h108q16 0 22.5 -8.5t8.5 -13.5l109 -315l243 315q3 5 12.5 13.5t25.5 8.5h109q11 0 16.5 -7t3.5 -18l-138 -650q-2 -10 -10.5 -17.5t-19.5 -7.5h-121q-10 0 -16 7.5t-4 17.5l78 369l-153 -203q-7 -8 -16.5 -15.5
t-23.5 -7.5h-52q-14 0 -20 7t-9 16l-71 212l-80 -378q-2 -10 -11 -17.5t-19 -7.5h-120z" />
    <glyph glyph-name="uni041D" unicode="&#x41d;" horiz-adv-x="745" 
d="M32 0q-10 0 -16 7t-4 18l138 650q2 11 11 18t19 7h129q11 0 17 -7t4 -18l-51 -241h246l51 241q2 11 10.5 18t19.5 7h129q11 0 17 -7t4 -18l-139 -650q-2 -10 -10.5 -17.5t-19.5 -7.5h-129q-11 0 -16.5 7.5t-3.5 17.5l53 249h-246l-53 -249q-2 -10 -11 -17.5t-20 -7.5
h-129z" />
    <glyph glyph-name="uni041E" unicode="&#x41e;" horiz-adv-x="712" 
d="M306 -10q-63 0 -116.5 17t-91 51t-53 85t-4.5 119q8 43 17.5 86.5t19.5 86.5q33 135 119 205t232 70q63 0 116.5 -17.5t91 -52.5t53 -86t3.5 -119q-7 -43 -16.5 -86.5t-19.5 -86.5q-34 -137 -120 -204.5t-231 -67.5zM320 134q54 0 94.5 32t57.5 102q11 44 19.5 83
t15.5 81q13 70 -12 102t-79 32t-94.5 -32t-57.5 -102q-11 -42 -19.5 -81t-16.5 -83q-12 -70 12 -102t80 -32z" />
    <glyph glyph-name="uni041F" unicode="&#x41f;" horiz-adv-x="745" 
d="M21 0q-11 0 -17 7t-4 18l139 650q2 11 10.5 18t19.5 7h555q11 0 17 -7t4 -18l-139 -650q-2 -10 -10.5 -17.5t-19.5 -7.5h-129q-11 0 -17 7.5t-4 17.5l110 515h-246l-110 -515q-2 -10 -10.5 -17.5t-19.5 -7.5h-129z" />
    <glyph glyph-name="uni0420" unicode="&#x420;" horiz-adv-x="677" 
d="M32 0q-10 0 -16 7.5t-4 17.5l138 650q2 11 11 18t19 7h266q61 0 110.5 -14t82.5 -43t46 -72.5t1 -101.5q-24 -115 -101 -170t-206 -55h-135l-46 -219q-2 -10 -10.5 -17.5t-19.5 -7.5h-136zM271 382h115q40 0 72.5 22t42.5 67q5 26 2 46t-20.5 32t-53.5 12h-120z" />
    <glyph glyph-name="uni0421" unicode="&#x421;" horiz-adv-x="701" 
d="M307 -10q-68 0 -122.5 17t-90.5 51.5t-50 85t-3 117.5q7 41 17.5 88t20.5 90q22 87 68 148t117 92t166 31q64 0 119 -16t93.5 -47.5t56 -76t6.5 -101.5q-2 -9 -8.5 -15t-15.5 -6h-136q-13 0 -19.5 5.5t-8.5 20.5q1 52 -27 72t-74 20q-55 0 -95 -30.5t-57 -101.5
q-21 -82 -36 -168q-12 -71 13 -101.5t79 -30.5q47 0 83.5 20t60.5 72q8 15 16 20.5t21 5.5h136q9 0 14 -6t3 -15q-14 -56 -43.5 -100.5t-73.5 -76t-101.5 -48t-128.5 -16.5z" />
    <glyph glyph-name="uni0422" unicode="&#x422;" horiz-adv-x="627" 
d="M185 0q-11 0 -17 7.5t-4 17.5l111 518h-178q-10 0 -16 7.5t-4 17.5l23 107q2 11 10.5 18t19.5 7h538q11 0 16.5 -7t3.5 -18l-23 -107q-2 -10 -10.5 -17.5t-19.5 -7.5h-177l-111 -518q-2 -10 -10.5 -17.5t-19.5 -7.5h-132z" />
    <glyph glyph-name="uni0423" unicode="&#x423;" horiz-adv-x="647" 
d="M68 0q-11 0 -17 7.5t-4 17.5l23 106q2 11 11 18t19 7h39q26 0 47 10.5t41 32t42 55.5l277 425q7 11 15.5 16t18.5 5h131q10 0 15 -6.5t3 -14.5q-1 -4 -3 -9t-5 -9l-296 -457q-37 -57 -68.5 -96t-65 -63t-74 -34.5t-96.5 -10.5h-53zM246 180l-158 489q-1 2 -1 4v5
q1 9 9 15.5t19 6.5h129q11 0 16 -5.5t8 -15.5l98 -323z" />
    <glyph glyph-name="uni0424" unicode="&#x424;" horiz-adv-x="927" 
d="M329 -32q-11 0 -16.5 7.5t-3.5 17.5l14 69q-96 0 -160 31t-92 90.5t-17 143.5q2 8 4.5 22.5t6 29.5t5.5 22q23 87 76.5 146.5t131.5 90t174 30.5l12 58q3 10 11.5 17.5t19.5 7.5h130q10 0 16 -7.5t3 -17.5l-12 -58q93 0 158 -32.5t94.5 -92.5t15.5 -146q-2 -19 -5 -33
t-9 -37q-38 -132 -135.5 -198.5t-247.5 -66.5l-14 -69q-2 -10 -11 -17.5t-19 -7.5h-130zM356 207l67 317q-65 0 -107 -30t-61 -96q-4 -17 -7.5 -32.5t-6.5 -32.5q-11 -66 19 -96t96 -30zM533 207q66 0 108.5 30t59.5 96q3 7 5.5 19.5t5.5 25.5t3 20q8 66 -21 96t-94 30z" />
    <glyph glyph-name="uni0425" unicode="&#x425;" horiz-adv-x="690" 
d="M-28 0q-13 0 -17.5 11.5t4.5 21.5l300 328l-154 307q-5 11 2 21.5t21 10.5h129q19 0 25.5 -8t8.5 -13l94 -188l165 188q5 5 14.5 13t27.5 8h142q13 0 17.5 -11.5t-4.5 -21.5l-285 -330l153 -305q5 -11 -1.5 -21.5t-21.5 -10.5h-128q-18 0 -25 8t-9 12l-93 183l-169 -183
q-3 -4 -12.5 -12t-28.5 -8h-155z" />
    <glyph glyph-name="uni0426" unicode="&#x426;" horiz-adv-x="778" 
d="M500 -140q-10 0 -16 7.5t-4 17.5l24 115h-473q-10 0 -15.5 7.5t-3.5 18.5l138 649q2 11 11 18t19 7h129q11 0 17 -7t4 -18l-110 -515h246l110 515q2 11 10.5 18t19.5 7h129q11 0 17 -7t4 -18l-110 -515h47q11 0 17 -7t4 -18l-54 -250q-2 -10 -10.5 -17.5t-19.5 -7.5h-130
z" />
    <glyph glyph-name="uni0427" unicode="&#x427;" horiz-adv-x="707" 
d="M420 0q-11 0 -16.5 7.5t-3.5 17.5l45 215q-18 -13 -44 -22t-54.5 -13t-56.5 -4q-124 0 -173 64t-23 190l47 220q2 11 10.5 18t19.5 7h129q11 0 17 -7t4 -18l-45 -212q-11 -50 8.5 -73.5t77.5 -23.5q17 0 36.5 3t38 10t32 19t16.5 29l53 248q2 11 10.5 18t19.5 7h129
q11 0 17 -7t4 -18l-139 -650q-2 -10 -10.5 -17.5t-19.5 -7.5h-129z" />
    <glyph glyph-name="uni0428" unicode="&#x428;" horiz-adv-x="987" 
d="M32 0q-11 0 -16.5 7.5t-4.5 17.5l139 650q2 11 10.5 18t19.5 7h129q11 0 17 -7t4 -18l-110 -515h154l111 515q2 11 10.5 18t18.5 7h130q11 0 16.5 -7t3.5 -18l-110 -515h154l110 515q2 11 11 18t19 7h129q11 0 17 -7t4 -18l-138 -650q-2 -10 -11 -17.5t-20 -7.5h-797z
" />
    <glyph glyph-name="uni0429" unicode="&#x429;" horiz-adv-x="1020" 
d="M743 -140q-11 0 -17 7.5t-4 17.5l24 115h-715q-11 0 -16.5 7.5t-3.5 17.5l139 650q2 11 10.5 18t19.5 7h129q11 0 17 -7t4 -18l-110 -515h154l111 515q2 11 10.5 18t18.5 7h130q11 0 16.5 -7t3.5 -18l-110 -515h154l110 515q2 11 11 18t19 7h129q11 0 17 -7t4 -18
l-110 -515h47q11 0 17 -7t4 -18l-54 -250q-2 -10 -10.5 -17.5t-19.5 -7.5h-129z" />
    <glyph glyph-name="uni042A" unicode="&#x42a;" horiz-adv-x="773" 
d="M140 0q-11 0 -17 7.5t-4 17.5l113 531h-133q-11 0 -16.5 7t-3.5 18l20 94q2 11 10.5 18t19.5 7h288q11 0 17 -7t4 -18l-47 -217h102q87 0 142 -26t75.5 -76t4.5 -123q-14 -69 -56.5 -122t-109 -82t-153.5 -29h-256zM323 139h98q43 0 71.5 26.5t36.5 67.5q9 45 -9 67
t-59 22h-98z" />
    <glyph glyph-name="uni042B" unicode="&#x42b;" horiz-adv-x="944" 
d="M32 0q-11 0 -17 7.5t-4 17.5l139 650q2 11 10.5 18t19.5 7h129q11 0 17 -7t4 -18l-46 -217h94q88 0 142.5 -26t75 -76t4.5 -123q-15 -69 -57.5 -122t-108.5 -82t-153 -29h-249zM215 139h91q43 0 71.5 26.5t36.5 67.5q9 45 -9 67t-60 22h-90zM652 0q-11 0 -17 7.5t-4 17.5
l139 650q2 11 10.5 18t19.5 7h134q11 0 17 -7t4 -18l-139 -650q-2 -10 -10.5 -17.5t-19.5 -7.5h-134z" />
    <glyph glyph-name="uni042C" unicode="&#x42c;" horiz-adv-x="669" 
d="M32 0q-11 0 -16.5 7.5t-4.5 17.5l139 650q2 11 10.5 18t19.5 7h129q11 0 17 -7t4 -18l-46 -217h105q88 0 142.5 -26t75 -76t4.5 -123q-14 -69 -56.5 -122t-109 -82t-153.5 -29h-260zM215 139h102q43 0 71.5 26.5t36.5 67.5q9 45 -9 67t-59 22h-102z" />
    <glyph glyph-name="uni042D" unicode="&#x42d;" horiz-adv-x="691" 
d="M260 -10q-79 0 -138 22.5t-90.5 65.5t-25.5 105q2 9 9.5 15t16.5 6h130q12 0 17 -4t9 -13q6 -24 29 -39t70 -15q58 0 98 35t54 99l3 16h-194q-11 0 -16.5 8t-3.5 19l18 80q2 11 11 19t19 8h195l3 15q15 69 -10.5 101.5t-84.5 32.5q-47 0 -76.5 -16t-41.5 -38
q-8 -10 -14.5 -14t-18.5 -4h-131q-9 0 -14 6.5t-3 15.5q22 65 71 108t117 64.5t146 21.5q88 0 149 -30.5t87 -93t9 -160.5q-6 -31 -10.5 -53.5t-9.5 -45t-12 -53.5q-25 -99 -77 -162t-126 -92.5t-164 -29.5z" />
    <glyph glyph-name="uni042E" unicode="&#x42e;" horiz-adv-x="1037" 
d="M604 -10q-72 0 -123 18t-82.5 51.5t-42.5 81.5t-4 108q1 7 2 13l2 12h-123l-53 -249q-1 -10 -10 -17.5t-20 -7.5h-129q-11 0 -16.5 7t-4.5 18l139 650q2 11 10.5 18t19.5 7h129q11 0 17 -7t4 -18l-52 -241h124q2 5 3.5 11.5t3.5 11.5q23 76 72 132.5t121.5 88.5t166.5 32
q74 0 125.5 -19.5t82.5 -56t41 -87t-1 -112.5q-7 -43 -16.5 -86.5t-19.5 -86.5q-21 -83 -70.5 -144.5t-123.5 -94.5t-172 -33zM635 134q53 0 92.5 31t56.5 101q11 44 20 85t16 83q9 47 -1 76t-33.5 42.5t-59.5 13.5q-34 0 -64 -13.5t-52 -42.5t-33 -76q-10 -42 -19 -83
t-17 -85q-8 -47 1 -76t33.5 -42.5t59.5 -13.5z" />
    <glyph glyph-name="uni042F" unicode="&#x42f;" horiz-adv-x="702" 
d="M415 0q-10 0 -16 7.5t-5 17.5l46 215h-121q-77 0 -129 29.5t-73.5 81t-7.5 117.5q14 69 56.5 121t109.5 81.5t156 29.5h262q10 0 16 -7t4 -18l-139 -650q-1 -10 -10 -17.5t-19 -7.5h-130zM15 0q-9 0 -13.5 6.5t-3.5 14.5q2 6 5 11l208 260l163 -30l-178 -235
q-6 -10 -17 -18.5t-29 -8.5h-135zM367 381h103l39 180h-107q-42 0 -70.5 -26.5t-37.5 -66.5q-8 -41 10.5 -64t62.5 -23z" />
    <glyph glyph-name="uni0430" unicode="&#x430;" horiz-adv-x="626" 
d="M195 -10q-48 0 -84.5 15.5t-58.5 46t-29 74t2 99.5q4 20 7 35.5t8 35.5q13 53 36 96t55 74t74.5 47.5t93.5 16.5q61 0 92.5 -17.5t50.5 -43.5l5 26q2 11 10.5 18t19.5 7h112q11 0 16.5 -7t3.5 -18l-99 -470q-2 -10 -10.5 -17.5t-19.5 -7.5h-113q-10 0 -16 7.5t-4 17.5
l7 32q-31 -29 -66.5 -48t-92.5 -19zM265 124q33 0 56 14.5t38 37.5t21 50q6 20 9.5 38t6.5 37q5 25 0.5 46.5t-21 35t-47.5 13.5q-32 0 -54 -14t-35.5 -38t-22.5 -53q-4 -15 -8 -31t-6 -31q-3 -29 -1 -53t17 -38t47 -14z" />
    <glyph glyph-name="uni0431" unicode="&#x431;" horiz-adv-x="619" 
d="M249 -10q-90 0 -141 29t-66 89t0 151q5 30 12 61t13 60q20 82 48.5 139.5t69.5 97t97.5 66.5t131 46.5t170.5 38.5q11 2 18.5 -3.5t7.5 -16.5l-3 -92q-1 -11 -7.5 -19t-17.5 -10q-77 -14 -132 -26.5t-93.5 -30t-63.5 -44.5t-41 -67t-27 -99l-19 29q14 27 41 48t62.5 33
t75.5 12q72 0 117.5 -24.5t64 -71.5t7.5 -114q-3 -17 -7 -36.5t-8 -35.5q-18 -65 -59 -112t-103.5 -72.5t-147.5 -25.5zM272 101q45 0 71.5 26t39.5 77q4 12 8 31t6 33q8 50 -4.5 76.5t-52.5 26.5q-48 0 -77.5 -26.5t-42.5 -76.5q-4 -14 -8 -33t-6 -31q-9 -51 7 -77t59 -26z
" />
    <glyph glyph-name="uni0432" unicode="&#x432;" horiz-adv-x="606" 
d="M29 0q-11 0 -16.5 7.5t-4.5 17.5l101 470q2 11 10.5 18t19.5 7h234q117 0 162 -40t31 -108q-8 -37 -28.5 -62.5t-48.5 -42.5q22 -10 35 -27t17.5 -38.5t-1.5 -47.5q-16 -72 -80.5 -113t-181.5 -41h-249zM189 107h114q31 0 52.5 11.5t26.5 37.5q6 26 -9 37.5t-49 11.5
h-114zM233 317h100q30 0 49.5 12.5t25.5 37.5q5 26 -10.5 36t-44.5 10h-99z" />
    <glyph glyph-name="uni0433" unicode="&#x433;" horiz-adv-x="459" 
d="M29 0q-11 0 -17 7.5t-4 17.5l101 470q2 11 10.5 18t19.5 7h334q11 0 16.5 -7t3.5 -18l-17 -81q-2 -11 -11 -18t-20 -7h-191l-77 -364q-2 -10 -10.5 -17.5t-19.5 -7.5h-118z" />
    <glyph glyph-name="uni0434" unicode="&#x434;" horiz-adv-x="618" 
d="M247 -10q-80 0 -134 27t-77.5 77.5t-13.5 120.5q2 12 3.5 20t3.5 16.5t6 22.5q18 69 55 118.5t94.5 76t136.5 26.5q41 0 75.5 -13t60.5 -37q9 61 -6.5 100.5t-59 60t-119.5 22.5q-11 0 -18 7.5t-7 17.5v72q0 10 7.5 17.5t18.5 8.5q130 -1 205 -46.5t99.5 -133.5t4.5 -216
q-4 -33 -11.5 -67t-19.5 -73q-18 -70 -56 -120.5t-99 -77.5t-149 -27zM262 112q45 0 72.5 27t41.5 81q4 13 7 24t5 25q6 32 1 55.5t-21 36t-44 12.5q-46 0 -72.5 -26.5t-41.5 -77.5q-4 -14 -6.5 -25t-4.5 -24q-8 -54 5.5 -81t57.5 -27z" />
    <glyph glyph-name="uni0435" unicode="&#x435;" horiz-adv-x="592" 
d="M248 -10q-78 0 -130.5 28.5t-72 85.5t-4.5 140q2 7 4 18t4 17q20 79 64 135.5t108 86t141 29.5q88 0 138 -35t66 -95t1 -137l-5 -24q-2 -11 -11.5 -18t-19.5 -7h-320q0 -1 -0.5 -3t-1.5 -4q-5 -29 -1 -53t20 -38t43 -14q20 0 34.5 6.5t25.5 15t18 14.5q11 11 17 13.5
t18 2.5h124q10 0 15 -6t2 -16q-5 -17 -25.5 -41t-56.5 -47.5t-85 -38.5t-110 -15zM232 313h169l1 2q8 33 2.5 56.5t-22 36.5t-43.5 13t-48 -13t-35.5 -36.5t-22.5 -56.5z" />
    <glyph glyph-name="uni0436" unicode="&#x436;" horiz-adv-x="927" 
d="M-2 0q-9 0 -14 5.5t-3 14.5q1 5 2.5 8t4.5 5l218 244l-89 209q-1 3 -2 7t0 7q2 9 9.5 14.5t17.5 5.5h116q12 0 17.5 -5.5t7.5 -10.5l72 -175h46l36 166q2 11 10.5 18t19.5 7h116q10 0 16 -7t4 -18l-36 -166h45l144 175q5 5 12.5 10.5t18.5 5.5h131q10 0 15 -5.5t3 -14.5
q0 -7 -7 -14l-193 -227l107 -226q1 -2 2 -5t0 -8q-1 -9 -9 -14.5t-18 -5.5h-125q-13 0 -18.5 6t-7.5 10l-80 182h-47l-37 -173q-2 -10 -11 -17.5t-19 -7.5h-116q-11 0 -16.5 7.5t-3.5 17.5l37 173h-43l-158 -182q-2 -4 -10.5 -10t-21.5 -6h-143z" />
    <glyph glyph-name="uni0437" unicode="&#x437;" horiz-adv-x="575" 
d="M230 -10q-69 0 -112 15.5t-65.5 39t-29.5 50t-5 47.5q0 8 7.5 13t14.5 5h115q12 0 16.5 -4t6.5 -11q4 -20 23 -29t53 -9t57.5 13t28.5 41q6 25 -6 38.5t-48 13.5h-56q-10 0 -14.5 6.5t-3.5 15.5l13 57q2 9 9.5 15.5t16.5 6.5h53q32 0 48 11.5t21 33.5q3 14 0 26.5
t-15.5 19.5t-38.5 7q-37 0 -57 -10.5t-34 -32.5q-6 -7 -12.5 -11t-17.5 -4h-112q-8 0 -12 5t-2 13q7 26 26 53.5t51 51.5t79 38.5t113 14.5q64 0 105 -12t64 -32.5t30 -47.5t0 -56q-7 -35 -29.5 -63.5t-62.5 -46.5q28 -9 42.5 -29t17.5 -45.5t-3 -54.5q-9 -44 -45 -78.5
t-95 -54.5t-135 -20z" />
    <glyph glyph-name="uni0438" unicode="&#x438;" horiz-adv-x="640" 
d="M195 -10q-60 0 -101.5 26t-57 76.5t0.5 123.5l58 279q2 11 11 18t20 7h126q10 0 15.5 -7t3.5 -18l-57 -273q-7 -32 -4 -54t19 -33t46 -11q43 0 74.5 25.5t41.5 72.5l58 273q2 11 11 18t19 7h125q11 0 16.5 -7t3.5 -18l-100 -470q-2 -10 -10.5 -17.5t-19.5 -7.5h-115
q-11 0 -17 7.5t-4 17.5l8 38q-21 -23 -45 -39.5t-54 -25t-72 -8.5z" />
    <glyph glyph-name="uni0439" unicode="&#x439;" horiz-adv-x="640" 
d="M195 -10q-60 0 -101.5 26t-57 76.5t0.5 123.5l58 279q2 11 11 18t20 7h126q10 0 15.5 -7t3.5 -18l-57 -273q-7 -32 -4 -54t19 -33t46 -11q43 0 74.5 25.5t41.5 72.5l58 273q2 11 11 18t19 7h125q11 0 16.5 -7t3.5 -18l-100 -470q-2 -10 -10.5 -17.5t-19.5 -7.5h-115
q-11 0 -17 7.5t-4 17.5l8 38q-21 -23 -45 -39.5t-54 -25t-72 -8.5zM368 588q-61 0 -95.5 19.5t-46 52t-3.5 71.5q2 8 7.5 13.5t15.5 5.5h80q9 0 13 -5.5t2 -13.5q-2 -13 -1 -25.5t10.5 -20t32.5 -7.5q35 0 52 16t21 37q2 8 8 13.5t15 5.5h80q9 0 13 -5.5t2 -13.5
q-8 -39 -32.5 -71.5t-67.5 -52t-106 -19.5z" />
    <glyph glyph-name="uni043A" unicode="&#x43a;" horiz-adv-x="602" 
d="M29 0q-11 0 -17 7.5t-4 17.5l101 470q2 11 10.5 18t19.5 7h115q11 0 17 -7t4 -18l-36 -166h49l144 175q5 5 12.5 10.5t18.5 5.5h131q10 0 14.5 -5.5t3.5 -14.5q0 -6 -7 -14l-193 -228l107 -225q1 -2 1.5 -5t-0.5 -8q-1 -9 -8.5 -14.5t-17.5 -5.5h-126q-10 0 -16 4.5
t-10 11.5l-79 182h-52l-37 -173q-2 -10 -10.5 -17.5t-19.5 -7.5h-115z" />
    <glyph glyph-name="uni043B" unicode="&#x43b;" horiz-adv-x="629" 
d="M-1 0q-11 0 -17 7.5t-4 18.5l19 87q5 22 29 25q30 3 50.5 27t36 71t30.5 118l31 141q2 11 10.5 18t18.5 7h393q10 0 16 -7t4 -18l-101 -470q-1 -10 -10 -17.5t-19 -7.5h-119q-10 0 -16 7.5t-4 17.5l78 364h-114l-11 -53q-21 -96 -45.5 -161t-58 -103t-81.5 -55t-116 -17z
" />
    <glyph glyph-name="uni043C" unicode="&#x43c;" horiz-adv-x="724" 
d="M24 0q-8 0 -12.5 6t-3.5 15l102 479q2 8 9 14t15 6h109q18 0 25 -18l118 -321l-71 13l228 308q14 18 33 18h120q8 0 13 -6t3 -14l-102 -479q-1 -9 -8.5 -15t-16.5 -6h-124q-9 0 -13.5 6t-3.5 15l70 326l46 2l-185 -249q-7 -9 -14.5 -15.5t-19.5 -6.5h-31q-11 0 -16.5 6
t-9.5 16l-82 242l39 -2l-68 -319q-1 -9 -8.5 -15t-16.5 -6h-124z" />
    <glyph glyph-name="uni043D" unicode="&#x43d;" horiz-adv-x="638" 
d="M29 0q-11 0 -17 7.5t-4 17.5l101 470q2 11 10.5 18t19.5 7h118q11 0 16.5 -7t3.5 -18l-35 -166h179l36 166q2 11 10.5 18t19.5 7h118q11 0 16.5 -7t3.5 -18l-100 -470q-2 -10 -10.5 -17.5t-19.5 -7.5h-118q-11 0 -17 7.5t-4 17.5l37 173h-179l-37 -173
q-2 -10 -10.5 -17.5t-19.5 -7.5h-118z" />
    <glyph glyph-name="uni043E" unicode="&#x43e;" horiz-adv-x="609" 
d="M247 -10q-80 0 -134 27t-77.5 77.5t-12.5 120.5q2 20 7.5 45.5t11.5 44.5q19 71 58 121t100.5 77t144.5 27q79 0 133 -27t79 -77t14 -121q-4 -19 -9 -44.5t-10 -45.5q-19 -70 -57 -120.5t-99 -77.5t-149 -27zM262 112q45 0 73 27t42 81q4 15 9.5 40t7.5 40q9 53 -5 80.5
t-59 27.5q-43 0 -71 -27.5t-42 -80.5q-4 -15 -9.5 -40t-7.5 -40q-9 -54 4.5 -81t57.5 -27z" />
    <glyph glyph-name="uni043F" unicode="&#x43f;" horiz-adv-x="630" 
d="M29 0q-11 0 -16.5 7.5t-4.5 17.5l101 470q2 11 10.5 18t19.5 7h458q11 0 17 -7t4 -18l-101 -470q-1 -10 -10 -17.5t-20 -7.5h-118q-10 0 -16 7.5t-4 17.5l77 364h-172l-77 -364q-2 -10 -10.5 -17.5t-19.5 -7.5h-118z" />
    <glyph glyph-name="uni0440" unicode="&#x440;" horiz-adv-x="631" 
d="M7 -190q-11 0 -16 7.5t-3 17.5l140 660q2 11 10.5 18t19.5 7h113q10 0 16 -7t4 -18l-8 -36q30 30 73 50.5t98 20.5q50 0 85 -15.5t55.5 -45.5t26.5 -73t-4 -99q-4 -20 -7.5 -37t-8.5 -37q-17 -71 -54 -123t-89.5 -81t-118.5 -29q-49 0 -82.5 17.5t-49.5 49.5l-47 -222
q-2 -10 -11 -17.5t-20 -7.5h-122zM313 124q34 0 56 14t35.5 38t21.5 53q5 15 8.5 31t5.5 31q4 29 0.5 53t-19.5 38t-50 14q-33 0 -55.5 -14.5t-37 -37.5t-20.5 -50q-6 -19 -10 -37t-7 -38q-4 -25 1 -46.5t22.5 -35t48.5 -13.5z" />
    <glyph glyph-name="uni0441" unicode="&#x441;" horiz-adv-x="589" 
d="M240 -10q-69 0 -123 27t-80 78.5t-14 123.5q3 16 8 40.5t9 40.5q27 110 104.5 170t193.5 60q67 0 113 -19.5t73 -49.5t37.5 -60.5t7.5 -53.5q-1 -10 -9.5 -17.5t-19.5 -7.5h-129q-10 0 -15.5 5t-7.5 16q-2 30 -17.5 44t-45.5 14q-40 0 -68.5 -26t-41.5 -80
q-5 -19 -9 -37.5t-6 -33.5q-10 -55 5 -80t55 -25q31 0 53.5 13.5t38.5 43.5q7 10 14 15t17 5h129q10 0 16 -7t3 -18q-6 -20 -24.5 -50.5t-52.5 -60.5t-87 -50t-127 -20z" />
    <glyph glyph-name="uni0442" unicode="&#x442;" horiz-adv-x="548" 
d="M161 0q-10 0 -16 7.5t-4 17.5l78 364h-152q-11 0 -16.5 7t-3.5 18l18 81q2 11 10.5 18t18.5 7h470q11 0 16.5 -7t3.5 -18l-17 -81q-2 -11 -11 -18t-20 -7h-151l-78 -364q-2 -10 -10.5 -17.5t-19.5 -7.5h-116z" />
    <glyph glyph-name="uni0443" unicode="&#x443;" horiz-adv-x="596" 
d="M4 -191q-11 0 -16.5 7.5t-3.5 18.5l18 80q2 11 11 18.5t19 7.5h35q19 0 32 6.5t26 22t30 42.5l303 487q6 10 13.5 15.5t20.5 5.5h110q9 0 14 -5.5t4 -13.5q-1 -7 -6 -15l-290 -458q-31 -49 -61 -89t-61.5 -69.5t-67.5 -45t-80 -15.5h-50zM165 11l-103 475q-3 13 3 21
q3 5 9.5 9t14.5 4h107q13 0 18 -6.5t6 -14.5l70 -366z" />
    </font>
</defs>
</svg>
