<?xml version="1.0" standalone="no"?>
<!DOCTYPE svg PUBLIC "-//W3C//DTD SVG 1.1//EN" "http://www.w3.org/Graphics/SVG/1.1/DTD/svg11.dtd" >
<svg xmlns="http://www.w3.org/2000/svg" xmlns:xlink="http://www.w3.org/1999/xlink" version="1.1">
<metadata>
Created by FontForge 20170731 at Thu Jan 26 18:25:50 2023
 By Aleksey,,,
Copyright (c) 2019 by Andrew Footit. All rights reserved.
</metadata>
<defs>
<font id="ModulusProEDO-SemiBold" horiz-adv-x="1019" >
  <font-face 
    font-family="Modulus Pro EDO Semi Bold"
    font-weight="600"
    font-stretch="normal"
    units-per-em="2048"
    panose-1="0 0 0 0 0 0 0 0 0 0"
    ascent="1638"
    descent="-410"
    x-height="962"
    cap-height="1440"
    bbox="-285 -473.126 2769 1915"
    underline-thickness="102"
    underline-position="-358"
    unicode-range="U+0020-25CA"
  />
<missing-glyph horiz-adv-x="1054" 
d="M864 1700v-2110h-667v2110h667zM352 -264h350v69h-215l148 99h67v69h-350v-69h148l-148 -99v-69zM352 23h350v239h-350v-239zM352 387h350v240h-210v-119h71v49h70v-100h-211v170h-70v-240zM352 672h350v211h-69v-140h-281v-71zM352 793h211v147h139v70h-350v-70h140v-78
h-140v-69zM352 1067h350v72h-139v147h-211v-219zM352 1341h350v70h-139v78h139v70h-348v-70h138v-78h-140v-70zM422 92v101h211v-101h-211zM422 1139v75h70v-75h-70z" />
    <glyph glyph-name=".notdef" horiz-adv-x="1054" 
d="M864 1700v-2110h-667v2110h667zM352 -264h350v69h-215l148 99h67v69h-350v-69h148l-148 -99v-69zM352 23h350v239h-350v-239zM352 387h350v240h-210v-119h71v49h70v-100h-211v170h-70v-240zM352 672h350v211h-69v-140h-281v-71zM352 793h211v147h139v70h-350v-70h140v-78
h-140v-69zM352 1067h350v72h-139v147h-211v-219zM352 1341h350v70h-139v78h139v70h-348v-70h138v-78h-140v-70zM422 92v101h211v-101h-211zM422 1139v75h70v-75h-70z" />
    <glyph glyph-name=".null" horiz-adv-x="0" 
 />
    <glyph glyph-name="nonmarkingreturn" horiz-adv-x="682" 
 />
    <glyph glyph-name="space" unicode=" " horiz-adv-x="722" 
 />
    <glyph glyph-name="space" unicode="&#xa0;" horiz-adv-x="722" 
 />
    <glyph glyph-name="exclam" unicode="!" horiz-adv-x="432" 
d="M217 0q-45 0 -76.5 33.5t-31.5 79.5q0 45 31.5 76.5t76.5 31.5t78 -32t33 -76q0 -46 -33.5 -79.5t-77.5 -33.5zM117 397v938q0 40 29 69.5t69 29.5q41 0 70.5 -29.5t29.5 -69.5v-938q0 -40 -29.5 -69t-70.5 -29q-40 0 -69 29t-29 69z" />
    <glyph glyph-name="quotedbl" unicode="&#x22;" horiz-adv-x="624" 
d="M125 1110q-22 11 -33.5 34t-7.5 48l35 223q6 42 40.5 67t73.5 19q44 -5 70.5 -40.5t13.5 -82.5l-86 -231q-12 -31 -44.5 -42.5t-61.5 5.5zM358 1192l35 223q6 42 40.5 67t74.5 19q44 -5 70.5 -40.5t13.5 -82.5l-86 -231q-12 -31 -45 -42.5t-62 5.5q-22 11 -33.5 34
t-7.5 48z" />
    <glyph glyph-name="numbersign" unicode="#" horiz-adv-x="1361" 
d="M41 500q-1 38 26 65t66 27h184l54 256h-160q-37 0 -63.5 27t-26.5 65q-2 37 25 64.5t65 27.5h197l65 326q9 41 44 63.5t75 16.5q38 -9 60.5 -44t15.5 -75l-58 -287h287l68 326q7 41 40.5 63.5t73.5 16.5q41 -9 63.5 -44t14.5 -75l-57 -287h131q37 0 63.5 -27t26.5 -65
q0 -37 -26 -64.5t-64 -27.5h-170l-51 -256h141q38 0 65 -26.5t27 -63.5q0 -38 -27 -66t-65 -28h-178l-68 -334q-7 -35 -35 -57.5t-63 -22.5q-46 0 -75 37t-21 84l61 293h-289l-69 -334q-6 -35 -33.5 -57.5t-63.5 -22.5q-46 0 -75.5 37t-20.5 84l60 293h-148q-37 0 -64.5 27
t-27.5 65zM520 592h289l51 256h-289z" />
    <glyph glyph-name="dollar" unicode="$" horiz-adv-x="1232" 
d="M618 -141q-32 0 -52.5 20.5t-20.5 54.5v56q-236 22 -428 205q-33 23 -39 63t18 74q24 33 64 39.5t73 -17.5q137 -143 312 -166v463q-266 55 -375 203q-80 116 -53 260q23 137 138.5 227t289.5 105v49q0 34 20.5 55t52.5 21q35 0 55.5 -21t20.5 -55v-53q188 -30 324 -174
q34 -26 39 -67t-21 -73t-66 -36.5t-71 20.5q-94 98 -205 125v-408q115 -22 201.5 -63.5t133 -87t74 -100.5t34.5 -99t4 -88q-5 -71 -34 -136.5t-81.5 -122t-138 -94.5t-193.5 -48v-56q0 -34 -20.5 -54.5t-55.5 -20.5zM311 1079q-14 -85 48 -138t186 -83v387
q-102 -10 -163 -58.5t-71 -107.5zM694 188q116 16 179 75.5t69 139.5q9 163 -248 222v-437z" />
    <glyph glyph-name="percent" unicode="%" horiz-adv-x="1144" 
d="M215 0q-26 0 -47 12q-35 20 -46 59t9 74l694 1246q20 35 59 45.5t74 -9.5t46.5 -58t-7.5 -73l-696 -1247q-28 -49 -86 -49zM84 1145q0 106 70 181t170 75q98 0 167.5 -75t69.5 -181q0 -104 -69.5 -179t-167.5 -75q-99 0 -169.5 74.5t-70.5 179.5zM229 1145
q0 -44 28.5 -76.5t66.5 -32.5q37 0 63.5 32.5t26.5 76.5q0 45 -26.5 76.5t-63.5 31.5q-39 0 -67 -31.5t-28 -76.5zM573 281q0 105 70.5 179.5t169.5 74.5q98 0 168 -75t70 -179q0 -106 -70 -180t-168 -74q-100 0 -170 74t-70 180zM721 281q0 -46 27 -78.5t65 -32.5
q37 0 64.5 33t27.5 78q0 44 -27.5 76t-64.5 32q-38 0 -65 -32t-27 -76z" />
    <glyph glyph-name="ampersand" unicode="&#x26;" horiz-adv-x="1333" 
d="M600 -16q-203 0 -351 134.5t-157 327.5q-12 285 256 465q-96 185 -37 324q35 82 105.5 136.5t156.5 68.5q113 20 221 -29t191 -154q25 -31 22 -71t-32 -66q-32 -26 -71.5 -22t-65.5 35q-103 132 -232 114q-36 -5 -66.5 -28t-45.5 -58q-33 -83 47 -198q89 -117 409 -506
q16 25 30.5 53.5t24.5 51.5t19 49t13.5 41.5t9 32t4.5 17.5q12 39 47 57t73 5q40 -10 59 -47t7 -76l-8 -25q-8 -26 -19.5 -58t-28.5 -73.5t-42 -90.5t-54 -93q125 -138 125 -141q28 -29 25.5 -69t-33.5 -68q-31 -25 -67 -25q-42 0 -72 35l-102 114q-156 -163 -361 -163z
M289 455q3 -112 93 -194.5t218 -82.5q124 0 234 117q-19 22 -375 455q-93 -63 -134.5 -133t-35.5 -162z" />
    <glyph glyph-name="quotesingle" unicode="'" horiz-adv-x="299" 
d="M74 1149q-23 9 -35.5 32t-7.5 48l37 225q6 41 40 66.5t74 19.5q44 -6 69.5 -41t14.5 -82l-86 -233q-14 -30 -45 -41t-61 6z" />
    <glyph glyph-name="parenleft" unicode="(" horiz-adv-x="485" 
d="M350 -37q-28 0 -51 23q-112 108 -175 312.5t-63 420.5q0 208 58.5 408.5t163.5 308.5q21 23 52 24t54 -20q23 -22 23.5 -53t-21.5 -54q-76 -80 -127 -250.5t-51 -363.5q0 -200 54.5 -374t135.5 -251q22 -23 22.5 -53.5t-19.5 -52.5q-29 -25 -56 -25z" />
    <glyph glyph-name="parenright" unicode=")" horiz-adv-x="485" 
d="M135 -37q-28 0 -53 25q-21 23 -19.5 51.5t21.5 54.5q74 84 132 259t58 366q0 196 -48.5 359t-131.5 255q-20 23 -20 54t22 53q23 21 54.5 20t52.5 -24q104 -108 162.5 -308.5t58.5 -408.5q0 -216 -63 -420.5t-175 -312.5q-23 -23 -51 -23z" />
    <glyph glyph-name="asterisk" unicode="*" horiz-adv-x="595" 
d="M244 1026v76l-84 -53q-29 -20 -58 -3.5t-31 45.5t25 50l103 69l-99 60q-31 16 -28 46.5t28.5 43t55.5 -1.5l88 -51v77q0 33 26 46.5t52 0t26 -46.5v-77l88 51q19 11 37 10.5t29.5 -12.5t16.5 -26.5t-1.5 -31.5t-23.5 -28l-101 -60l107 -71q30 -19 25.5 -51.5t-31 -44.5
t-60.5 6l-86 53v-76q0 -36 -26 -51t-52 -0.5t-26 51.5z" />
    <glyph glyph-name="plus" unicode="+" horiz-adv-x="944" 
d="M180 618q-31 0 -54.5 23t-23.5 55t23.5 55t54.5 23h217v215q0 31 22 53.5t54 22.5t54 -22.5t22 -53.5v-215h215q32 0 55 -23t23 -55t-23 -55t-55 -23h-215v-215q0 -32 -22 -53.5t-54 -21.5t-54 21.5t-22 53.5v215h-217z" />
    <glyph glyph-name="comma" unicode="," horiz-adv-x="366" 
d="M57 -186q-21 13 -28.5 38.5t0.5 49.5l73 213q13 41 51.5 60t77.5 5q41 -13 62 -52.5t0 -82.5l-127 -215q-17 -26 -50 -31t-59 15z" />
    <glyph glyph-name="hyphen" unicode="-" horiz-adv-x="899" 
d="M82 606q0 41 29 71t69 30h539q41 0 69.5 -29.5t28.5 -71.5q0 -41 -28.5 -70.5t-69.5 -29.5h-539q-40 0 -69 29.5t-29 70.5z" />
    <glyph glyph-name="period" unicode="." horiz-adv-x="391" 
d="M195 0q-46 0 -79.5 34t-33.5 81t33.5 79.5t79.5 32.5q47 0 80.5 -32.5t33.5 -79.5t-33.5 -81t-80.5 -34z" />
    <glyph glyph-name="slash" unicode="/" horiz-adv-x="628" 
d="M352 1393q9 40 43.5 62t75.5 15q39 -9 61 -43t15 -73l-268 -1315q-7 -35 -34 -56.5t-63 -21.5q-46 0 -75.5 36t-20.5 83z" />
    <glyph glyph-name="zero" unicode="0" horiz-adv-x="1497" 
d="M748 -10q-133 0 -251.5 57.5t-202.5 155t-132.5 231.5t-48.5 283q0 198 82.5 365t229 264.5t323.5 97.5q133 0 251.5 -57.5t202 -155.5t132 -232t48.5 -282q0 -149 -48.5 -283t-132 -231.5t-202 -155t-251.5 -57.5zM311 717q0 -145 56 -266t156.5 -192t224.5 -71
q123 0 223.5 71t156.5 192t56 266t-56 266t-156 191.5t-224 70.5t-224.5 -70.5t-156.5 -191.5t-56 -266z" />
    <glyph glyph-name="one" unicode="1" horiz-adv-x="532" 
d="M330 0q-41 0 -71 29.5t-30 70.5v1092l-55 -25q-37 -11 -71.5 7.5t-47.5 56.5q-15 38 3 75.5t57 51.5l180 69q49 19 92 -10t43 -82v-1235q0 -41 -29.5 -70.5t-70.5 -29.5z" />
    <glyph glyph-name="two" unicode="2" horiz-adv-x="1167" 
d="M199 0q-64 0 -90 59q-12 26 -8 56t24 51q508 556 653 721q43 54 50.5 119.5t-21.5 119.5q-29 57 -89 89.5t-143 29.5q-92 -5 -165.5 -53.5t-120.5 -136.5q-21 -36 -58.5 -50t-74.5 3q-37 20 -50 59t5 76q135 277 452 301q135 10 247.5 -50.5t172.5 -174.5
q57 -114 43 -239t-96 -220q-9 -13 -92.5 -106t-231.5 -255.5t-182 -199.5h545q40 0 69 -29.5t29 -71.5q0 -40 -29 -69t-69 -29h-770z" />
    <glyph glyph-name="three" unicode="3" horiz-adv-x="1064" 
d="M487 -6q-134 0 -248.5 56t-187.5 155q-24 32 -18 73t39 66q35 24 74.5 18.5t64.5 -38.5q46 -66 121.5 -98.5t154.5 -32.5q126 0 212.5 71t86.5 174q0 106 -91.5 174t-215.5 68q-61 0 -87.5 30t-26.5 72q0 99 108 99q111 3 173.5 57.5t62.5 122.5q0 78 -73 131t-173 51
q-113 -3 -207 -76q-34 -23 -73 -15t-64 42q-24 34 -16.5 74t42.5 65q136 103 310 109q123 3 227 -47t164.5 -138.5t60.5 -195.5q0 -81 -40.5 -151.5t-110.5 -116.5q105 -54 167 -148t62 -207q0 -185 -146 -314.5t-352 -129.5z" />
    <glyph glyph-name="four" unicode="4" horiz-adv-x="1175" 
d="M150 291q-55 0 -82 41q-29 41 -13 88l279 952q14 39 51 57t76 5q37 -14 55 -50.5t6 -76.5l-235 -820h403v371q0 40 30 69t71 29q38 0 67 -29t29 -69v-371h119q40 0 69 -29t29 -69t-29 -69t-69 -29h-119v-193q0 -40 -29 -69t-67 -29q-41 0 -71 29t-30 69v193h-540z" />
    <glyph glyph-name="five" unicode="5" horiz-adv-x="1142" 
d="M539 -8q-149 0 -275.5 72.5t-197.5 197.5q-20 35 -9.5 75t45.5 60q37 22 77.5 11t60.5 -48q43 -76 124 -121.5t175 -45.5q135 0 227 86.5t92 212.5q0 137 -95.5 206.5t-236.5 69.5h-266q-48 0 -78 41q-31 38 -18 84l115 465q7 34 35 55t63 21h428q41 0 69.5 -29t28.5 -72
q0 -41 -28.5 -70.5t-69.5 -29.5h-348l-68 -264h137q238 0 386.5 -132t148.5 -345q0 -137 -69 -252t-189 -181.5t-264 -66.5z" />
    <glyph glyph-name="six" unicode="6" horiz-adv-x="1144" 
d="M567 -4q-140 0 -259.5 69t-189 188t-69.5 259q0 147 82 276q0 1 1 3.5t1 3.5l352 596q22 34 61 45t75 -9q35 -19 46.5 -58.5t-8.5 -74.5l-159 -268q46 4 67 4q140 0 259 -69.5t188 -189t69 -259.5t-69 -259t-188 -188t-259 -69zM248 512q0 -132 93 -225.5t226 -93.5
q132 0 226 93.5t94 225.5t-94 225.5t-226 93.5q-133 0 -226 -93.5t-93 -225.5z" />
    <glyph glyph-name="seven" unicode="7" horiz-adv-x="1081" 
d="M229 0q-28 0 -49 12q-35 20 -46.5 58t7.5 75l600 1092h-600q-42 0 -71 28t-29 70q0 40 29.5 70.5t70.5 30.5h770q55 0 86 -50q25 -52 0 -98l-682 -1237q-28 -51 -86 -51z" />
    <glyph glyph-name="eight" unicode="8" horiz-adv-x="1120" 
d="M559 -8q-134 0 -248.5 63.5t-182 173t-67.5 238.5q0 120 61 223t165 168q-97 100 -97 236q0 145 107 247.5t256 102.5q152 0 258.5 -102.5t106.5 -247.5q0 -132 -93 -232q108 -63 171 -167t63 -228q0 -129 -67 -238.5t-182 -173t-251 -63.5zM260 467q0 -115 88 -196
t211 -81q126 0 214.5 81t88.5 196t-88.5 195.5t-214.5 80.5q-123 0 -211 -80.5t-88 -195.5zM385 1092q0 -65 49.5 -111.5t118.5 -46.5q73 0 123.5 46.5t50.5 111.5t-50.5 112t-123.5 47q-69 0 -118.5 -47t-49.5 -112z" />
    <glyph glyph-name="nine" unicode="9" horiz-adv-x="1146" 
d="M573 418q-139 0 -257 68t-186.5 186t-68.5 258q0 138 68.5 256t186.5 187t257 69t257 -69t186.5 -187t68.5 -256q0 -141 -69 -258l-6 -15l-361 -610q-23 -36 -61 -46.5t-76 7.5q-36 22 -46 61t11 76l162 277q-40 -4 -66 -4zM260 930q0 -130 92 -223t221 -93
q130 0 222 92.5t92 223.5q0 129 -92 221t-222 92q-129 0 -221 -92t-92 -221z" />
    <glyph glyph-name="colon" unicode=":" horiz-adv-x="409" 
d="M205 0q-47 0 -80 34t-33 81t33 79.5t80 32.5q46 0 80 -32.5t34 -79.5t-34 -81t-80 -34zM92 791q0 46 33 79t80 33q46 0 80 -33t34 -79q0 -47 -34 -82t-80 -35q-47 0 -80 34.5t-33 82.5z" />
    <glyph glyph-name="semicolon" unicode=";" horiz-adv-x="382" 
d="M47 -186q-20 14 -28 38.5t1 49.5l74 213q13 41 51.5 60t75.5 5q42 -13 62.5 -52t-0.5 -83l-125 -215q-19 -26 -52 -31t-59 15zM94 791q0 46 33.5 79t79.5 33q47 0 81 -33t34 -79q0 -47 -34 -82t-81 -35q-46 0 -79.5 35t-33.5 82z" />
    <glyph glyph-name="less" unicode="&#x3c;" horiz-adv-x="804" 
d="M629 254q-35 0 -56 16l-448 314q-41 24 -41 75q0 48 39 76l450 322q33 23 70 17t59 -36q25 -32 18.5 -71t-38.5 -62l-344 -243l344 -238q32 -22 39 -60.5t-16 -72.5q-29 -37 -76 -37z" />
    <glyph glyph-name="equal" unicode="=" horiz-adv-x="942" 
d="M178 446q-31 0 -53.5 23.5t-22.5 56.5q0 31 22.5 54.5t53.5 23.5h586q32 0 54 -23.5t22 -54.5q0 -34 -22 -57t-54 -23h-586zM102 840q0 31 22.5 53t53.5 22h586q32 0 54 -22t22 -53q0 -34 -22 -56t-54 -22h-586q-31 0 -53.5 22.5t-22.5 55.5z" />
    <glyph glyph-name="greater" unicode="&#x3e;" horiz-adv-x="804" 
d="M178 254q-50 0 -76 37q-23 34 -17 72.5t38 60.5l344 238l-344 243q-32 23 -38 62t17 71q24 30 61 36t68 -17l451 -322q39 -28 39 -76q0 -51 -41 -75l-449 -314q-21 -16 -53 -16z" />
    <glyph glyph-name="question" unicode="?" horiz-adv-x="1032" 
d="M477 0q-45 0 -76.5 33.5t-31.5 79.5q0 45 31.5 76.5t76.5 31.5t78 -32t33 -76q0 -46 -33.5 -79.5t-77.5 -33.5zM86 1137q-11 -39 7.5 -74t56.5 -47q38 -10 71.5 8t48.5 57q10 25 24 47.5t41 51.5t70.5 47.5t98.5 21.5q94 4 153.5 -41.5t81.5 -103.5q10 -34 12.5 -71.5
t-21 -86t-73.5 -88.5q-39 -31 -56 -45t-51.5 -45.5t-51.5 -53t-42 -57.5t-37 -70.5t-22.5 -81t-13.5 -97.5q-5 -43 20 -76t76 -33q40 0 63 19t33 63q3 36 12 69.5t18 58.5t28.5 53.5t31 44t38.5 41t37 34.5t41.5 35t37.5 31q97 81 123 196.5t-22 233.5q-54 129 -171 200
t-260 62q-148 -12 -255.5 -93t-147.5 -210z" />
    <glyph glyph-name="at" unicode="@" horiz-adv-x="1636" 
d="M834 -23q-181 0 -341 84t-265 231.5t-128 328.5q-20 159 25.5 310.5t150.5 270.5q104 118 249.5 184t303.5 68h5q162 0 301.5 -55t236.5 -158q183 -195 168 -493q-3 -61 -16 -147.5t-27 -131.5q-27 -83 -90.5 -124t-136.5 -32q-49 6 -90.5 37t-65.5 82
q-63 -72 -153 -112.5t-195 -40.5q-177 0 -295 127q-117 126 -104 309q17 177 150 299.5t310 122.5q179 0 297 -127q13 -13 33 -41q5 10 25 45q13 21 37.5 25.5t44.5 -9.5q22 -15 26.5 -40.5t-10.5 -47.5q-30 -41 -45.5 -161.5t-13.5 -241.5q0 -45 19 -71.5t46 -29.5
q27 -5 53 12.5t39 57.5q24 75 37 248q12 250 -135 397q-78 85 -193.5 130.5t-252.5 45.5h-5q-130 0 -250 -55.5t-206 -155.5q-90 -100 -128.5 -225t-19.5 -258q14 -114 71 -215t141.5 -171.5t194 -110.5t224.5 -36q105 6 184 37q25 9 49 -1.5t31 -35.5q9 -25 -1.5 -48
t-33.5 -34q-115 -43 -251 -43zM541 700q-9 -106 57 -178q64 -70 166 -73q117 -1 199.5 78t91.5 182q12 106 -58 182q-68 74 -170 74q-108 0 -192.5 -78.5t-93.5 -186.5z" />
    <glyph glyph-name="A" unicode="A" horiz-adv-x="1400" 
d="M236 59q-12 -25 -31 -40t-40 -18t-43 1t-39 17.5t-29 31t-13 41.5t10 49l557 1235q17 39 54 54t74 0.5t55 -54.5l559 -1235q11 -25 10 -48.5t-13 -41t-29 -31.5t-39 -18t-42.5 -1.5t-39.5 18t-30 40.5l-125 281h-684zM449 539h501l-252 555z" />
    <glyph glyph-name="B" unicode="B" horiz-adv-x="1294" 
d="M244 -2q-41 0 -71 30t-30 70v1235v2q0 41 30 71t71 30h438q169 0 288.5 -120.5t119.5 -289.5q0 -155 -111 -258q109 -37 179.5 -137t70.5 -223q0 -169 -119.5 -289.5t-288.5 -120.5h-577zM344 199h477q86 0 147.5 61.5t61.5 147.5t-61.5 147t-147.5 61h-477v-417z
M344 817h338q87 0 148 61t61 148q0 88 -60.5 149.5t-148.5 61.5h-338v-420z" />
    <glyph glyph-name="C" unicode="C" horiz-adv-x="1359" 
d="M813 -14q-148 0 -283.5 58t-233.5 156t-156 233.5t-58 283.5q0 197 98 365t266.5 266t366.5 98q224 0 408 -125q34 -23 41.5 -63.5t-15.5 -77.5q-23 -34 -64 -42t-75 15q-134 90 -295 90q-144 0 -265.5 -70.5t-192 -191.5t-70.5 -264t70.5 -265t192 -193t265.5 -71
q171 0 311 103q34 25 74.5 18t65.5 -41t19 -75t-40 -64q-190 -143 -430 -143z" />
    <glyph glyph-name="D" unicode="D" horiz-adv-x="1402" 
d="M612 1434q146 0 279.5 -57t229.5 -153t153 -228t57 -277q0 -146 -57 -279.5t-153 -229.5t-229.5 -153t-279.5 -57h-368q-38 1 -67 28t-32 62q-2 6 -2 10v1190v45q0 40 30 69.5t71 29.5h368zM342 201l270 -4q142 0 262 69.5t189.5 190t69.5 262.5q0 141 -69.5 260.5
t-189.5 188.5t-262 69h-270v-1036z" />
    <glyph glyph-name="E" unicode="E" horiz-adv-x="1181" 
d="M1012 199q41 0 70.5 -30t29.5 -71q0 -40 -29.5 -69t-70.5 -29h-781q-41 0 -70.5 29t-29.5 69v1237q0 40 29.5 69.5t70.5 29.5h781q41 0 70.5 -29.5t29.5 -69.5q0 -41 -29.5 -70.5t-70.5 -29.5h-682v-420h573q42 0 71.5 -28.5t29.5 -69.5t-30 -70t-71 -29h-573v-419h682z
" />
    <glyph glyph-name="F" unicode="F" horiz-adv-x="1185" 
d="M231 0q-41 0 -70.5 29t-29.5 69v1237q0 41 29.5 71t70.5 30h795q40 0 69 -30t29 -71t-29 -69.5t-69 -28.5h-694v-420h596q41 0 70.5 -29t29.5 -69q0 -43 -29 -72t-71 -29h-596v-520q0 -40 -30 -69t-71 -29z" />
    <glyph glyph-name="G" unicode="G" horiz-adv-x="1382" 
d="M811 -10q-197 0 -365 97.5t-266 264.5t-98 363q0 198 98 366t266 265.5t365 97.5q215 0 406 -123q34 -25 42.5 -66t-14.5 -75q-25 -34 -65 -42.5t-74 15.5q-134 88 -295 88q-143 0 -264.5 -70t-192.5 -191t-71 -265q0 -106 42 -203.5t112.5 -168.5t168.5 -113t205 -42
q141 0 268 78v348h-266q-41 0 -70.5 30t-29.5 71q0 43 29.5 72.5t70.5 29.5h367q41 0 70.5 -29.5t29.5 -72.5v-504q0 -53 -41 -80q-187 -141 -428 -141z" />
    <glyph glyph-name="H" unicode="H" horiz-adv-x="1359" 
d="M1116 1436q41 0 71 -29t30 -70v-1239q0 -41 -30 -70.5t-71 -29.5q-40 0 -70 29.5t-30 70.5v512h-674v-512q0 -41 -29.5 -70.5t-70.5 -29.5t-70 29.5t-29 70.5v1239q0 41 29 70t70 29t70.5 -29t29.5 -70v-528h674v528q0 41 30 70t70 29z" />
    <glyph glyph-name="I" unicode="I" horiz-adv-x="421" 
d="M211 -4q-41 0 -70.5 28.5t-29.5 69.5v1245q0 41 29.5 71t70.5 30t70.5 -30t29.5 -71v-1245q0 -41 -29.5 -69.5t-70.5 -28.5z" />
    <glyph glyph-name="J" unicode="J" horiz-adv-x="1214" 
d="M539 0q-127 0 -238 55t-186 150q-41 45 -31.5 95t57.5 73q56 26 119 -33q48 -65 121.5 -103t157.5 -38q149 0 254.5 104.5t105.5 253.5v680h-354q-40 0 -69.5 28.5t-29.5 69.5q0 40 29.5 69.5t69.5 29.5h452q41 0 70 -29.5t29 -69.5v-778q0 -113 -44 -216t-118.5 -178
t-177.5 -119t-217 -44z" />
    <glyph glyph-name="K" unicode="K" horiz-adv-x="1191" 
d="M1126 164q28 -31 25.5 -72t-33.5 -67q-31 -25 -65 -25q-48 0 -76 35l-506 583l-149 -165v-355q0 -40 -29.5 -69t-71.5 -29q-40 0 -69 29t-29 69v1237q0 40 29 69.5t69 29.5q42 0 71.5 -29.5t29.5 -69.5v-583l593 649q26 30 68 32.5t72 -24.5q30 -29 32.5 -70t-24.5 -71
l-459 -500z" />
    <glyph glyph-name="L" unicode="L" horiz-adv-x="1224" 
d="M242 0q-40 0 -69.5 29t-29.5 69v1237q0 40 29.5 69.5t69.5 29.5q41 0 70.5 -29.5t29.5 -69.5v-1136h711q41 0 69.5 -29t28.5 -72q0 -40 -28.5 -69t-69.5 -29h-811z" />
    <glyph glyph-name="M" unicode="M" horiz-adv-x="1705" 
d="M231 0q-41 0 -70.5 29t-29.5 69v1239q0 33 19.5 59.5t50.5 37.5q31 9 61.5 -0.5t50.5 -34.5l539 -737l541 737q20 25 50.5 34.5t61.5 0.5q31 -11 49.5 -37t18.5 -60v-1239q0 -40 -29.5 -69t-70.5 -29q-40 0 -69.5 29t-29.5 69v936l-440 -600q-33 -42 -83.5 -41t-78.5 41
l-440 600v-936q0 -40 -30 -69t-71 -29z" />
    <glyph glyph-name="N" unicode="N" horiz-adv-x="1429" 
d="M229 0q-40 0 -69 29.5t-29 70.5v1239q0 32 18.5 58.5t49.5 36.5q31 11 61.5 2t50.5 -35l787 -1010v948q0 42 28.5 71.5t69.5 29.5q42 0 71 -29.5t29 -71.5v-1239q0 -33 -18.5 -59t-48.5 -35q-15 -6 -33 -6q-49 0 -80 39l-784 1010v-949q0 -41 -30 -70.5t-73 -29.5z" />
    <glyph glyph-name="O" unicode="O" horiz-adv-x="1609" 
d="M807 -16q-200 0 -370 98.5t-268.5 267.5t-98.5 367q0 150 58 286.5t157 234.5t235.5 156t286.5 58q198 0 366 -98t266.5 -267.5t98.5 -369.5q0 -198 -98.5 -367t-267 -267.5t-365.5 -98.5zM272 717q0 -107 42.5 -205.5t114 -170.5t170.5 -114.5t208 -42.5q107 0 205 42.5
t169.5 114.5t113.5 170.5t42 205.5q0 145 -71.5 268t-193.5 194.5t-265 71.5q-145 0 -268.5 -71.5t-195 -194.5t-71.5 -268z" />
    <glyph glyph-name="P" unicode="P" horiz-adv-x="1323" 
d="M774 1436q129 0 239.5 -65t175 -175.5t64.5 -239.5q0 -98 -38.5 -187t-102.5 -153.5t-152.5 -102.5t-185.5 -38h-457v-377q0 -40 -29.5 -69t-70.5 -29t-70.5 29t-29.5 69v1237q0 41 29.5 71t70.5 30h557zM317 674h457q116 0 198.5 82.5t82.5 199.5q0 115 -82.5 197
t-198.5 82h-457v-561z" />
    <glyph glyph-name="Q" unicode="Q" horiz-adv-x="1638" 
d="M1479 158q26 -32 23 -74t-34 -70q-27 -24 -65 -24q-46 0 -76 35l-86 96q-194 -139 -422 -139q-200 0 -369.5 99t-268.5 269t-99 371q0 200 99 369t268.5 267.5t369.5 98.5t369.5 -98.5t268.5 -267.5t99 -369q0 -128 -43.5 -246.5t-121.5 -214.5zM285 721
q0 -146 71.5 -269.5t194.5 -195.5t268 -72q155 0 285 95l-123 143q-28 32 -24 73.5t36 69.5q31 28 72.5 25t69.5 -35l112 -133q105 127 105 299q0 144 -71 266.5t-194 194t-268 71.5t-268 -71.5t-194.5 -194t-71.5 -266.5z" />
    <glyph glyph-name="R" unicode="R" horiz-adv-x="1335" 
d="M221 0q-40 0 -69 29t-29 69v1237q0 40 29 69.5t69 29.5h557q130 0 240.5 -64.5t174.5 -175t64 -240.5q0 -156 -93.5 -277.5t-235.5 -160.5l305 -350q27 -33 24.5 -73t-32.5 -68q-31 -25 -66 -25q-51 0 -76 35l-385 440h-376v-377q0 -40 -30 -69t-71 -29zM322 674h456
q116 0 198.5 81.5t82.5 198.5t-82.5 199t-198.5 82h-456v-561z" />
    <glyph glyph-name="S" unicode="S" horiz-adv-x="1212" 
d="M618 -8q-91 0 -171 18.5t-142 52t-103.5 65t-82.5 71.5q-33 23 -40 63t17 72q25 33 64.5 39.5t72.5 -17.5q33 -34 65 -59.5t79.5 -53t109 -42.5t131.5 -15q151 0 233.5 63.5t88.5 158.5q9 185 -332 235q-319 49 -436 213q-82 111 -55 258q28 153 166.5 244.5t343.5 87.5
q230 -9 387 -180q34 -25 39 -65.5t-21 -74.5q-27 -31 -65.5 -35.5t-69.5 21.5q-56 58 -122 94.5t-159 40.5q-132 6 -213.5 -46.5t-91.5 -121.5q-13 -69 28.5 -119t115.5 -77.5t182 -42.5q94 -14 170.5 -39t128 -55t90.5 -68t60 -74t33.5 -76t15 -71.5t0.5 -63.5
q-4 -76 -37 -145.5t-94 -127.5t-161 -93t-225 -35z" />
    <glyph glyph-name="T" unicode="T" horiz-adv-x="1236" 
d="M1063 1434q40 0 69 -29.5t29 -69.5q0 -41 -29 -70.5t-69 -29.5h-346v-1137q0 -40 -29 -69t-70 -29t-70.5 29t-29.5 69v1137h-342q-41 0 -70.5 29.5t-29.5 70.5q0 40 29.5 69.5t70.5 29.5h887z" />
    <glyph glyph-name="U" unicode="U" horiz-adv-x="1402" 
d="M702 -8q-159 0 -294 78t-213 212.5t-78 292.5v758q0 43 29.5 72t70.5 29t70.5 -29t29.5 -72v-758q0 -159 113 -272t272 -113t271 113t112 272v758q0 42 29.5 71.5t71.5 29.5t71 -29t29 -72v-758q0 -158 -78.5 -292.5t-213 -212.5t-292.5 -78z" />
    <glyph glyph-name="V" unicode="V" horiz-adv-x="1425" 
d="M715 0q-64 0 -90 59l-555 1235q-17 37 -2 75.5t53 55.5q37 17 75.5 2t55.5 -53l463 -1032l459 1032q19 38 56.5 53t74.5 -2q38 -17 53 -55.5t-2 -75.5l-549 -1235q-29 -59 -92 -59z" />
    <glyph glyph-name="W" unicode="W" horiz-adv-x="1935" 
d="M1806 1436q40 -12 59 -49.5t5 -75.5l-461 -1243q-28 -65 -92 -68h-2q-31 0 -56.5 17t-37.5 46l-252 642l-254 -642q-10 -29 -35.5 -46t-56.5 -17h-2q-67 3 -95 68l-458 1243q-14 38 4.5 75.5t56.5 49.5q40 14 77 -4t50 -58l373 -985l248 625q13 38 50.5 54.5t76.5 2.5
q40 -17 57 -55v-2l246 -625l374 985q13 40 50 58t75 4z" />
    <glyph glyph-name="X" unicode="X" horiz-adv-x="1277" 
d="M1198 156q25 -31 20 -71t-36 -65q-28 -22 -60 -22q-52 0 -80 39l-401 520l-403 -520q-31 -39 -78 -39q-34 0 -62 22q-32 25 -36.5 65t20.5 71l432 563l-432 563q-25 31 -20.5 71t36.5 66q34 26 73.5 20.5t66.5 -38.5l403 -518l401 518q25 33 66 38.5t74 -20.5
q31 -26 36 -66t-20 -71l-432 -563z" />
    <glyph glyph-name="Y" unicode="Y" horiz-adv-x="1251" 
d="M1155 1421q34 -23 43.5 -63t-12.5 -74l-459 -731l-2 -455q0 -40 -29.5 -69t-70.5 -29t-70 29t-29 69l2 455l-462 731q-22 34 -13.5 74t43.5 63q35 22 75 13t62 -43l394 -623l389 623q23 34 62.5 42.5t76.5 -12.5z" />
    <glyph glyph-name="Z" unicode="Z" horiz-adv-x="1413" 
d="M1210 199q41 0 71 -30t30 -71q0 -40 -30 -69t-71 -29h-1009q-28 0 -52 15t-36 40q-29 56 10 107l840 1075h-738q-41 0 -70.5 28.5t-29.5 69.5q0 43 29.5 72t70.5 29h940q28 0 52 -15.5t36 -40.5q27 -60 -10 -106l-840 -1075h807z" />
    <glyph glyph-name="bracketleft" unicode="[" horiz-adv-x="415" 
d="M137 -82q-31 0 -53.5 23t-22.5 55v1442q0 32 22.5 55t53.5 23h142q31 0 53 -23t22 -55q0 -31 -22 -53.5t-53 -22.5h-62v-1290h62q31 0 53 -22t22 -54t-22 -55t-53 -23h-142z" />
    <glyph glyph-name="backslash" unicode="\" horiz-adv-x="585" 
d="M524 80q7 -47 -22.5 -83t-75.5 -36q-34 0 -61.5 21.5t-34.5 56.5l-267 1315q-8 40 14 73.5t62 42.5q40 8 74 -14.5t43 -62.5z" />
    <glyph glyph-name="bracketright" unicode="]" horiz-adv-x="415" 
d="M137 -82q-31 0 -53.5 23t-22.5 55t22.5 54t53.5 22h62v1290h-62q-31 0 -53.5 22.5t-22.5 53.5q0 32 22.5 55t53.5 23h142q31 0 53 -23t22 -55v-1442q0 -32 -22 -55t-53 -23h-142z" />
    <glyph glyph-name="asciicircum" unicode="^" horiz-adv-x="645" 
d="M205 1006q-11 -22 -31 -30.5t-38 -3.5t-34 17.5t-18.5 33t8.5 42.5l178 336q18 32 57.5 33t57.5 -35l170 -336q19 -37 -2 -65.5t-58 -27t-55 37.5l-114 225z" />
    <glyph glyph-name="underscore" unicode="_" horiz-adv-x="972" 
d="M82 -123q0 40 29 69t69 29h611q41 0 70.5 -29t29.5 -69q0 -41 -29.5 -70.5t-70.5 -29.5h-611q-40 0 -69 29.5t-29 70.5z" />
    <glyph glyph-name="grave" unicode="`" horiz-adv-x="342" 
d="M92 1589q-18 38 6 65.5t61.5 23.5t51.5 -44l49 -139q11 -24 -4.5 -43t-41.5 -18.5t-42 24.5z" />
    <glyph glyph-name="a" unicode="a" horiz-adv-x="1114" 
d="M553 -6q-133 0 -245 65t-177 177t-65 245q0 131 65 243t177 177.5t245 65.5q131 0 242.5 -65.5t177 -177.5t65.5 -243v-8v-6v-373q0 -41 -26.5 -69.5t-63.5 -28.5q-40 0 -66 28t-26 70v37q-137 -137 -303 -137zM264 481q0 -120 85 -204t204 -84t203 84t84 204
q0 119 -84 203t-203 84t-204 -84.5t-85 -202.5z" />
    <glyph glyph-name="b" unicode="b" horiz-adv-x="1126" 
d="M578 967q202 0 344.5 -142.5t142.5 -343.5t-142.5 -344t-344.5 -143q-131 0 -243.5 65.5t-178.5 177.5t-66 244v8v5v843q0 40 27.5 68.5t64.5 28.5q38 0 65 -28.5t27 -68.5v-477q132 107 304 107zM289 481q0 -120 84.5 -204t204.5 -84q119 0 203.5 84t84.5 204
q0 118 -84.5 202.5t-203.5 84.5q-120 0 -204.5 -84t-84.5 -203z" />
    <glyph glyph-name="c" unicode="c" horiz-adv-x="962" 
d="M555 -6q-133 0 -245.5 65.5t-178 178.5t-65.5 247q0 133 65.5 246t178 178.5t245.5 65.5q171 0 301 -103q34 -26 39 -67.5t-21 -73.5t-66.5 -37t-72.5 21q-80 59 -180 59q-119 0 -204 -85t-85 -204q0 -121 85 -205.5t204 -84.5q101 0 180 61q32 25 72.5 19.5t66.5 -37.5
t21 -74t-39 -68q-129 -102 -301 -102z" />
    <glyph glyph-name="d" unicode="d" horiz-adv-x="1136" 
d="M549 967q167 0 301 -105v475q0 40 27.5 68.5t66.5 28.5q37 0 63.5 -28.5t26.5 -68.5v-843v-5v-8q0 -132 -65.5 -244t-177 -177.5t-242.5 -65.5q-202 0 -345 143t-143 344t143 343.5t345 142.5zM260 481q0 -120 84.5 -204t204.5 -84q119 0 203 84t84 204q0 119 -84 203
t-203 84q-120 0 -204.5 -84t-84.5 -203z" />
    <glyph glyph-name="e" unicode="e" horiz-adv-x="1083" 
d="M510 2q-196 22 -320 159t-124 326q0 132 65 244t176 177t242 65q197 0 332 -133t135 -326q0 -35 -24 -61.5t-58 -32.5q-4 -2 -14 -2l-650 -2q20 -93 92 -153.5t177 -72.5q174 -20 301 76q36 14 73.5 6t51.5 -41q14 -35 -2.5 -69.5t-53.5 -55.5q-140 -127 -399 -104z
M268 557l547 2q-14 102 -87.5 165.5t-178.5 63.5q-104 0 -182 -62.5t-99 -168.5z" />
    <glyph glyph-name="f" unicode="f" horiz-adv-x="743" 
d="M190 0q-41 0 -70.5 29t-29.5 69v844q0 126 41 223.5t109 154.5t147.5 85.5t165.5 28.5h29q41 0 70.5 -30t29.5 -71t-29.5 -69.5t-70.5 -28.5l-29 -2q-117 0 -185.5 -72.5t-76.5 -193.5h248q38 0 65 -27.5t27 -65.5t-27 -66t-65 -28h-248v-682q0 -40 -30 -69t-71 -29z" />
    <glyph glyph-name="g" unicode="g" horiz-adv-x="1130" 
d="M553 -2q-132 0 -244 64.5t-177.5 175.5t-65.5 243q0 131 65.5 243t177.5 177.5t244 65.5t244 -65.5t177.5 -177.5t65.5 -243v-2v-2v-399q0 -192 -127.5 -329t-324.5 -159q-13 0 -38 -1t-36 -1q-154 0 -274 68q-36 15 -52 53.5t-2 75.5q17 39 55 54.5t76 -1.5
q109 -65 250 -47q118 11 195.5 89.5t77.5 197.5v8q-128 -88 -287 -88zM266 481q0 -120 84 -203t203 -83q120 0 203.5 83t83.5 203q0 119 -83.5 203t-203.5 84q-119 0 -203 -84t-84 -203z" />
    <glyph glyph-name="h" unicode="h" horiz-adv-x="1036" 
d="M190 0q-40 0 -70 29.5t-30 70.5v1237q0 42 30 71.5t70 29.5q43 0 72 -29t29 -72v-430q106 66 229 66q177 0 302.5 -125.5t125.5 -302.5v-445q0 -41 -29.5 -70.5t-70.5 -29.5t-70.5 29.5t-29.5 70.5v445q0 94 -67 160.5t-161 66.5t-161.5 -66.5t-67.5 -160.5v-445
q0 -42 -29.5 -71t-71.5 -29z" />
    <glyph glyph-name="i" unicode="i" horiz-adv-x="405" 
d="M201 0q-41 0 -70 29.5t-29 70.5v770q0 41 29 71t70 30t71.5 -30t30.5 -71v-770q0 -41 -30.5 -70.5t-71.5 -29.5zM86 1204q0 50 34 83.5t83 33.5t81.5 -33.5t32.5 -83.5q0 -48 -32.5 -83.5t-81.5 -35.5t-83 35.5t-34 83.5z" />
    <glyph glyph-name="j" unicode="j" horiz-adv-x="432" 
d="M-66 -414q-52 -1 -85 26.5t-35 68.5t27 72t73 34q101 18 152 82t51 188l-2 809q0 38 21 63.5t50.5 31.5t59 0t50.5 -31t21 -62v-811q0 -119 -41 -217.5t-129 -167.5t-213 -86zM98 1206q0 47 35 81t82 34q49 0 82 -33.5t33 -81.5q0 -50 -33 -85.5t-82 -35.5q-47 0 -82 36
t-35 85z" />
    <glyph glyph-name="k" unicode="k" horiz-adv-x="931" 
d="M180 0q-40 0 -70 30t-30 70v1235q0 41 30 71t70 30t70.5 -30t30.5 -71v-723l432 334q34 26 75 21t66 -39q26 -32 20 -74t-40 -68l-322 -245l342 -373q27 -29 26 -70.5t-30 -70.5q-34 -27 -70 -27q-43 0 -71 31l-357 385l-71 -56v-260q0 -40 -30.5 -70t-70.5 -30z" />
    <glyph glyph-name="l" unicode="l" horiz-adv-x="665" 
d="M516 0q-200 0 -318 124.5t-118 334.5v874q0 41 29.5 71t70.5 30q40 0 70.5 -30t30.5 -71v-874q0 -132 62.5 -195t172.5 -63q41 0 69.5 -29.5t28.5 -71.5q0 -41 -28.5 -70.5t-69.5 -29.5z" />
    <glyph glyph-name="m" unicode="m" horiz-adv-x="1568" 
d="M784 0q-42 0 -71 29t-29 71v473q0 83 -57.5 141t-139.5 58q-80 0 -137 -58t-57 -141v-473q0 -41 -30 -70.5t-73 -29.5q-41 0 -70.5 29.5t-29.5 70.5v473q0 165 116 281.5t281 116.5q177 0 297 -133q120 133 297 133q165 0 281.5 -116.5t116.5 -281.5v-473
q0 -41 -30 -70.5t-71 -29.5q-43 0 -72.5 29.5t-29.5 70.5v473q0 83 -57.5 141t-137.5 58q-82 0 -139 -58t-57 -141v-473q0 -41 -30 -70.5t-71 -29.5z" />
    <glyph glyph-name="n" unicode="n" 
d="M180 0q-40 0 -70 29.5t-30 70.5v445q0 177 126 302.5t304 125.5q177 0 302.5 -125.5t125.5 -302.5v-445q0 -41 -29.5 -70.5t-70.5 -29.5t-71 29.5t-30 70.5v445q0 94 -66.5 160.5t-160.5 66.5t-161.5 -66.5t-67.5 -160.5v-445q0 -42 -29.5 -71t-71.5 -29z" />
    <glyph glyph-name="o" unicode="o" horiz-adv-x="1095" 
d="M549 -6q-133 0 -245.5 65t-177.5 177t-65 245q0 98 38.5 188t104 155t156 104t189.5 39q131 0 242.5 -65.5t177 -177.5t65.5 -243q0 -133 -65.5 -245t-177 -177t-242.5 -65zM260 481q0 -120 84.5 -204t204.5 -84q119 0 203 84t84 204q0 119 -84 203t-203 84
q-120 0 -204.5 -84t-84.5 -203z" />
    <glyph glyph-name="p" unicode="p" horiz-adv-x="1120" 
d="M573 0q-171 0 -303 104v-417q0 -40 -27 -68.5t-65 -28.5q-37 0 -64.5 28.5t-27.5 68.5v786v4v8q0 132 65.5 244.5t177.5 178t244 65.5q99 0 189 -39t155 -104.5t103.5 -155.5t38.5 -189q0 -132 -65 -243.5t-177 -176.5t-244 -65zM285 485q0 -119 84 -202.5t204 -83.5
q119 0 204 84t85 202q0 120 -85 204.5t-204 84.5q-120 0 -204 -84.5t-84 -204.5z" />
    <glyph glyph-name="q" unicode="q" horiz-adv-x="1116" 
d="M549 0q-202 0 -345 142t-143 343t143 344.5t345 143.5q131 0 242.5 -65.5t177 -178t65.5 -244.5v-8v-4v-786q0 -40 -26.5 -68.5t-63.5 -28.5q-39 0 -66.5 28.5t-27.5 68.5v417q-132 -104 -301 -104zM260 485q0 -119 84.5 -202.5t204.5 -83.5q119 0 203 84t84 202
q0 120 -84 204.5t-203 84.5q-120 0 -204.5 -84.5t-84.5 -204.5z" />
    <glyph glyph-name="r" unicode="r" horiz-adv-x="968" 
d="M190 0q-40 0 -70 29t-30 69v451q0 177 125.5 301.5t302.5 124.5q137 0 248.5 -79.5t155.5 -209.5q13 -38 -5.5 -75.5t-56.5 -51.5q-40 -12 -78 6.5t-51 57.5q-23 69 -82 111t-131 42q-94 0 -160.5 -66.5t-66.5 -160.5v-451q0 -40 -30 -69t-71 -29z" />
    <glyph glyph-name="s" unicode="s" horiz-adv-x="897" 
d="M469 -6q-160 -2 -348 94q-36 15 -51.5 52.5t-1.5 74.5q15 38 52.5 53t74.5 0q54 -34 115.5 -53t114.5 -21.5t97 6.5t69.5 31t26.5 52q0 37 -47 67.5t-127 48.5q-107 27 -181 66.5t-109 84t-48 85.5t-10 84q5 74 56 133t134 90.5t179 28.5q144 0 276 -76q37 -17 52 -55.5
t-2 -73.5q-18 -37 -55 -52t-74 3q-60 37 -124.5 51t-112.5 7t-80 -27.5t-34 -47.5q-2 -12 5 -26t24 -31.5t54 -34t89 -28.5q353 -90 353 -297q0 -53 -22 -102.5t-65.5 -91t-115.5 -67.5t-164 -28z" />
    <glyph glyph-name="t" unicode="t" horiz-adv-x="731" 
d="M190 1434q41 0 71 -29.5t30 -69.5v-368h248q38 0 65 -27.5t27 -65.5q0 -40 -27 -67t-65 -27h-248v-288q0 -129 69.5 -210t192.5 -81l29 -2q41 0 70.5 -29t29.5 -70t-29.5 -70.5t-70.5 -29.5h-29q-68 0 -132.5 17.5t-125 56t-106 94.5t-72.5 139.5t-27 184.5v843
q0 40 29.5 69.5t70.5 29.5z" />
    <glyph glyph-name="u" unicode="u" 
d="M180 973q43 0 72 -29t29 -72v-444q0 -92 67.5 -158.5t161.5 -66.5t160.5 66.5t66.5 158.5v444q0 42 29.5 71.5t71.5 29.5t71 -29.5t29 -71.5v-444q0 -177 -125.5 -302.5t-302.5 -125.5q-178 0 -304 125.5t-126 302.5v444q0 42 30 71.5t70 29.5z" />
    <glyph glyph-name="v" unicode="v" horiz-adv-x="948" 
d="M467 0q-29 0 -54.5 16.5t-37.5 44.5l-322 773q-15 37 1.5 75.5t54.5 55.5q38 15 76 -1.5t55 -54.5l231 -551l238 553q17 38 56 53.5t77 0.5q39 -17 54 -56.5t-3 -77.5l-332 -770q-12 -28 -37.5 -44.5t-54.5 -16.5h-2z" />
    <glyph glyph-name="w" unicode="w" horiz-adv-x="1605" 
d="M467 0q-29 0 -54.5 16.5t-37.5 44.5l-322 773q-15 37 1.5 75.5t54.5 55.5q38 15 76 -1.5t55 -54.5l231 -551l238 553q17 38 56 53.5t77 0.5q14 -7 22 -15q19 -14 33 -41l229 -551l240 553q17 38 56 53.5t77 0.5q38 -17 53 -56.5t-2 -77.5l-331 -770q-12 -28 -37.5 -44.5
t-55.5 -16.5h-2q-31 0 -55.5 16.5t-36.5 44.5l-231 555l-240 -555q-12 -28 -37.5 -44.5t-54.5 -16.5h-2z" />
    <glyph glyph-name="x" unicode="x" horiz-adv-x="933" 
d="M145 -2q-35 0 -63 22q-32 28 -36 70t24 74l266 321l-266 320q-28 32 -24 73.5t36 69.5q32 26 73.5 22.5t67.5 -34.5l244 -293l244 293q26 31 67.5 34.5t73.5 -22.5q32 -28 35 -69.5t-23 -73.5l-266 -320l266 -321q26 -32 23 -74t-35 -70q-31 -22 -66 -22q-48 0 -75 37
l-244 293l-244 -293q-30 -37 -78 -37z" />
    <glyph glyph-name="y" unicode="y" horiz-adv-x="999" 
d="M352 -367q-22 0 -43 9q-38 17 -52.5 56.5t3.5 76.5l137 309l-342 739q-19 38 -5 78t52 57q37 18 77 4t57 -51l270 -581l256 577q17 40 56 55t79 -4q37 -17 51.5 -56t-2.5 -79l-502 -1130q-28 -60 -92 -60z" />
    <glyph glyph-name="z" unicode="z" horiz-adv-x="968" 
d="M170 0q-28 0 -53 15t-37 40q-12 26 -9 56t21 51l473 604h-379q-43 0 -72.5 29.5t-29.5 70.5q0 43 29.5 72t72.5 29h584q64 0 90 -56q26 -57 -10 -106l-473 -604h422q41 0 69.5 -29.5t28.5 -71.5q0 -41 -28.5 -70.5t-69.5 -29.5h-629z" />
    <glyph glyph-name="braceleft" unicode="{" horiz-adv-x="550" 
d="M281 -88q-32 0 -55 23t-23 55v510q0 29 -13.5 55.5t-34 44.5t-33.5 27t-24 14q-20 9 -32.5 28.5t-12.5 41.5q0 52 43 71q12 6 27 17t34.5 29.5t32.5 44.5t13 53v510q0 32 22.5 53.5t55.5 21.5h133q30 0 52.5 -21.5t22.5 -53.5t-23 -56t-52 -24h-56v-430q0 -109 -104 -213
q104 -100 104 -213v-434h56q30 0 52.5 -23t22.5 -53q0 -32 -22.5 -55t-52.5 -23h-133z" />
    <glyph glyph-name="bar" unicode="|" horiz-adv-x="389" 
d="M195 -223q-37 0 -64 26t-27 64v1671q0 38 27 65t64 27t63.5 -27t26.5 -65v-1671q0 -38 -26.5 -64t-63.5 -26z" />
    <glyph glyph-name="braceright" unicode="}" horiz-adv-x="550" 
d="M137 -88q-30 0 -53 23t-23 55q0 30 23 53t53 23h56v434q0 113 104 213q-104 104 -104 213v430h-56q-30 0 -53 24t-23 56q0 31 23 53t53 22h133q33 0 55.5 -21.5t22.5 -53.5v-510q0 -51 37 -89.5t70 -54.5q43 -19 43 -71q0 -22 -12.5 -41.5t-32.5 -28.5q-11 -5 -24 -14
t-33.5 -27t-34 -44.5t-13.5 -55.5v-510q0 -32 -23 -55t-55 -23h-133z" />
    <glyph glyph-name="asciitilde" unicode="~" horiz-adv-x="1224" 
d="M420 596q-106 0 -192.5 60.5t-129.5 164.5q-14 34 0 67.5t47 45.5q32 14 65.5 0t45.5 -47q23 -50 65 -84.5t99 -34.5q33 0 62.5 15.5t76.5 52.5q42 32 67.5 49t78.5 36t108 19h2q105 0 189 -59t122 -160q12 -33 -3 -66.5t-48 -46.5q-33 -12 -65.5 3t-44.5 48
q-16 46 -56 77.5t-94 31.5q-29 0 -56 -10.5t-44 -22t-51 -37.5q-38 -31 -66 -49t-77 -35.5t-101 -17.5z" />
    <glyph glyph-name="exclamdown" unicode="&#xa1;" horiz-adv-x="432" 
d="M217 967q45 0 78 -33t33 -78t-33 -78t-78 -33t-76.5 32.5t-31.5 78.5t31.5 78.5t76.5 32.5zM117 -367v936q0 41 29 70t69 29q41 0 70.5 -29t29.5 -70v-936q0 -41 -29.5 -70.5t-70.5 -29.5q-40 0 -69 29.5t-29 70.5z" />
    <glyph glyph-name="cent" unicode="&#xa2;" horiz-adv-x="972" 
d="M532 70q-22 0 -37.5 16t-15.5 39v100q-178 25 -298 163t-120 323q0 183 120 320.5t298 162.5v106q0 22 15.5 38t37.5 16q23 0 39.5 -16t16.5 -38v-102q147 -9 264 -100q34 -26 39 -68t-21 -74t-67.5 -37t-73.5 21q-64 48 -141 57v-575q79 9 141 59q32 25 73.5 19.5
t67.5 -37.5t21 -73.5t-39 -67.5q-118 -92 -264 -101v-96q0 -23 -16.5 -39t-39.5 -16zM260 711q0 -101 62 -179.5t157 -103.5v563q-95 -25 -157 -103t-62 -177z" />
    <glyph glyph-name="sterling" unicode="&#xa3;" horiz-adv-x="1224" 
d="M190 0q-31 0 -57.5 18t-36.5 48q-11 29 -2.5 58.5t33.5 49.5q4 4 11 12t24 38t30 64t24 91.5t11 120.5v78h-86q-34 0 -57 22.5t-23 54.5t23 55t57 23h86v252q0 186 133 318.5t320 132.5h12q135 0 248.5 -75t167.5 -200q15 -38 0 -76t-53 -53q-37 -17 -74.5 -1.5
t-52.5 52.5q-31 71 -95.5 113.5t-140.5 42.5h-12q-106 0 -181 -75t-75 -179v-252h436q32 0 55 -23t23 -55t-23 -54.5t-55 -22.5h-436v-5q0 -215 -64 -378h687q40 0 68 -28.5t28 -68.5q0 -41 -28 -69.5t-68 -28.5h-857z" />
    <glyph glyph-name="yen" unicode="&#xa5;" horiz-adv-x="1232" 
d="M1145 1421q35 -23 44 -63t-13 -74l-365 -579h145q32 0 54 -22.5t22 -53.5q0 -34 -22 -56t-54 -22h-239v-123h239q32 0 54 -23.5t22 -54.5q0 -34 -22 -57t-54 -23h-241v-172q0 -40 -29.5 -69t-69.5 -29q-41 0 -70.5 29t-29.5 69v172h-233q-31 0 -53.5 23.5t-22.5 56.5
q0 31 22.5 54.5t53.5 23.5h235v123h-235q-31 0 -53.5 22.5t-22.5 55.5q0 31 22.5 53.5t53.5 22.5h139l-365 579q-23 34 -13.5 74t44.5 63q34 22 73.5 13t61.5 -43l395 -623l390 623q22 34 62 43t75 -13z" />
    <glyph glyph-name="brokenbar" unicode="&#xa6;" horiz-adv-x="407" 
d="M205 803q-38 0 -64 26t-26 64v645q0 38 26 65t64 27q37 0 62.5 -27t25.5 -65v-645q0 -38 -25.5 -64t-62.5 -26zM115 -125v645q0 38 26 64t64 26q37 0 62.5 -26t25.5 -64v-645q0 -38 -25.5 -65t-62.5 -27q-38 0 -64 27t-26 65z" />
    <glyph glyph-name="section" unicode="&#xa7;" horiz-adv-x="991" 
d="M84 229q12 38 48.5 52t74.5 -2q55 -33 116.5 -52t115 -21t98 7.5t70 31.5t26.5 52q0 37 -48 68t-128 49q-86 17 -153 46.5t-106.5 62t-64.5 71.5t-34 72t-9 67q3 68 47.5 122.5t118.5 82.5q-103 69 -98 180q3 112 106 184.5t250 69.5q145 -3 279 -78q38 -17 55.5 -54.5
t3.5 -74.5t-48 -48.5t-75 7.5q-60 37 -125.5 50t-113.5 4.5t-79.5 -30t-33.5 -48.5q-3 -11 4 -26t24.5 -32t55 -33.5t88.5 -27.5q88 -18 156 -47.5t106 -60t63 -67.5t33.5 -65.5t10.5 -58.5q3 -70 -35.5 -132t-116.5 -99q79 -60 84 -154q2 -52 -18 -101.5t-61 -91
t-111.5 -67.5t-161.5 -27q-163 -5 -351 92q-38 15 -56 52.5t-7 74.5zM307 717q-4 -30 20 -55.5t65 -42t75.5 -25.5t64.5 -14q39 -9 90.5 16.5t63.5 60.5q19 33 -12.5 62.5t-116.5 52.5q-92 29 -168.5 9.5t-81.5 -64.5z" />
    <glyph glyph-name="dieresis" unicode="&#xa8;" horiz-adv-x="505" 
d="M137 1389q-31 0 -51 21t-20 52q0 30 20.5 51t50.5 21q29 0 50.5 -21.5t21.5 -50.5q0 -30 -21.5 -51.5t-50.5 -21.5zM295 1462q0 30 21 51t51 21q28 0 48.5 -21.5t20.5 -50.5q0 -30 -20.5 -51.5t-48.5 -21.5q-31 0 -51.5 21t-20.5 52z" />
    <glyph glyph-name="copyright" unicode="&#xa9;" horiz-adv-x="1583" 
d="M793 41q-138 0 -263.5 54t-216.5 145t-144.5 216.5t-53.5 262.5q0 138 53.5 263.5t144.5 216.5t216.5 144.5t263.5 53.5q183 0 338.5 -90.5t246 -247t90.5 -340.5t-90.5 -340t-246 -247t-338.5 -91zM266 719q0 -106 42 -203.5t112.5 -168t168 -112.5t204.5 -42
q106 0 203 42t167 112.5t112 168t42 203.5t-42 203.5t-112 167.5t-167 111.5t-203 41.5q-107 0 -204.5 -41.5t-168.5 -112t-112.5 -167.5t-41.5 -203zM436 719q0 152 107.5 259t259.5 107q111 0 205 -63q24 -15 29.5 -43t-9.5 -53q-18 -24 -46 -30t-52 11q-58 39 -127 39
q-94 0 -161 -66t-67 -161q0 -93 67 -159t161 -66q75 0 133 43q25 17 53 12.5t45 -29.5q17 -22 13 -50.5t-27 -45.5q-94 -70 -217 -70q-152 0 -259.5 107t-107.5 258z" />
    <glyph glyph-name="guillemotleft" unicode="&#xab;" horiz-adv-x="1380" 
d="M629 104q-31 0 -56 17l-448 313q-41 27 -41 78q0 49 39 74l450 323q33 23 70.5 17.5t61.5 -35.5q23 -32 17 -71t-38 -62l-346 -246l344 -236q32 -23 39 -62t-16 -71q-28 -39 -76 -39zM627 512q0 49 39 74l450 323q33 23 70 17.5t61 -35.5q23 -32 17.5 -71t-37.5 -62
l-346 -246l346 -236q31 -23 37 -62t-17 -71q-25 -39 -76 -39q-29 0 -55 17l-448 313q-41 27 -41 78z" />
    <glyph glyph-name="registered" unicode="&#xae;" horiz-adv-x="1523" 
d="M762 41q-137 0 -262.5 54t-216.5 145t-145 216.5t-54 262.5q0 138 54 263.5t145 216.5t216.5 144.5t262.5 53.5q138 0 263.5 -53.5t216.5 -144.5t144.5 -216.5t53.5 -263.5q0 -137 -53.5 -262.5t-144.5 -216.5t-216.5 -145t-263.5 -54zM238 719q0 -142 70 -263
t190.5 -191t263.5 -70t263.5 70t190.5 191t70 263t-70 263t-190.5 191t-263.5 70t-263.5 -70t-190.5 -191t-70 -263zM494 438v566q0 29 21 50t50 21h256q100 0 172 -72.5t72 -173.5q0 -68 -36 -126t-95 -89l115 -131q20 -21 17.5 -50t-24.5 -48q-21 -18 -47 -18
q-33 0 -51 24l-174 195h-135v-148q0 -29 -20.5 -50t-49.5 -21t-50 21t-21 50zM635 725h160h18h8q42 0 73.5 31t31.5 73q0 43 -32 75t-73 32h-186v-211z" />
    <glyph glyph-name="macron" unicode="&#xaf;" horiz-adv-x="612" 
d="M154 1473q-37 0 -52 28.5t0 57t52 28.5h305q36 0 51 -28.5t0.5 -57t-51.5 -28.5h-305z" />
    <glyph glyph-name="degree" unicode="&#xb0;" horiz-adv-x="622" 
d="M309 1436q104 0 178 -74t74 -174t-73 -174t-173 -74q-105 0 -179.5 73.5t-74.5 174.5q0 100 73.5 174t174.5 74zM184 1188q0 -52 37.5 -87.5t91.5 -35.5q53 0 88 35.5t35 87.5q0 54 -35 89.5t-88 35.5q-54 0 -91.5 -35.5t-37.5 -89.5z" />
    <glyph glyph-name="plusminus" unicode="&#xb1;" horiz-adv-x="944" 
d="M180 639q-31 0 -54.5 23t-23.5 55t23.5 55t54.5 23h215v215q0 31 22.5 53t55.5 22q31 0 53.5 -22t22.5 -53v-215h215q32 0 55 -23t23 -55t-23 -55t-55 -23h-215v-215q0 -32 -22.5 -55t-53.5 -23q-33 0 -55.5 22.5t-22.5 55.5v215h-215zM102 160q0 32 22.5 55t53.5 23h586
q32 0 54 -23t22 -55t-22 -55t-54 -23h-586q-31 0 -53.5 23t-22.5 55z" />
    <glyph glyph-name="uni00B2" unicode="&#xb2;" horiz-adv-x="577" 
d="M94 856q-40 0 -53 33q-14 36 8 61l334 365q41 53 10 112q-35 63 -110 58q-84 -3 -133 -84q-11 -19 -32.5 -26t-43.5 3q-21 10 -28 33t3 43q70 128 225 141q71 6 130 -25t90 -91q30 -59 22.5 -123.5t-49.5 -114.5q-10 -14 -246 -272h260q25 0 40.5 -17t15.5 -43
q0 -22 -16 -37.5t-40 -15.5h-387z" />
    <glyph glyph-name="uni00B3" unicode="&#xb3;" horiz-adv-x="559" 
d="M262 858q-69 0 -128.5 29t-96.5 80q-12 18 -9 42.5t21 37.5q20 13 43 9.5t37 -20.5q46 -65 133 -65q60 0 102 34.5t42 81.5q0 52 -43 83.5t-109 31.5q-35 0 -50.5 17.5t-15.5 42.5q0 55 62 55q57 0 87 26t30 60q0 36 -34.5 60t-82.5 22q-47 0 -98 -35q-20 -13 -42.5 -10
t-37.5 22q-14 20 -10 43.5t24 36.5q69 51 160 57q97 2 165 -55.5t68 -140.5q0 -84 -67 -135q106 -66 106 -181q0 -95 -75 -162t-181 -67z" />
    <glyph glyph-name="acute" unicode="&#xb4;" horiz-adv-x="342" 
d="M172 1464q-12 -22 -36.5 -23.5t-41 17t-8.5 45.5l49 137q14 40 51 43.5t61 -25t7 -65.5z" />
    <glyph glyph-name="paragraph" unicode="&#xb6;" horiz-adv-x="1114" 
d="M524 553q-183 0 -311.5 129.5t-128.5 312.5q0 119 58.5 220.5t160 161t221.5 59.5h101q37 0 62.5 -26t25.5 -64v-1258q0 -38 -25.5 -64t-62.5 -26q-38 0 -64 26t-26 64v465h-11zM850 88v1258q0 38 26 64t64 26q37 0 63.5 -26t26.5 -64v-1258q0 -38 -26.5 -64t-63.5 -26
q-38 0 -64 26t-26 64z" />
    <glyph glyph-name="periodcentered" unicode="&#xb7;" horiz-adv-x="395" 
d="M197 588q-46 0 -79.5 33.5t-33.5 80.5t33.5 80t79.5 33q47 0 80.5 -33t33.5 -80t-33.5 -80.5t-80.5 -33.5z" />
    <glyph glyph-name="cedilla" unicode="&#xb8;" horiz-adv-x="550" 
d="M119 -440q-24 4 -37 23.5t-8 43.5q6 25 26 37t45 6q120 -25 181 21q29 20 36 47t-12 47q-21 25 -67 25q-52 0 -99 -23q-36 -14 -64 13t-11 63l81 180q10 25 32.5 33t43.5 -2q22 -11 30.5 -33t-1.5 -45l-35 -74q50 5 99 -11t77 -50q48 -53 41 -131q-9 -84 -84 -133
q-116 -78 -274 -37z" />
    <glyph glyph-name="uni00B9" unicode="&#xb9;" horiz-adv-x="286" 
d="M180 836q-24 0 -41.5 17.5t-17.5 41.5v559l-19 -8q-23 -6 -42.5 4t-28.5 33q-8 24 2 45t33 28l94 39q28 9 53 -8q27 -15 27 -49v-643q0 -25 -17.5 -42t-42.5 -17z" />
    <glyph glyph-name="guillemotright" unicode="&#xbb;" horiz-adv-x="1349" 
d="M721 104q-51 0 -76 39q-23 32 -17 71t38 62l344 236l-344 246q-32 23 -38 62t17 71q24 30 61 35.5t68 -17.5l453 -323q39 -27 39 -74q0 -48 -41 -78l-451 -313q-23 -17 -53 -17zM102 143q-23 32 -17 71t38 62l344 236l-346 246q-31 23 -36.5 62t17.5 71q24 30 61 35.5
t68 -17.5l453 -323q39 -27 39 -74q0 -49 -43 -78l-449 -313q-23 -17 -53 -17q-51 0 -76 39z" />
    <glyph glyph-name="onequarter" unicode="&#xbc;" horiz-adv-x="1402" 
d="M180 672q-23 0 -41 18t-18 41v559l-19 -8q-23 -6 -42.5 4.5t-28.5 32.5q-8 24 2 45.5t33 30.5l94 37q23 10 53 -7q27 -18 27 -49v-645q0 -23 -18 -41t-42 -18zM61 94l828 1311q18 25 45.5 30.5t54.5 -12.5q26 -13 33 -41.5t-8 -54.5l-828 -1311q-15 -24 -43.5 -29.5
t-56.5 9.5q-26 13 -33 42.5t8 55.5zM823 219l142 479q6 22 26.5 32.5t42.5 4.5q22 -8 33 -29t4 -42l-117 -404h189v178q0 23 16 39.5t39 16.5t40 -16.5t17 -39.5v-178h52q23 0 40 -17t17 -42q0 -22 -17 -38t-40 -16h-52v-92q0 -22 -17 -38.5t-40 -16.5t-39 16.5t-16 38.5v92
h-266q-28 0 -48 23q-13 22 -6 49z" />
    <glyph glyph-name="onehalf" unicode="&#xbd;" horiz-adv-x="1370" 
d="M180 672q-23 0 -41 18t-18 41v559l-19 -8q-23 -6 -42.5 4.5t-28.5 32.5q-8 24 2 45.5t33 30.5l94 37q23 10 53 -7q27 -18 27 -49v-645q0 -23 -18 -41t-42 -18zM61 94l828 1311q18 25 45.5 30.5t54.5 -12.5q26 -13 33 -41.5t-8 -54.5l-828 -1311q-15 -24 -43.5 -29.5
t-56.5 9.5q-26 13 -33 42.5t8 55.5zM829 35q-6 13 -3.5 31t12.5 30q52 56 134 145t139.5 152t62.5 68q40 52 10 114q-13 27 -42.5 44t-68.5 14q-85 -3 -133 -82q-11 -20 -32.5 -28t-43.5 1q-22 12 -29 35.5t3 44.5q73 129 227 141q72 6 130.5 -25t90.5 -93q30 -59 23 -124
t-49 -116q-9 -10 -248 -272h262q23 0 39 -17.5t16 -42.5q0 -23 -16 -39t-39 -16h-391q-42 0 -54 35z" />
    <glyph glyph-name="threequarters" unicode="&#xbe;" horiz-adv-x="1691" 
d="M272 694q-69 0 -128.5 29t-96.5 80q-12 19 -8.5 43t20.5 37q22 14 45.5 11t36.5 -22q43 -65 131 -65q61 0 102.5 34.5t41.5 82.5q0 51 -43 82.5t-107 31.5q-65 0 -65 60q0 55 61 55q56 0 86.5 26t30.5 60q0 36 -35 60t-82 22q-49 0 -100 -35q-19 -14 -42 -10.5t-38 22.5
q-12 20 -8.5 43.5t22.5 36.5q79 55 162 58q97 2 165.5 -56t68.5 -141q0 -80 -68 -135q104 -65 104 -180q0 -95 -75 -162.5t-181 -67.5zM350 94l828 1311q18 25 45.5 30.5t54.5 -12.5q26 -13 33 -41.5t-8 -54.5l-828 -1311q-15 -24 -43.5 -29.5t-56.5 9.5q-26 13 -33 42.5
t8 55.5zM1112 219l141 479q6 21 27 32t43 5q22 -8 33 -29t4 -42l-117 -404h189v178q0 23 16 39.5t39 16.5t40 -16.5t17 -39.5v-178h51q23 0 40.5 -17t17.5 -42q0 -22 -17.5 -38t-40.5 -16h-51v-92q0 -22 -17 -38.5t-40 -16.5t-39 16.5t-16 38.5v92h-267q-27 0 -47 23
q-13 22 -6 49z" />
    <glyph glyph-name="questiondown" unicode="&#xbf;" horiz-adv-x="1032" 
d="M565 1350q44 0 76.5 -33.5t32.5 -79.5q0 -44 -32.5 -76.5t-76.5 -32.5q-45 0 -77.5 32t-32.5 77q0 46 32.5 79.5t77.5 33.5zM123 172q54 -129 170 -200t258 -62q149 12 257 93t146 210q12 37 -6.5 73t-56.5 48q-38 10 -72 -8.5t-49 -57.5q-6 -18 -16 -36.5t-29 -42
t-43.5 -41.5t-62.5 -32t-82 -16q-94 -4 -154.5 43t-79.5 103q-11 34 -13.5 71.5t21.5 86t74 88.5q53 42 78.5 63.5t68 67t64 85.5t40.5 101.5t23 132.5q5 43 -20.5 76t-75.5 33q-40 0 -64 -19t-34 -63q-3 -36 -11.5 -69.5t-18 -58.5t-28.5 -53t-31 -44.5t-38.5 -41
t-37.5 -34.5t-41 -34.5t-38 -31.5q-96 -83 -122 -197.5t24 -232.5z" />
    <glyph glyph-name="Agrave" unicode="&#xc0;" horiz-adv-x="1400" 
d="M236 59q-12 -25 -31 -40t-40 -18t-43 1t-39 17.5t-29 31t-13 41.5t10 49l557 1235q17 39 54 54t74 0.5t55 -54.5l559 -1235q11 -25 10 -48.5t-13 -41t-29 -31.5t-39 -18t-42.5 -1.5t-39.5 18t-30 40.5l-125 281h-684zM449 539h501l-252 555zM569 1696q-18 38 6 65.5
t61.5 23.5t51.5 -44l49 -139q11 -24 -4.5 -43t-41.5 -18.5t-42 24.5z" />
    <glyph glyph-name="Aacute" unicode="&#xc1;" horiz-adv-x="1400" 
d="M236 59q-12 -25 -31 -40t-40 -18t-43 1t-39 17.5t-29 31t-13 41.5t10 49l557 1235q17 39 54 54t74 0.5t55 -54.5l559 -1235q11 -25 10 -48.5t-13 -41t-29 -31.5t-39 -18t-42.5 -1.5t-39.5 18t-30 40.5l-125 281h-684zM449 539h501l-252 555zM655 1579l50 137
q14 40 50.5 43.5t60.5 -25t7 -65.5l-82 -129q-12 -22 -36.5 -23.5t-41 17t-8.5 45.5z" />
    <glyph glyph-name="Acircumflex" unicode="&#xc2;" horiz-adv-x="1400" 
d="M236 59q-12 -25 -31 -40t-40 -18t-43 1t-39 17.5t-29 31t-13 41.5t10 49l557 1235q17 39 54 54t74 0.5t55 -54.5l559 -1235q11 -25 10 -48.5t-13 -41t-29 -31.5t-39 -18t-42.5 -1.5t-39.5 18t-30 40.5l-125 281h-684zM449 539h501l-252 555zM479 1628l176 195
q15 20 41 20t45 -20l177 -195q17 -19 15.5 -42t-20.5 -40q-42 -33 -79 4l-138 150l-129 -150q-18 -18 -42.5 -18.5t-41.5 14.5q-17 17 -18 40t14 42z" />
    <glyph glyph-name="Atilde" unicode="&#xc3;" horiz-adv-x="1400" 
d="M236 59q-12 -25 -31 -40t-40 -18t-43 1t-39 17.5t-29 31t-13 41.5t10 49l557 1235q17 39 54 54t74 0.5t55 -54.5l559 -1235q11 -25 10 -48.5t-13 -41t-29 -31.5t-39 -18t-42.5 -1.5t-39.5 18t-30 40.5l-125 281h-684zM449 539h501l-252 555zM451 1669q-6 24 6 45t35 25
q41 8 67 -35q18 -36 47 -27q19 8 48.5 30.5t58 38t57.5 15.5q55 0 95.5 -33t52.5 -86q9 -52 -37 -65q-50 -16 -76 37q-3 14 -17 22t-32 2q-20 -10 -51.5 -33.5t-57.5 -36t-53 -12.5q-49 0 -90 31.5t-53 81.5z" />
    <glyph glyph-name="Adieresis" unicode="&#xc4;" horiz-adv-x="1400" 
d="M236 59q-12 -25 -31 -40t-40 -18t-43 1t-39 17.5t-29 31t-13 41.5t10 49l557 1235q17 39 54 54t74 0.5t55 -54.5l559 -1235q11 -25 10 -48.5t-13 -41t-29 -31.5t-39 -18t-42.5 -1.5t-39.5 18t-30 40.5l-125 281h-684zM449 539h501l-252 555zM512 1595q0 30 21 51t51 21
q29 0 50 -21.5t21 -50.5q0 -31 -21 -52t-50 -21q-31 0 -51.5 21t-20.5 52zM741 1595q0 30 21 51t51 21q28 0 49 -21.5t21 -50.5q0 -30 -21 -51.5t-49 -21.5q-31 0 -51.5 21t-20.5 52z" />
    <glyph glyph-name="Aring" unicode="&#xc5;" horiz-adv-x="1400" 
d="M236 59q-12 -25 -31 -40t-40 -18t-43 1t-39 17.5t-29 31t-13 41.5t10 49l557 1235q17 39 54 54t74 0.5t55 -54.5l559 -1235q11 -25 10 -48.5t-13 -41t-29 -31.5t-39 -18t-42.5 -1.5t-39.5 18t-30 40.5l-125 281h-684zM449 539h501l-252 555zM522 1743q0 70 52 121t124 51
q73 0 124.5 -50.5t51.5 -121.5q0 -72 -51.5 -123t-124.5 -51q-72 0 -124 51t-52 123zM637 1743q0 -25 17.5 -41t43.5 -16q25 0 42.5 16.5t17.5 40.5t-17.5 40.5t-42.5 16.5q-26 0 -43.5 -16t-17.5 -41z" />
    <glyph glyph-name="AE" unicode="&#xc6;" horiz-adv-x="1966" 
d="M160 0q-23 0 -39 8q-38 17 -52.5 56t1.5 75l555 1237q10 26 35.5 42t54.5 16h1069q40 0 70 -29.5t30 -69.5q0 -41 -30 -70.5t-70 -29.5h-682v-420h573q40 0 69.5 -28.5t29.5 -69.5t-29.5 -70t-69.5 -29h-573v-419h682q40 0 70 -30t30 -71q0 -40 -30 -69t-70 -29h-780
q-41 0 -71 29t-30 69v240h-526l-125 -279q-12 -27 -37 -43t-55 -16zM465 537h438v700h-125z" />
    <glyph glyph-name="Ccedilla" unicode="&#xc7;" horiz-adv-x="1359" 
d="M674 -442q-24 4 -37 23.5t-8 43.5q6 25 26 37t45 6q120 -25 181 21q29 20 36 47t-12 47q-21 24 -67 24q-54 0 -99 -22q-36 -14 -64 13t-11 63l59 131q-178 21 -324.5 122t-231.5 260.5t-85 342.5q0 197 98 365t266.5 266t366.5 98q224 0 408 -125q34 -23 41.5 -63.5
t-15.5 -77.5q-23 -34 -64 -42t-75 15q-134 90 -295 90q-144 0 -265.5 -70.5t-192 -191.5t-70.5 -264t70.5 -265t192 -193t265.5 -71q171 0 311 103q34 25 74.5 18t65.5 -41t19 -75t-40 -64q-174 -131 -397 -143l-31 -66q50 5 99 -11t77 -50q48 -53 41 -131q-10 -85 -84 -134
q-114 -78 -274 -36z" />
    <glyph glyph-name="Egrave" unicode="&#xc8;" horiz-adv-x="1181" 
d="M1012 199q41 0 70.5 -30t29.5 -71q0 -40 -29.5 -69t-70.5 -29h-781q-41 0 -70.5 29t-29.5 69v1237q0 40 29.5 69.5t70.5 29.5h781q41 0 70.5 -29.5t29.5 -69.5q0 -41 -29.5 -70.5t-70.5 -29.5h-682v-420h573q42 0 71.5 -28.5t29.5 -69.5t-30 -70t-71 -29h-573v-419h682z
M494 1692q-18 38 6 65.5t61 23.5t51 -44l50 -140q11 -24 -4.5 -43t-42 -18t-42.5 25z" />
    <glyph glyph-name="Eacute" unicode="&#xc9;" horiz-adv-x="1181" 
d="M1012 199q41 0 70.5 -30t29.5 -71q0 -40 -29.5 -69t-70.5 -29h-781q-41 0 -70.5 29t-29.5 69v1237q0 40 29.5 69.5t70.5 29.5h781q41 0 70.5 -29.5t29.5 -69.5q0 -41 -29.5 -70.5t-70.5 -29.5h-682v-420h573q42 0 71.5 -28.5t29.5 -69.5t-30 -70t-71 -29h-573v-419h682z
M580 1575l49 137q14 40 51 43.5t61 -25t7 -65.5l-82 -129q-12 -22 -36.5 -23.5t-41 17t-8.5 45.5z" />
    <glyph glyph-name="Ecircumflex" unicode="&#xca;" horiz-adv-x="1181" 
d="M1012 199q41 0 70.5 -30t29.5 -71q0 -40 -29.5 -69t-70.5 -29h-781q-41 0 -70.5 29t-29.5 69v1237q0 40 29.5 69.5t70.5 29.5h781q41 0 70.5 -29.5t29.5 -69.5q0 -41 -29.5 -70.5t-70.5 -29.5h-682v-420h573q42 0 71.5 -28.5t29.5 -69.5t-30 -70t-71 -29h-573v-419h682z
M403 1624l177 195q15 20 41 20t45 -20l176 -195q17 -19 16 -42t-20 -40q-19 -15 -41 -14t-39 18l-137 150l-129 -150q-18 -18 -42.5 -18.5t-41.5 14.5q-17 17 -18.5 40t13.5 42z" />
    <glyph glyph-name="Edieresis" unicode="&#xcb;" horiz-adv-x="1181" 
d="M1012 199q41 0 70.5 -30t29.5 -71q0 -40 -29.5 -69t-70.5 -29h-781q-41 0 -70.5 29t-29.5 69v1237q0 40 29.5 69.5t70.5 29.5h781q41 0 70.5 -29.5t29.5 -69.5q0 -41 -29.5 -70.5t-70.5 -29.5h-682v-420h573q42 0 71.5 -28.5t29.5 -69.5t-30 -70t-71 -29h-573v-419h682z
M436 1591q0 30 21 51t51 21q29 0 50.5 -21.5t21.5 -50.5q0 -31 -21 -52t-51 -21q-31 0 -51.5 21t-20.5 52zM666 1591q0 30 20.5 51t50.5 21q28 0 49 -21.5t21 -50.5q0 -30 -21 -51.5t-49 -21.5q-31 0 -51 21t-20 52z" />
    <glyph glyph-name="Igrave" unicode="&#xcc;" horiz-adv-x="421" 
d="M211 -4q-41 0 -70.5 28.5t-29.5 69.5v1245q0 41 29.5 71t70.5 30t70.5 -30t29.5 -71v-1245q0 -41 -29.5 -69.5t-70.5 -28.5zM76 1700q-18 39 6 67t61.5 24t51.5 -44l55 -148q10 -24 -6 -43t-41.5 -18t-40.5 25z" />
    <glyph glyph-name="Iacute" unicode="&#xcd;" horiz-adv-x="421" 
d="M211 -4q-41 0 -70.5 28.5t-29.5 69.5v1245q0 41 29.5 71t70.5 30t70.5 -30t29.5 -71v-1245q0 -41 -29.5 -69.5t-70.5 -28.5zM172 1597l53 148q14 40 51.5 44t62 -24t7.5 -67l-86 -137q-16 -26 -42 -27t-41.5 19t-4.5 44z" />
    <glyph glyph-name="Icircumflex" unicode="&#xce;" horiz-adv-x="421" 
d="M211 -4q-41 0 -70.5 28.5t-29.5 69.5v1245q0 41 29.5 71t70.5 30t70.5 -30t29.5 -71v-1245q0 -41 -29.5 -69.5t-70.5 -28.5zM-6 1645l176 196q15 19 42 19t44 -19l176 -196q15 -15 16 -33.5t-9 -32.5t-24.5 -23t-33 -6t-33.5 19l-137 147l-129 -147q-15 -16 -34 -19
t-34 5.5t-25.5 22t-9.5 32.5t15 35z" />
    <glyph glyph-name="Idieresis" unicode="&#xcf;" horiz-adv-x="421" 
d="M211 -4q-41 0 -70.5 28.5t-29.5 69.5v1245q0 41 29.5 71t70.5 30t70.5 -30t29.5 -71v-1245q0 -41 -29.5 -69.5t-70.5 -28.5zM27 1587q0 30 20.5 51t50.5 21q28 0 49 -21.5t21 -50.5q0 -30 -21 -52t-49 -22q-30 0 -50.5 21.5t-20.5 52.5zM254 1587q0 30 21 51t51 21
q29 0 50 -21.5t21 -50.5q0 -31 -21 -52.5t-50 -21.5q-31 0 -51.5 21.5t-20.5 52.5z" />
    <glyph glyph-name="Eth" unicode="&#xd0;" horiz-adv-x="1503" 
d="M705 1434q146 0 279 -57t228.5 -153t152 -228t56.5 -277q0 -195 -95.5 -360.5t-260.5 -262t-360 -96.5h-371q-37 2 -66 28.5t-30 61.5q-5 6 -5 10v527h-94q-40 0 -69 29.5t-29 70.5q0 40 29 70t69 30h94v463v45q0 40 30.5 69.5t72.5 29.5h369zM432 201l273 -4
q106 0 202 41t166 111t111 167t41 203t-41 202t-111 165t-166 110t-202 41h-273v-410h246q41 0 69.5 -30t28.5 -70q0 -41 -28.5 -70.5t-69.5 -29.5h-246v-426z" />
    <glyph glyph-name="Ntilde" unicode="&#xd1;" horiz-adv-x="1429" 
d="M229 0q-40 0 -69 29.5t-29 70.5v1239q0 32 18.5 58.5t49.5 36.5q31 11 61.5 2t50.5 -35l787 -1010v948q0 42 28.5 71.5t69.5 29.5q42 0 71 -29.5t29 -71.5v-1239q0 -33 -18.5 -59t-48.5 -35q-15 -6 -33 -6q-49 0 -80 39l-784 1010v-949q0 -41 -30 -70.5t-73 -29.5z
M463 1618q-6 24 6 45t35 25q41 8 67 -35q18 -36 47 -27q19 8 48.5 30.5t58 38t57.5 15.5q55 0 95.5 -33t52.5 -86q9 -52 -37 -65q-50 -16 -76 37q-3 14 -17 22t-32 2q-20 -10 -51.5 -33.5t-57.5 -36t-53 -12.5q-49 0 -90 31.5t-53 81.5z" />
    <glyph glyph-name="Ograve" unicode="&#xd2;" horiz-adv-x="1609" 
d="M807 -16q-200 0 -370 98.5t-268.5 267.5t-98.5 367q0 150 58 286.5t157 234.5t235.5 156t286.5 58q198 0 366 -98t266.5 -267.5t98.5 -369.5q0 -198 -98.5 -367t-267 -267.5t-365.5 -98.5zM272 717q0 -107 42.5 -205.5t114 -170.5t170.5 -114.5t208 -42.5q107 0 205 42.5
t169.5 114.5t113.5 170.5t42 205.5q0 145 -71.5 268t-193.5 194.5t-265 71.5q-145 0 -268.5 -71.5t-195 -194.5t-71.5 -268zM678 1686q-18 38 6 65.5t61.5 23.5t51.5 -44l49 -140q11 -24 -4.5 -43t-41.5 -18.5t-42 24.5z" />
    <glyph glyph-name="Oacute" unicode="&#xd3;" horiz-adv-x="1609" 
d="M807 -16q-200 0 -370 98.5t-268.5 267.5t-98.5 367q0 150 58 286.5t157 234.5t235.5 156t286.5 58q198 0 366 -98t266.5 -267.5t98.5 -369.5q0 -198 -98.5 -367t-267 -267.5t-365.5 -98.5zM272 717q0 -107 42.5 -205.5t114 -170.5t170.5 -114.5t208 -42.5q107 0 205 42.5
t169.5 114.5t113.5 170.5t42 205.5q0 145 -71.5 268t-193.5 194.5t-265 71.5q-145 0 -268.5 -71.5t-195 -194.5t-71.5 -268zM764 1571l49 137q14 40 51 43.5t61 -25t7 -65.5l-82 -129q-12 -22 -36.5 -23.5t-41 17t-8.5 45.5z" />
    <glyph glyph-name="Ocircumflex" unicode="&#xd4;" horiz-adv-x="1609" 
d="M807 -16q-200 0 -370 98.5t-268.5 267.5t-98.5 367q0 150 58 286.5t157 234.5t235.5 156t286.5 58q198 0 366 -98t266.5 -267.5t98.5 -369.5q0 -198 -98.5 -367t-267 -267.5t-365.5 -98.5zM272 717q0 -107 42.5 -205.5t114 -170.5t170.5 -114.5t208 -42.5q107 0 205 42.5
t169.5 114.5t113.5 170.5t42 205.5q0 145 -71.5 268t-193.5 194.5t-265 71.5q-145 0 -268.5 -71.5t-195 -194.5t-71.5 -268zM588 1620l176 195q15 20 41 20t45 -20l176 -195q17 -19 16 -42t-20 -40q-19 -15 -41 -14t-39 18l-137 150l-129 -150q-18 -18 -42.5 -18.5
t-41.5 14.5q-17 17 -18 40t14 42z" />
    <glyph glyph-name="Otilde" unicode="&#xd5;" horiz-adv-x="1609" 
d="M807 -16q-200 0 -370 98.5t-268.5 267.5t-98.5 367q0 150 58 286.5t157 234.5t235.5 156t286.5 58q198 0 366 -98t266.5 -267.5t98.5 -369.5q0 -198 -98.5 -367t-267 -267.5t-365.5 -98.5zM272 717q0 -107 42.5 -205.5t114 -170.5t170.5 -114.5t208 -42.5q107 0 205 42.5
t169.5 114.5t113.5 170.5t42 205.5q0 145 -71.5 268t-193.5 194.5t-265 71.5q-145 0 -268.5 -71.5t-195 -194.5t-71.5 -268zM559 1661q-6 24 6 45t35 25q42 8 68 -35q18 -36 47 -27q19 8 48.5 30.5t58 38t57.5 15.5q55 0 95 -33t52 -86q9 -52 -37 -65q-50 -16 -76 37
q-3 14 -17 22t-32 2q-20 -10 -51.5 -33.5t-57.5 -36t-53 -12.5q-49 0 -90 31.5t-53 81.5z" />
    <glyph glyph-name="Odieresis" unicode="&#xd6;" horiz-adv-x="1609" 
d="M807 -16q-200 0 -370 98.5t-268.5 267.5t-98.5 367q0 150 58 286.5t157 234.5t235.5 156t286.5 58q198 0 366 -98t266.5 -267.5t98.5 -369.5q0 -198 -98.5 -367t-267 -267.5t-365.5 -98.5zM272 717q0 -107 42.5 -205.5t114 -170.5t170.5 -114.5t208 -42.5q107 0 205 42.5
t169.5 114.5t113.5 170.5t42 205.5q0 145 -71.5 268t-193.5 194.5t-265 71.5q-145 0 -268.5 -71.5t-195 -194.5t-71.5 -268zM621 1587q0 30 20.5 51t50.5 21q29 0 50.5 -21.5t21.5 -50.5q0 -31 -21.5 -52.5t-50.5 -21.5q-30 0 -50.5 21.5t-20.5 52.5zM850 1587q0 30 21 51
t51 21q28 0 48.5 -21.5t20.5 -50.5q0 -31 -20.5 -52.5t-48.5 -21.5q-31 0 -51.5 21.5t-20.5 52.5z" />
    <glyph glyph-name="multiply" unicode="&#xd7;" horiz-adv-x="772" 
d="M125 825q-23 22 -23 55t23 56t56 23t55 -23l151 -152l152 152q24 21 55 21t55 -23q22 -23 22 -55t-22 -54l-151 -151l151 -152q23 -24 22.5 -55t-22.5 -53q-23 -23 -55 -23.5t-55 21.5l-152 151l-151 -151q-24 -22 -55.5 -22.5t-53.5 22.5q-24 23 -24 53.5t22 54.5
l151 154z" />
    <glyph glyph-name="Oslash" unicode="&#xd8;" horiz-adv-x="1609" 
d="M807 -16q-222 0 -404 120l-65 -77q-30 -34 -80 -31q-35 0 -59 24q-31 28 -32.5 68.5t26.5 69.5l61 73q-88 98 -136 223.5t-48 262.5q0 150 58 286.5t157 234.5t235.5 156t286.5 58q222 0 395 -100l53 61q26 31 67.5 33.5t72.5 -25.5q29 -28 31.5 -68t-25.5 -71l-47 -55
q89 -98 136.5 -229.5t47.5 -280.5q0 -198 -98.5 -367t-267 -267.5t-365.5 -98.5zM272 717q0 -183 115 -330l676 799q-120 65 -256 65q-145 0 -268.5 -71.5t-195 -194.5t-71.5 -268zM535 260q124 -76 272 -76q107 0 205 42.5t169.5 114.5t113.5 170.5t42 205.5
q0 193 -125 344z" />
    <glyph glyph-name="Ugrave" unicode="&#xd9;" horiz-adv-x="1402" 
d="M702 -8q-159 0 -294 78t-213 212.5t-78 292.5v758q0 43 29.5 72t70.5 29t70.5 -29t29.5 -72v-758q0 -159 113 -272t272 -113t271 113t112 272v758q0 42 29.5 71.5t71.5 29.5t71 -29t29 -72v-758q0 -158 -78.5 -292.5t-213 -212.5t-292.5 -78zM582 1686q-18 38 6 65.5
t61 23.5t51 -44l50 -140q11 -24 -4.5 -43t-41.5 -18.5t-42 24.5z" />
    <glyph glyph-name="Uacute" unicode="&#xda;" horiz-adv-x="1402" 
d="M702 -8q-159 0 -294 78t-213 212.5t-78 292.5v758q0 43 29.5 72t70.5 29t70.5 -29t29.5 -72v-758q0 -159 113 -272t272 -113t271 113t112 272v758q0 42 29.5 71.5t71.5 29.5t71 -29t29 -72v-758q0 -158 -78.5 -292.5t-213 -212.5t-292.5 -78zM668 1571l49 137
q14 40 51 43.5t61 -25t7 -65.5l-82 -129q-12 -22 -36.5 -23.5t-41 17t-8.5 45.5z" />
    <glyph glyph-name="Ucircumflex" unicode="&#xdb;" horiz-adv-x="1402" 
d="M702 -8q-159 0 -294 78t-213 212.5t-78 292.5v758q0 43 29.5 72t70.5 29t70.5 -29t29.5 -72v-758q0 -159 113 -272t272 -113t271 113t112 272v758q0 42 29.5 71.5t71.5 29.5t71 -29t29 -72v-758q0 -158 -78.5 -292.5t-213 -212.5t-292.5 -78zM492 1620l176 195
q15 20 41 20t45 -20l176 -195q17 -19 16 -42t-20 -40q-19 -15 -41 -14t-39 18l-137 150l-129 -150q-18 -18 -42.5 -18.5t-41.5 14.5q-17 17 -18 40t14 42z" />
    <glyph glyph-name="Udieresis" unicode="&#xdc;" horiz-adv-x="1402" 
d="M702 -8q-159 0 -294 78t-213 212.5t-78 292.5v758q0 43 29.5 72t70.5 29t70.5 -29t29.5 -72v-758q0 -159 113 -272t272 -113t271 113t112 272v758q0 42 29.5 71.5t71.5 29.5t71 -29t29 -72v-758q0 -158 -78.5 -292.5t-213 -212.5t-292.5 -78zM524 1587q0 30 21 51t51 21
q29 0 50.5 -21.5t21.5 -50.5q0 -31 -21.5 -52.5t-50.5 -21.5q-31 0 -51.5 21.5t-20.5 52.5zM754 1587q0 30 20.5 51t50.5 21q28 0 49 -21.5t21 -50.5q0 -30 -21 -52t-49 -22q-30 0 -50.5 21.5t-20.5 52.5z" />
    <glyph glyph-name="Yacute" unicode="&#xdd;" horiz-adv-x="1251" 
d="M1155 1421q34 -23 43.5 -63t-12.5 -74l-459 -731l-2 -455q0 -40 -29.5 -69t-70.5 -29t-70 29t-29 69l2 455l-462 731q-22 34 -13.5 74t43.5 63q35 22 75 13t62 -43l394 -623l389 623q23 34 62.5 42.5t76.5 -12.5zM586 1571l49 137q14 40 51 43.5t61 -25t7 -65.5l-82 -129
q-12 -22 -36.5 -23.5t-41 17t-8.5 45.5z" />
    <glyph glyph-name="Thorn" unicode="&#xde;" horiz-adv-x="1140" 
d="M211 0q-41 0 -70.5 29t-29.5 69v1237q0 40 29.5 69.5t70.5 29.5t70.5 -29.5t29.5 -69.5v-192h320q177 0 302.5 -126t125.5 -304q0 -177 -125.5 -302.5t-302.5 -125.5h-320v-187q0 -40 -29.5 -69t-70.5 -29zM311 487h320q93 0 159 66.5t66 159.5q0 95 -66 162t-159 67
h-320v-455z" />
    <glyph glyph-name="agrave" unicode="&#xe0;" horiz-adv-x="1114" 
d="M553 -6q-133 0 -245 65t-177 177t-65 245q0 131 65 243t177 177.5t245 65.5q131 0 242.5 -65.5t177 -177.5t65.5 -243v-8v-6v-373q0 -41 -26.5 -69.5t-63.5 -28.5q-40 0 -66 28t-26 70v37q-137 -137 -303 -137zM264 481q0 -120 85 -204t204 -84t203 84t84 204
q0 119 -84 203t-203 84t-204 -84.5t-85 -202.5zM424 1217q-18 38 6 65.5t61.5 23.5t51.5 -44l49 -140q11 -24 -4.5 -43t-41.5 -18.5t-42 24.5z" />
    <glyph glyph-name="aacute" unicode="&#xe1;" horiz-adv-x="1114" 
d="M553 -6q-133 0 -245 65t-177 177t-65 245q0 131 65 243t177 177.5t245 65.5q131 0 242.5 -65.5t177 -177.5t65.5 -243v-8v-6v-373q0 -41 -26.5 -69.5t-63.5 -28.5q-40 0 -66 28t-26 70v37q-137 -137 -303 -137zM264 481q0 -120 85 -204t204 -84t203 84t84 204
q0 119 -84 203t-203 84t-204 -84.5t-85 -202.5zM510 1100l49 137q14 40 51 43.5t61 -25t7 -65.5l-82 -129q-12 -22 -36.5 -23.5t-41 17t-8.5 45.5z" />
    <glyph glyph-name="acircumflex" unicode="&#xe2;" horiz-adv-x="1114" 
d="M553 -6q-133 0 -245 65t-177 177t-65 245q0 131 65 243t177 177.5t245 65.5q131 0 242.5 -65.5t177 -177.5t65.5 -243v-8v-6v-373q0 -41 -26.5 -69.5t-63.5 -28.5q-40 0 -66 28t-26 70v37q-137 -137 -303 -137zM264 481q0 -120 85 -204t204 -84t203 84t84 204
q0 119 -84 203t-203 84t-204 -84.5t-85 -202.5zM334 1149l176 194q15 20 41 20t45 -20l176 -194q17 -19 16 -42t-20 -40q-19 -15 -41 -14t-39 18l-137 150l-129 -150q-18 -18 -42.5 -18.5t-41.5 14.5q-17 17 -18 40t14 42z" />
    <glyph glyph-name="atilde" unicode="&#xe3;" horiz-adv-x="1114" 
d="M553 -6q-133 0 -245 65t-177 177t-65 245q0 131 65 243t177 177.5t245 65.5q131 0 242.5 -65.5t177 -177.5t65.5 -243v-8v-6v-373q0 -41 -26.5 -69.5t-63.5 -28.5q-40 0 -66 28t-26 70v37q-137 -137 -303 -137zM264 481q0 -120 85 -204t204 -84t203 84t84 204
q0 119 -84 203t-203 84t-204 -84.5t-85 -202.5zM305 1190q-6 24 6 45t35 25q42 8 68 -35q18 -36 47 -27q19 8 48.5 30.5t58 38t57.5 15.5q55 0 95 -33t52 -86q9 -52 -37 -65q-50 -16 -76 37q-3 14 -17 22t-32 2q-20 -10 -51.5 -33t-57 -36t-52.5 -13q-49 0 -90.5 31.5
t-53.5 81.5z" />
    <glyph glyph-name="adieresis" unicode="&#xe4;" horiz-adv-x="1114" 
d="M553 -6q-133 0 -245 65t-177 177t-65 245q0 131 65 243t177 177.5t245 65.5q131 0 242.5 -65.5t177 -177.5t65.5 -243v-8v-6v-373q0 -41 -26.5 -69.5t-63.5 -28.5q-40 0 -66 28t-26 70v37q-137 -137 -303 -137zM264 481q0 -120 85 -204t204 -84t203 84t84 204
q0 119 -84 203t-203 84t-204 -84.5t-85 -202.5zM367 1116q0 30 20.5 51t50.5 21q29 0 50.5 -21.5t21.5 -50.5q0 -31 -21.5 -52.5t-50.5 -21.5q-30 0 -50.5 21.5t-20.5 52.5zM596 1116q0 30 21 51t51 21q28 0 48.5 -21.5t20.5 -50.5q0 -31 -20.5 -52.5t-48.5 -21.5
q-31 0 -51.5 21.5t-20.5 52.5z" />
    <glyph glyph-name="aring" unicode="&#xe5;" horiz-adv-x="1114" 
d="M553 -6q-133 0 -245 65t-177 177t-65 245q0 131 65 243t177 177.5t245 65.5q131 0 242.5 -65.5t177 -177.5t65.5 -243v-8v-6v-373q0 -41 -26.5 -69.5t-63.5 -28.5q-40 0 -66 28t-26 70v37q-137 -137 -303 -137zM264 481q0 -120 85 -204t204 -84t203 84t84 204
q0 119 -84 203t-203 84t-204 -84.5t-85 -202.5zM377 1264q0 70 52 121t124 51q73 0 124.5 -50.5t51.5 -121.5q0 -72 -51.5 -123t-124.5 -51q-72 0 -124 51t-52 123zM492 1264q0 -25 17.5 -41.5t43.5 -16.5q25 0 42 16.5t17 41.5t-17 41t-42 16q-26 0 -43.5 -16t-17.5 -41z
" />
    <glyph glyph-name="ae" unicode="&#xe6;" horiz-adv-x="1847" 
d="M549 -6q-133 0 -245.5 65t-177.5 177t-65 245q0 98 38.5 188t104 155t156 104t189.5 39q115 0 214.5 -50.5t168.5 -138.5q67 91 168.5 143t218.5 52q197 0 332 -133t135 -326q0 -35 -24 -61.5t-58 -32.5q-4 -2 -14 -2l-650 -2q23 -93 96 -151.5t173 -67.5q170 -19 301 82
q36 14 73.5 1.5t51.5 -49.5q13 -36 -3.5 -70t-52.5 -55q-140 -127 -399 -104q-139 15 -246 92v-2q0 -40 -26.5 -68t-63.5 -28q-40 0 -67 28t-27 68v6q-132 -104 -301 -104zM260 481q0 -120 84.5 -204t204.5 -84q119 0 203 84t84 204q0 119 -84 203t-203 84
q-120 0 -204.5 -84t-84.5 -203zM1038 557l547 2q-14 102 -87.5 165.5t-178.5 63.5q-104 0 -182 -62.5t-99 -168.5z" />
    <glyph glyph-name="ccedilla" unicode="&#xe7;" horiz-adv-x="962" 
d="M436 -440q-24 4 -37 23.5t-8 43.5q6 25 26.5 37t45.5 6q119 -25 180 21q29 20 36.5 47t-11.5 47q-21 25 -68 25q-51 0 -98 -23q-36 -14 -64.5 13t-11.5 63l61 135q-180 25 -300.5 163t-120.5 324q0 133 65.5 246t178 178.5t245.5 65.5q171 0 301 -103q34 -26 39 -67.5
t-21 -73.5t-66.5 -37t-72.5 21q-80 59 -180 59q-119 0 -204 -85t-85 -204q0 -121 85 -205.5t204 -84.5q101 0 180 61q32 25 72.5 19.5t66.5 -37.5t21 -74t-39 -68q-113 -86 -244 -98v-2l-34 -74q50 5 99 -11t77 -50q48 -53 41 -131q-9 -84 -84 -133q-116 -79 -275 -37z" />
    <glyph glyph-name="egrave" unicode="&#xe8;" horiz-adv-x="1083" 
d="M510 2q-196 22 -320 159t-124 326q0 132 65 244t176 177t242 65q197 0 332 -133t135 -326q0 -35 -24 -61.5t-58 -32.5q-4 -2 -14 -2l-650 -2q20 -93 92 -153.5t177 -72.5q174 -20 301 76q36 14 73.5 6t51.5 -41q14 -35 -2.5 -69.5t-53.5 -55.5q-140 -127 -399 -104z
M268 557l547 2q-14 102 -87.5 165.5t-178.5 63.5q-104 0 -182 -62.5t-99 -168.5zM422 1221q-18 38 6 65.5t61.5 23.5t51.5 -44l49 -140q11 -24 -4.5 -43t-41.5 -18t-42 25z" />
    <glyph glyph-name="eacute" unicode="&#xe9;" horiz-adv-x="1083" 
d="M510 2q-196 22 -320 159t-124 326q0 132 65 244t176 177t242 65q197 0 332 -133t135 -326q0 -35 -24 -61.5t-58 -32.5q-4 -2 -14 -2l-650 -2q20 -93 92 -153.5t177 -72.5q174 -20 301 76q36 14 73.5 6t51.5 -41q14 -35 -2.5 -69.5t-53.5 -55.5q-140 -127 -399 -104z
M268 557l547 2q-14 102 -87.5 165.5t-178.5 63.5q-104 0 -182 -62.5t-99 -168.5zM508 1106l49 137q14 40 51 43.5t61 -25t7 -65.5l-82 -129q-12 -22 -36.5 -23.5t-41 17t-8.5 45.5z" />
    <glyph glyph-name="ecircumflex" unicode="&#xea;" horiz-adv-x="1083" 
d="M510 2q-196 22 -320 159t-124 326q0 132 65 244t176 177t242 65q197 0 332 -133t135 -326q0 -35 -24 -61.5t-58 -32.5q-4 -2 -14 -2l-650 -2q20 -93 92 -153.5t177 -72.5q174 -20 301 76q36 14 73.5 6t51.5 -41q14 -35 -2.5 -69.5t-53.5 -55.5q-140 -127 -399 -104z
M268 557l547 2q-14 102 -87.5 165.5t-178.5 63.5q-104 0 -182 -62.5t-99 -168.5zM332 1155l176 195q15 20 41 20t45 -20l176 -195q17 -19 16 -42t-20 -40q-19 -15 -41 -14t-39 18l-137 150l-129 -150q-18 -18 -42.5 -18.5t-41.5 14.5q-17 17 -18 40t14 42z" />
    <glyph glyph-name="edieresis" unicode="&#xeb;" horiz-adv-x="1083" 
d="M510 2q-196 22 -320 159t-124 326q0 132 65 244t176 177t242 65q197 0 332 -133t135 -326q0 -35 -24 -61.5t-58 -32.5q-4 -2 -14 -2l-650 -2q20 -93 92 -153.5t177 -72.5q174 -20 301 76q36 14 73.5 6t51.5 -41q14 -35 -2.5 -69.5t-53.5 -55.5q-140 -127 -399 -104z
M268 557l547 2q-14 102 -87.5 165.5t-178.5 63.5q-104 0 -182 -62.5t-99 -168.5zM362 1122q0 30 21 51t51 21q29 0 50.5 -21.5t21.5 -50.5q0 -30 -21 -51.5t-51 -21.5q-31 0 -51.5 21t-20.5 52zM592 1122q0 30 21 51t51 21q28 0 48.5 -21.5t20.5 -50.5q0 -30 -20.5 -51.5
t-48.5 -21.5q-31 0 -51.5 21t-20.5 52z" />
    <glyph glyph-name="igrave" unicode="&#xec;" horiz-adv-x="382" 
d="M190 0q-41 0 -70.5 29.5t-29.5 70.5v770q0 41 29.5 71t70.5 30t71 -30t30 -71v-770q0 -41 -30 -70.5t-71 -29.5zM53 1231q-18 39 6 67t61.5 24t51.5 -44l55 -148q10 -24 -6 -43t-41.5 -18t-40.5 25z" />
    <glyph glyph-name="iacute" unicode="&#xed;" horiz-adv-x="382" 
d="M190 0q-41 0 -70.5 29.5t-29.5 70.5v770q0 41 29.5 71t70.5 30t71 -30t30 -71v-770q0 -41 -30 -70.5t-71 -29.5zM150 1128l53 148q14 40 51.5 44t62 -24t7.5 -67l-86 -137q-16 -26 -42 -27t-41.5 19t-4.5 44z" />
    <glyph glyph-name="icircumflex" unicode="&#xee;" horiz-adv-x="382" 
d="M190 0q-41 0 -70.5 29.5t-29.5 70.5v770q0 41 29.5 71t70.5 30t71 -30t30 -71v-770q0 -41 -30 -70.5t-71 -29.5zM-29 1176l176 196q15 19 42 19t44 -19l177 -196q15 -15 16 -33.5t-9 -32.5t-24.5 -23t-33 -6t-33.5 19l-138 147l-129 -147q-15 -16 -34 -19t-34 5.5
t-25.5 22t-9.5 32.5t15 35z" />
    <glyph glyph-name="idieresis" unicode="&#xef;" horiz-adv-x="382" 
d="M190 0q-41 0 -70.5 29.5t-29.5 70.5v770q0 41 29.5 71t70.5 30t71 -30t30 -71v-770q0 -41 -30 -70.5t-71 -29.5zM6 1118q0 30 21 51t51 21q28 0 48.5 -21.5t20.5 -50.5q0 -31 -20.5 -52.5t-48.5 -21.5q-31 0 -51.5 21.5t-20.5 52.5zM233 1118q0 30 21 51t51 21
q29 0 50.5 -21.5t21.5 -50.5q0 -31 -21.5 -52.5t-50.5 -21.5q-31 0 -51.5 21.5t-20.5 52.5z" />
    <glyph glyph-name="eth" unicode="&#xf0;" horiz-adv-x="1126" 
d="M561 -8q-134 0 -248 66t-180.5 179.5t-66.5 247.5q0 99 39.5 190.5t106 157.5t158 105t191.5 39q127 0 246 -66q-26 99 -74 207l-180 -31q-34 -5 -59 9.5t-31 46.5q-6 30 13 52t52 28l136 24q-1 2 -23 35q-23 35 -13.5 75t44.5 62t75 12t62 -45q26 -38 63 -102l160 29
q33 3 58.5 -11t29.5 -45q6 -31 -12.5 -53t-52.5 -28l-121 -21q40 -97 67 -203t37.5 -185t14.5 -151t2.5 -105.5t-2.5 -43.5v-6q-9 -195 -152.5 -332t-339.5 -137zM266 485q0 -122 86 -208.5t209 -86.5q118 0 203 83t90 200v10v2q0 121 -86 207t-207 86q-123 0 -209 -85.5
t-86 -207.5z" />
    <glyph glyph-name="ntilde" unicode="&#xf1;" 
d="M180 0q-40 0 -70 29.5t-30 70.5v445q0 177 126 302.5t304 125.5q177 0 302.5 -125.5t125.5 -302.5v-445q0 -41 -29.5 -70.5t-70.5 -29.5t-71 29.5t-30 70.5v445q0 94 -66.5 160.5t-160.5 66.5t-161.5 -66.5t-67.5 -160.5v-445q0 -42 -29.5 -71t-71.5 -29zM260 1190
q-6 24 6 45t35 25q42 8 68 -35q18 -36 47 -27q19 8 48.5 30.5t58 38t57.5 15.5q55 0 95 -33t52 -86q9 -52 -37 -65q-50 -16 -76 37q-3 14 -17 22t-32 2q-20 -10 -51.5 -33.5t-57.5 -36t-53 -12.5q-49 0 -90 31.5t-53 81.5z" />
    <glyph glyph-name="ograve" unicode="&#xf2;" horiz-adv-x="1095" 
d="M549 -6q-133 0 -245.5 65t-177.5 177t-65 245q0 98 38.5 188t104 155t156 104t189.5 39q131 0 242.5 -65.5t177 -177.5t65.5 -243q0 -133 -65.5 -245t-177 -177t-242.5 -65zM260 481q0 -120 84.5 -204t204.5 -84q119 0 203 84t84 204q0 119 -84 203t-203 84
q-120 0 -204.5 -84t-84.5 -203zM416 1219q-18 38 6 65.5t61.5 23.5t51.5 -44l49 -140q11 -24 -4.5 -43t-41.5 -18.5t-42 24.5z" />
    <glyph glyph-name="oacute" unicode="&#xf3;" horiz-adv-x="1095" 
d="M549 -6q-133 0 -245.5 65t-177.5 177t-65 245q0 98 38.5 188t104 155t156 104t189.5 39q131 0 242.5 -65.5t177 -177.5t65.5 -243q0 -133 -65.5 -245t-177 -177t-242.5 -65zM260 481q0 -120 84.5 -204t204.5 -84q119 0 203 84t84 204q0 119 -84 203t-203 84
q-120 0 -204.5 -84t-84.5 -203zM502 1104l49 137q14 40 51 43.5t61 -25t7 -65.5l-82 -129q-12 -22 -36.5 -23.5t-41 17t-8.5 45.5z" />
    <glyph glyph-name="ocircumflex" unicode="&#xf4;" horiz-adv-x="1095" 
d="M549 -6q-133 0 -245.5 65t-177.5 177t-65 245q0 98 38.5 188t104 155t156 104t189.5 39q131 0 242.5 -65.5t177 -177.5t65.5 -243q0 -133 -65.5 -245t-177 -177t-242.5 -65zM260 481q0 -120 84.5 -204t204.5 -84q119 0 203 84t84 204q0 119 -84 203t-203 84
q-120 0 -204.5 -84t-84.5 -203zM326 1153l176 195q15 20 41 20t45 -20l176 -195q17 -19 16 -42t-20 -40q-19 -15 -41 -14t-39 18l-137 150l-129 -150q-18 -18 -42.5 -18.5t-41.5 14.5q-17 17 -18 40t14 42z" />
    <glyph glyph-name="otilde" unicode="&#xf5;" horiz-adv-x="1095" 
d="M549 -6q-133 0 -245.5 65t-177.5 177t-65 245q0 98 38.5 188t104 155t156 104t189.5 39q131 0 242.5 -65.5t177 -177.5t65.5 -243q0 -133 -65.5 -245t-177 -177t-242.5 -65zM260 481q0 -120 84.5 -204t204.5 -84q119 0 203 84t84 204q0 119 -84 203t-203 84
q-120 0 -204.5 -84t-84.5 -203zM295 1194q-6 24 6 45t35 25q41 8 67 -35q18 -36 48 -27q19 8 48.5 30.5t57.5 38t57 15.5q55 0 95.5 -33t52.5 -86q9 -52 -37 -65q-50 -16 -76 37q-3 14 -17 22t-32 2q-20 -10 -51.5 -33.5t-57.5 -36t-53 -12.5q-49 0 -90 31.5t-53 81.5z" />
    <glyph glyph-name="odieresis" unicode="&#xf6;" horiz-adv-x="1095" 
d="M549 -6q-133 0 -245.5 65t-177.5 177t-65 245q0 98 38.5 188t104 155t156 104t189.5 39q131 0 242.5 -65.5t177 -177.5t65.5 -243q0 -133 -65.5 -245t-177 -177t-242.5 -65zM260 481q0 -120 84.5 -204t204.5 -84q119 0 203 84t84 204q0 119 -84 203t-203 84
q-120 0 -204.5 -84t-84.5 -203zM356 1120q0 30 21 51t51 21q29 0 50.5 -21.5t21.5 -50.5q0 -30 -21 -51.5t-51 -21.5q-31 0 -51.5 21t-20.5 52zM586 1120q0 30 20.5 51t50.5 21q28 0 49 -21.5t21 -50.5q0 -30 -21 -51.5t-49 -21.5q-31 0 -51 21t-20 52z" />
    <glyph glyph-name="divide" unicode="&#xf7;" horiz-adv-x="1085" 
d="M190 623q-37 0 -62.5 25t-25.5 63t25.5 63t62.5 25h705q37 0 62.5 -25t25.5 -63t-25.5 -63t-62.5 -25h-705zM430 399q0 47 34 80t81 33q46 0 79 -33t33 -80t-33 -81.5t-79 -34.5q-47 0 -81 34.5t-34 81.5zM430 1028q0 46 34 79.5t81 33.5q46 0 79 -33.5t33 -79.5
q0 -47 -33 -82t-79 -35q-47 0 -81 35t-34 82z" />
    <glyph glyph-name="oslash" unicode="&#xf8;" horiz-adv-x="1095" 
d="M549 -6q-140 0 -260 74l-41 -48q-19 -22 -53 -22q-29 4 -41 18q-23 20 -25.5 48t16.5 47l39 45q-123 139 -123 325q0 98 38.5 188t104 155t156 104t189.5 39q146 0 270 -84l47 53q17 23 46 24.5t51 -18.5q21 -19 22.5 -47t-18.5 -49l-47 -53q114 -133 114 -312
q0 -133 -65.5 -245t-177 -177t-242.5 -65zM260 481q0 -99 57 -174l371 424q-61 37 -139 37q-120 0 -204.5 -84t-84.5 -203zM422 221q61 -28 127 -28q119 0 203 84t84 204q0 85 -50 158z" />
    <glyph glyph-name="ugrave" unicode="&#xf9;" 
d="M180 973q43 0 72 -29t29 -72v-444q0 -92 67.5 -158.5t161.5 -66.5t160.5 66.5t66.5 158.5v444q0 42 29.5 71.5t71.5 29.5t71 -29.5t29 -71.5v-444q0 -177 -125.5 -302.5t-302.5 -125.5q-178 0 -304 125.5t-126 302.5v444q0 42 30 71.5t70 29.5zM383 1219q-18 38 6 65.5
t61.5 23.5t51.5 -44l49 -140q11 -24 -4.5 -43t-41.5 -18.5t-42 24.5z" />
    <glyph glyph-name="uacute" unicode="&#xfa;" 
d="M180 973q43 0 72 -29t29 -72v-444q0 -92 67.5 -158.5t161.5 -66.5t160.5 66.5t66.5 158.5v444q0 42 29.5 71.5t71.5 29.5t71 -29.5t29 -71.5v-444q0 -177 -125.5 -302.5t-302.5 -125.5q-178 0 -304 125.5t-126 302.5v444q0 42 30 71.5t70 29.5zM469 1104l49 137
q14 40 51 43.5t61 -25t7 -65.5l-82 -129q-12 -22 -36.5 -23.5t-41 17t-8.5 45.5z" />
    <glyph glyph-name="ucircumflex" unicode="&#xfb;" 
d="M180 973q43 0 72 -29t29 -72v-444q0 -92 67.5 -158.5t161.5 -66.5t160.5 66.5t66.5 158.5v444q0 42 29.5 71.5t71.5 29.5t71 -29.5t29 -71.5v-444q0 -177 -125.5 -302.5t-302.5 -125.5q-178 0 -304 125.5t-126 302.5v444q0 42 30 71.5t70 29.5zM293 1153l176 195
q15 20 41 20t45 -20l176 -195q17 -19 16 -42t-20 -40q-19 -15 -41 -14t-39 18l-137 150l-129 -150q-18 -18 -42.5 -18.5t-41.5 14.5q-17 17 -18 40t14 42z" />
    <glyph glyph-name="udieresis" unicode="&#xfc;" 
d="M180 973q43 0 72 -29t29 -72v-444q0 -92 67.5 -158.5t161.5 -66.5t160.5 66.5t66.5 158.5v444q0 42 29.5 71.5t71.5 29.5t71 -29.5t29 -71.5v-444q0 -177 -125.5 -302.5t-302.5 -125.5q-178 0 -304 125.5t-126 302.5v444q0 42 30 71.5t70 29.5zM324 1120q0 30 20.5 51
t50.5 21q29 0 50.5 -21.5t21.5 -50.5q0 -30 -21.5 -51.5t-50.5 -21.5q-31 0 -51 21t-20 52zM553 1120q0 30 21 51t51 21q28 0 48.5 -21.5t20.5 -50.5q0 -30 -20.5 -51.5t-48.5 -21.5q-31 0 -51.5 21t-20.5 52z" />
    <glyph glyph-name="yacute" unicode="&#xfd;" horiz-adv-x="999" 
d="M352 -367q-22 0 -43 9q-38 17 -52.5 56.5t3.5 76.5l137 309l-342 739q-19 38 -5 78t52 57q37 18 77 4t57 -51l270 -581l256 577q17 40 56 55t79 -4q37 -17 51.5 -56t-2.5 -79l-502 -1130q-28 -60 -92 -60zM459 1104l49 137q14 40 51 43.5t61 -25t7 -65.5l-82 -129
q-12 -22 -36.5 -23.5t-41 17t-8.5 45.5z" />
    <glyph glyph-name="thorn" unicode="&#xfe;" horiz-adv-x="1116" 
d="M569 0q-171 0 -303 104v-417q0 -40 -27 -68.5t-65 -28.5t-65 28.5t-27 68.5v1622q0 40 27 69t65 29t65 -29t27 -69v-443q132 107 303 107q99 0 189 -39t155 -104.5t103.5 -155.5t38.5 -189q0 -132 -65 -243.5t-177 -176.5t-244 -65zM281 485q0 -119 84 -202.5t204 -83.5
q119 0 203 84t84 202q0 120 -84 204.5t-203 84.5q-120 0 -204 -84.5t-84 -204.5z" />
    <glyph glyph-name="ydieresis" unicode="&#xff;" horiz-adv-x="999" 
d="M352 -367q-22 0 -43 9q-38 17 -52.5 56.5t3.5 76.5l137 309l-342 739q-19 38 -5 78t52 57q37 18 77 4t57 -51l270 -581l256 577q17 40 56 55t79 -4q37 -17 51.5 -56t-2.5 -79l-502 -1130q-28 -60 -92 -60zM315 1120q0 30 21 51t51 21q29 0 50.5 -21.5t21.5 -50.5
q0 -30 -21.5 -51.5t-50.5 -21.5q-31 0 -51.5 21t-20.5 52zM545 1120q0 30 20.5 51t50.5 21q28 0 49 -21.5t21 -50.5q0 -30 -21 -51.5t-49 -21.5q-31 0 -51 21t-20 52z" />
    <glyph glyph-name="Amacron" unicode="&#x100;" horiz-adv-x="1400" 
d="M236 59q-12 -25 -31 -40t-40 -18t-43 1t-39 17.5t-29 31t-13 41.5t10 49l557 1235q17 39 54 54t74 0.5t55 -54.5l559 -1235q11 -25 10 -48.5t-13 -41t-29 -31.5t-39 -18t-42.5 -1.5t-39.5 18t-30 40.5l-125 281h-684zM449 539h501l-252 555zM547 1579q-37 0 -52 28.5
t0 57.5t52 29h305q36 0 51 -29t0.5 -57.5t-51.5 -28.5h-305z" />
    <glyph glyph-name="amacron" unicode="&#x101;" horiz-adv-x="1114" 
d="M553 -6q-133 0 -245 65t-177 177t-65 245q0 131 65 243t177 177.5t245 65.5q131 0 242.5 -65.5t177 -177.5t65.5 -243v-8v-6v-373q0 -41 -26.5 -69.5t-63.5 -28.5q-40 0 -66 28t-26 70v37q-137 -137 -303 -137zM264 481q0 -120 85 -204t204 -84t203 84t84 204
q0 119 -84 203t-203 84t-204 -84.5t-85 -202.5zM401 1100q-37 0 -52 28.5t0 57t52 28.5h306q36 0 51 -28.5t0.5 -57t-51.5 -28.5h-306z" />
    <glyph glyph-name="Abreve" unicode="&#x102;" horiz-adv-x="1400" 
d="M236 59q-12 -25 -31 -40t-40 -18t-43 1t-39 17.5t-29 31t-13 41.5t10 49l557 1235q17 39 54 54t74 0.5t55 -54.5l559 -1235q11 -25 10 -48.5t-13 -41t-29 -31.5t-39 -18t-42.5 -1.5t-39.5 18t-30 40.5l-125 281h-684zM449 539h501l-252 555zM463 1741q0 25 17 42t42 17
q24 0 41 -17t17 -42q0 -46 33.5 -77.5t84.5 -31.5q48 0 83.5 32t35.5 77q0 25 16 42t41 17q24 0 41 -17t17 -42q0 -94 -68.5 -159.5t-165.5 -65.5t-166 66t-69 159z" />
    <glyph glyph-name="abreve" unicode="&#x103;" horiz-adv-x="1114" 
d="M553 -6q-133 0 -245 65t-177 177t-65 245q0 131 65 243t177 177.5t245 65.5q131 0 242.5 -65.5t177 -177.5t65.5 -243v-8v-6v-373q0 -41 -26.5 -69.5t-63.5 -28.5q-40 0 -66 28t-26 70v37q-137 -137 -303 -137zM264 481q0 -120 85 -204t204 -84t203 84t84 204
q0 119 -84 203t-203 84t-204 -84.5t-85 -202.5zM317 1262q0 25 17.5 42t42.5 17q23 0 40 -17t17 -42q0 -46 34 -77.5t85 -31.5q48 0 83.5 32t35.5 77q0 25 16 42t41 17q23 0 40 -17t17 -42q0 -94 -68 -160t-165 -66t-166.5 66.5t-69.5 159.5z" />
    <glyph glyph-name="Aogonek" unicode="&#x104;" horiz-adv-x="1400" 
d="M236 59q-12 -25 -31 -40t-40 -18t-43 1t-39 17.5t-29 31t-13 41.5t10 49l557 1235q17 39 54 54t74 0.5t55 -54.5l559 -1235q19 -46 0 -86l-7 -14q-33 -59 -79 -119q-51 -65 -67.5 -101.5t-2.5 -74.5q4 -17 23.5 -33t44.5 -24q67 -9 112 39q17 18 41 18.5t41 -14.5
q17 -19 18 -43t-16 -41q-75 -78 -170 -78q-32 0 -53 6q-56 14 -97.5 50t-54.5 85q-11 33 -11 66.5t6 57.5t24 57t30 49.5t37 50.5q18 22 23 31q-17 17 -25 36l-125 281h-684zM449 539h501l-252 555z" />
    <glyph glyph-name="aogonek" unicode="&#x105;" horiz-adv-x="1114" 
d="M553 -6q-133 0 -245 65t-177 177t-65 245q0 131 65 243t177 177.5t245 65.5q131 0 242.5 -65.5t177 -177.5t65.5 -243v-8v-6v-373v-14q0 -18 -8 -31q-30 -55 -80 -119t-66.5 -101t-2.5 -75q5 -17 23.5 -33.5t43.5 -23.5q68 -9 113 39q17 18 41 18.5t41 -14.5
q17 -19 18 -43t-16 -41q-75 -78 -170 -78q-32 0 -53 6q-56 14 -97.5 50t-54.5 85q-11 33 -11 66.5t6 57.5t24 57t30 49.5t37 50.5q1 1 23 29q-23 30 -23 65v37q-137 -137 -303 -137zM264 481q0 -120 85 -204t204 -84t203 84t84 204q0 119 -84 203t-203 84t-204 -84.5
t-85 -202.5z" />
    <glyph glyph-name="Cacute" unicode="&#x106;" horiz-adv-x="1359" 
d="M813 -14q-148 0 -283.5 58t-233.5 156t-156 233.5t-58 283.5q0 197 98 365t266.5 266t366.5 98q224 0 408 -125q34 -23 41.5 -63.5t-15.5 -77.5q-23 -34 -64 -42t-75 15q-134 90 -295 90q-144 0 -265.5 -70.5t-192 -191.5t-70.5 -264t70.5 -265t192 -193t265.5 -71
q171 0 311 103q34 25 74.5 18t65.5 -41t19 -75t-40 -64q-190 -143 -430 -143zM748 1614l53 147q14 40 51.5 44t62 -24t7.5 -67l-86 -137q-16 -26 -42 -26.5t-41.5 19.5t-4.5 44z" />
    <glyph glyph-name="cacute" unicode="&#x107;" horiz-adv-x="962" 
d="M555 -6q-133 0 -245.5 65.5t-178 178.5t-65.5 247q0 133 65.5 246t178 178.5t245.5 65.5q171 0 301 -103q34 -26 39 -67.5t-21 -73.5t-66.5 -37t-72.5 21q-80 59 -180 59q-119 0 -204 -85t-85 -204q0 -121 85 -205.5t204 -84.5q101 0 180 61q32 25 72.5 19.5t66.5 -37.5
t21 -74t-39 -68q-129 -102 -301 -102zM512 1137l53 147q14 40 51.5 44t62 -24t7.5 -67l-86 -137q-16 -26 -42 -26.5t-41.5 19.5t-4.5 44z" />
    <glyph glyph-name="Cdotaccent" unicode="&#x10a;" horiz-adv-x="1359" 
d="M813 -14q-148 0 -283.5 58t-233.5 156t-156 233.5t-58 283.5q0 197 98 365t266.5 266t366.5 98q224 0 408 -125q34 -23 41.5 -63.5t-15.5 -77.5q-23 -34 -64 -42t-75 15q-134 90 -295 90q-144 0 -265.5 -70.5t-192 -191.5t-70.5 -264t70.5 -265t192 -193t265.5 -71
q171 0 311 103q34 25 74.5 18t65.5 -41t19 -75t-40 -64q-190 -143 -430 -143zM719 1626q0 30 20 51t49 21t50.5 -21.5t21.5 -50.5q0 -31 -21.5 -52.5t-50.5 -21.5t-49 21.5t-20 52.5z" />
    <glyph glyph-name="cdotaccent" unicode="&#x10b;" horiz-adv-x="962" 
d="M555 -6q-133 0 -245.5 65.5t-178 178.5t-65.5 247q0 133 65.5 246t178 178.5t245.5 65.5q171 0 301 -103q34 -26 39 -67.5t-21 -73.5t-66.5 -37t-72.5 21q-80 59 -180 59q-119 0 -204 -85t-85 -204q0 -121 85 -205.5t204 -84.5q101 0 180 61q32 25 72.5 19.5t66.5 -37.5
t21 -74t-39 -68q-129 -102 -301 -102zM485 1149q0 29 20.5 50.5t49.5 21.5t50.5 -21.5t21.5 -50.5q0 -31 -21.5 -52.5t-50.5 -21.5t-49.5 21.5t-20.5 52.5z" />
    <glyph glyph-name="Ccaron" unicode="&#x10c;" horiz-adv-x="1359" 
d="M813 -14q-148 0 -283.5 58t-233.5 156t-156 233.5t-58 283.5q0 197 98 365t266.5 266t366.5 98q224 0 408 -125q34 -23 41.5 -63.5t-15.5 -77.5q-23 -34 -64 -42t-75 15q-134 90 -295 90q-144 0 -265.5 -70.5t-192 -191.5t-70.5 -264t70.5 -265t192 -193t265.5 -71
q171 0 311 103q34 25 74.5 18t65.5 -41t19 -75t-40 -64q-190 -143 -430 -143zM569 1731q-15 19 -14 41.5t18 39.5q15 15 39 15q26 0 45 -19l129 -149l138 149q17 17 39 18t41 -14q19 -17 20 -39.5t-16 -41.5l-177 -195q-14 -20 -45 -20q-27 0 -41 20z" />
    <glyph glyph-name="ccaron" unicode="&#x10d;" horiz-adv-x="962" 
d="M555 -6q-133 0 -245.5 65.5t-178 178.5t-65.5 247q0 133 65.5 246t178 178.5t245.5 65.5q171 0 301 -103q34 -26 39 -67.5t-21 -73.5t-66.5 -37t-72.5 21q-80 59 -180 59q-119 0 -204 -85t-85 -204q0 -121 85 -205.5t204 -84.5q101 0 180 61q32 25 72.5 19.5t66.5 -37.5
t21 -74t-39 -68q-129 -102 -301 -102zM336 1253q-15 19 -14 42t18 40q15 15 39 15q26 0 45 -19l129 -149l137 149q17 17 39 18t41 -14q19 -17 20 -40t-16 -42l-176 -194q-15 -21 -45 -21q-26 0 -41 21z" />
    <glyph glyph-name="Dcaron" unicode="&#x10e;" horiz-adv-x="1402" 
d="M612 1434q146 0 279.5 -57t229.5 -153t153 -228t57 -277q0 -146 -57 -279.5t-153 -229.5t-229.5 -153t-279.5 -57h-368q-38 1 -67 28t-32 62q-2 6 -2 10v1190v45q0 40 30 69.5t71 29.5h368zM342 201l270 -4q142 0 262 69.5t189.5 190t69.5 262.5q0 141 -69.5 260.5
t-189.5 188.5t-262 69h-270v-1036zM360 1702q-15 19 -13.5 42t18.5 40q14 14 38 14q28 0 46 -18l129 -150l137 150q17 17 39 18t41 -14q19 -17 20 -40t-16 -42l-176 -195q-14 -20 -45 -20q-27 0 -41 20z" />
    <glyph glyph-name="dcaron" unicode="&#x10f;" horiz-adv-x="1136" 
d="M549 967q167 0 301 -105v475q0 40 27.5 68.5t66.5 28.5q37 0 63.5 -28.5t26.5 -68.5v-843v-5v-8q0 -132 -65.5 -244t-177 -177.5t-242.5 -65.5q-202 0 -345 143t-143 344t143 343.5t345 142.5zM260 481q0 -120 84.5 -204t204.5 -84q119 0 203 84t84 204q0 119 -84 203
t-203 84q-120 0 -204.5 -84t-84.5 -203zM330 1626q-15 19 -14 42t18 40q14 14 39 14q27 0 45 -18l129 -150l137 150q17 17 39 18t41 -14q19 -17 20 -40t-16 -42l-176 -194q-15 -21 -45 -21q-26 0 -41 21z" />
    <glyph glyph-name="Dcroat" unicode="&#x110;" horiz-adv-x="1503" 
d="M705 1434q146 0 279 -57t228.5 -153t152 -228t56.5 -277q0 -195 -95.5 -360.5t-260.5 -262t-360 -96.5h-371q-37 2 -66 28.5t-30 61.5q-5 6 -5 10v527h-94q-40 0 -69 29.5t-29 70.5q0 40 29 70t69 30h94v463v45q0 40 30.5 69.5t72.5 29.5h369zM432 201l273 -4
q106 0 202 41t166 111t111 167t41 203t-41 202t-111 165t-166 110t-202 41h-273v-410h246q41 0 69.5 -30t28.5 -70q0 -41 -28.5 -70.5t-69.5 -29.5h-246v-426z" />
    <glyph glyph-name="dcroat" unicode="&#x111;" horiz-adv-x="1169" 
d="M549 967q167 0 301 -105v242h-258q-34 0 -57 24t-23 58q0 31 23.5 54.5t56.5 23.5h258v73q0 40 27.5 68.5t66.5 28.5q37 0 63.5 -28.5t26.5 -68.5v-73h56q32 0 54.5 -23.5t22.5 -54.5q0 -34 -22.5 -58t-54.5 -24h-56v-610v-5v-8q0 -132 -65.5 -244t-177 -177.5
t-242.5 -65.5q-202 0 -345 143t-143 344t143 343.5t345 142.5zM260 481q0 -120 84.5 -204t204.5 -84q119 0 203 84t84 204q0 119 -84 203t-203 84q-120 0 -204.5 -84t-84.5 -203z" />
    <glyph glyph-name="Emacron" unicode="&#x112;" horiz-adv-x="1181" 
d="M1012 199q41 0 70.5 -30t29.5 -71q0 -40 -29.5 -69t-70.5 -29h-781q-41 0 -70.5 29t-29.5 69v1237q0 40 29.5 69.5t70.5 29.5h781q41 0 70.5 -29.5t29.5 -69.5q0 -41 -29.5 -70.5t-70.5 -29.5h-682v-420h573q42 0 71.5 -28.5t29.5 -69.5t-30 -70t-71 -29h-573v-419h682z
M469 1575q-37 0 -52 28.5t0 57.5t52 29h305q36 0 51 -29t0.5 -57.5t-51.5 -28.5h-305z" />
    <glyph glyph-name="emacron" unicode="&#x113;" horiz-adv-x="1083" 
d="M510 2q-196 22 -320 159t-124 326q0 132 65 244t176 177t242 65q197 0 332 -133t135 -326q0 -35 -24 -61.5t-58 -32.5q-4 -2 -14 -2l-650 -2q20 -93 92 -153.5t177 -72.5q174 -20 301 76q36 14 73.5 6t51.5 -41q14 -35 -2.5 -69.5t-53.5 -55.5q-140 -127 -399 -104z
M268 557l547 2q-14 102 -87.5 165.5t-178.5 63.5q-104 0 -182 -62.5t-99 -168.5zM397 1106q-37 0 -52 29t0 57.5t52 28.5h305q36 0 51 -28.5t0.5 -57.5t-51.5 -29h-305z" />
    <glyph glyph-name="Edotaccent" unicode="&#x116;" horiz-adv-x="1181" 
d="M1012 199q41 0 70.5 -30t29.5 -71q0 -40 -29.5 -69t-70.5 -29h-781q-41 0 -70.5 29t-29.5 69v1237q0 40 29.5 69.5t70.5 29.5h781q41 0 70.5 -29.5t29.5 -69.5q0 -41 -29.5 -70.5t-70.5 -29.5h-682v-420h573q42 0 71.5 -28.5t29.5 -69.5t-30 -70t-71 -29h-573v-419h682z
M553 1614q0 29 20.5 50.5t49.5 21.5t50 -21.5t21 -50.5q0 -31 -21 -52.5t-50 -21.5t-49.5 21.5t-20.5 52.5z" />
    <glyph glyph-name="edotaccent" unicode="&#x117;" horiz-adv-x="1083" 
d="M510 2q-196 22 -320 159t-124 326q0 132 65 244t176 177t242 65q197 0 332 -133t135 -326q0 -35 -24 -61.5t-58 -32.5q-4 -2 -14 -2l-650 -2q20 -93 92 -153.5t177 -72.5q174 -20 301 76q36 14 73.5 6t51.5 -41q14 -35 -2.5 -69.5t-53.5 -55.5q-140 -127 -399 -104z
M268 557l547 2q-14 102 -87.5 165.5t-178.5 63.5q-104 0 -182 -62.5t-99 -168.5zM481 1145q0 29 20.5 50.5t49.5 21.5t50.5 -21.5t21.5 -50.5q0 -31 -21.5 -52.5t-50.5 -21.5t-49.5 21.5t-20.5 52.5z" />
    <glyph glyph-name="Eogonek" unicode="&#x118;" horiz-adv-x="1181" 
d="M1012 199q41 0 70.5 -30t29.5 -71q0 -40 -29.5 -69t-70.5 -29h-178q-32 -55 -72 -104q-50 -65 -67 -102t-3 -75q4 -17 23.5 -33t44.5 -24q67 -9 112 39q17 18 41 18.5t41 -14.5q17 -19 18 -43t-16 -41q-75 -78 -170 -78q-32 0 -53 6q-56 14 -97 50.5t-54 85.5
q-11 33 -11 66.5t5.5 57t24.5 56.5t30 49t37 51q13 19 26 35h-463q-41 0 -70.5 29t-29.5 69v1237q0 40 29.5 69.5t70.5 29.5h781q41 0 70.5 -29.5t29.5 -69.5q0 -41 -29.5 -70.5t-70.5 -29.5h-682v-420h573q42 0 71.5 -28.5t29.5 -69.5t-30 -70t-71 -29h-573v-419h682z" />
    <glyph glyph-name="eogonek" unicode="&#x119;" horiz-adv-x="1083" 
d="M586 -455q-33 0 -54 6q-56 14 -97 50.5t-54 85.5q-11 33 -11 66.5t5.5 57t24.5 56.5t30 49t37 51l27 37q-189 26 -308.5 161.5t-119.5 321.5q0 132 65 244t176 177t242 65q197 0 332 -133t135 -326q0 -35 -24 -61.5t-58 -32.5q-4 -2 -14 -2l-650 -2q20 -93 92 -153.5
t177 -72.5q174 -20 301 76q36 14 73.5 6t51.5 -41q14 -35 -2.5 -69.5t-53.5 -55.5q-106 -95 -276 -106q-14 -24 -72 -102q-50 -64 -66.5 -101.5t-2.5 -75.5q5 -17 23.5 -33.5t43.5 -23.5q68 -9 113 39q17 18 41 18.5t41 -14.5q17 -19 18 -43t-16 -41q-75 -78 -170 -78z
M268 557l547 2q-14 102 -87.5 165.5t-178.5 63.5q-104 0 -182 -62.5t-99 -168.5z" />
    <glyph glyph-name="Ecaron" unicode="&#x11a;" horiz-adv-x="1181" 
d="M1012 199q41 0 70.5 -30t29.5 -71q0 -40 -29.5 -69t-70.5 -29h-781q-41 0 -70.5 29t-29.5 69v1237q0 40 29.5 69.5t70.5 29.5h781q41 0 70.5 -29.5t29.5 -69.5q0 -41 -29.5 -70.5t-70.5 -29.5h-682v-420h573q42 0 71.5 -28.5t29.5 -69.5t-30 -70t-71 -29h-573v-419h682z
M403 1720q-15 19 -13.5 42t18.5 40q15 15 38 15q27 0 46 -19l129 -149l137 149q17 17 39 18t41 -14q19 -17 20 -40t-16 -42l-176 -194q-15 -21 -45 -21q-26 0 -41 21z" />
    <glyph glyph-name="ecaron" unicode="&#x11b;" horiz-adv-x="1083" 
d="M510 2q-196 22 -320 159t-124 326q0 132 65 244t176 177t242 65q197 0 332 -133t135 -326q0 -35 -24 -61.5t-58 -32.5q-4 -2 -14 -2l-650 -2q20 -93 92 -153.5t177 -72.5q174 -20 301 76q36 14 73.5 6t51.5 -41q14 -35 -2.5 -69.5t-53.5 -55.5q-140 -127 -399 -104z
M268 557l547 2q-14 102 -87.5 165.5t-178.5 63.5q-104 0 -182 -62.5t-99 -168.5zM332 1249q-15 19 -14 42t18 40q15 15 39 15q26 0 45 -19l129 -149l137 149q17 17 39 18t41 -14q19 -17 20 -40t-16 -42l-176 -194q-15 -21 -45 -21q-26 0 -41 21z" />
    <glyph glyph-name="Gbreve" unicode="&#x11e;" horiz-adv-x="1382" 
d="M811 -10q-197 0 -365 97.5t-266 264.5t-98 363q0 198 98 366t266 265.5t365 97.5q215 0 406 -123q34 -25 42.5 -66t-14.5 -75q-25 -34 -65 -42.5t-74 15.5q-134 88 -295 88q-143 0 -264.5 -70t-192.5 -191t-71 -265q0 -106 42 -203.5t112.5 -168.5t168.5 -113t205 -42
q141 0 268 78v348h-266q-41 0 -70.5 30t-29.5 71q0 43 29.5 72.5t70.5 29.5h367q41 0 70.5 -29.5t29.5 -72.5v-504q0 -53 -41 -80q-187 -141 -428 -141zM575 1784q0 25 17.5 42t42.5 17q23 0 40 -17t17 -42q0 -46 34 -77.5t85 -31.5q48 0 83.5 32t35.5 77q0 25 16 42t41 17
q23 0 40 -17t17 -42q0 -94 -68 -159.5t-165 -65.5t-166.5 66t-69.5 159z" />
    <glyph glyph-name="gbreve" unicode="&#x11f;" horiz-adv-x="1130" 
d="M553 -2q-132 0 -244 64.5t-177.5 175.5t-65.5 243q0 131 65.5 243t177.5 177.5t244 65.5t244 -65.5t177.5 -177.5t65.5 -243v-2v-2v-399q0 -192 -127.5 -329t-324.5 -159q-13 0 -38 -1t-36 -1q-154 0 -274 68q-36 15 -52 53.5t-2 75.5q17 39 55 54.5t76 -1.5
q109 -65 250 -47q118 11 195.5 89.5t77.5 197.5v8q-128 -88 -287 -88zM266 481q0 -120 84 -203t203 -83q120 0 203.5 83t83.5 203q0 119 -83.5 203t-203.5 84q-119 0 -203 -84t-84 -203zM317 1305q0 25 17.5 42t42.5 17q23 0 40 -17t17 -42q0 -46 34 -77.5t85 -31.5
q48 0 83.5 32t35.5 77q0 25 16 42t41 17q23 0 40 -17t17 -42q0 -94 -68 -160t-165 -66t-166.5 66.5t-69.5 159.5z" />
    <glyph glyph-name="Gdotaccent" unicode="&#x120;" horiz-adv-x="1382" 
d="M811 -10q-197 0 -365 97.5t-266 264.5t-98 363q0 198 98 366t266 265.5t365 97.5q215 0 406 -123q34 -25 42.5 -66t-14.5 -75q-25 -34 -65 -42.5t-74 15.5q-134 88 -295 88q-143 0 -264.5 -70t-192.5 -191t-71 -265q0 -106 42 -203.5t112.5 -168.5t168.5 -113t205 -42
q141 0 268 78v348h-266q-41 0 -70.5 30t-29.5 71q0 43 29.5 72.5t70.5 29.5h367q41 0 70.5 -29.5t29.5 -72.5v-504q0 -53 -41 -80q-187 -141 -428 -141zM743 1620q0 29 20.5 50.5t49.5 21.5t50.5 -21.5t21.5 -50.5q0 -31 -21.5 -52.5t-50.5 -21.5t-49.5 21.5t-20.5 52.5z
" />
    <glyph glyph-name="gdotaccent" unicode="&#x121;" horiz-adv-x="1130" 
d="M553 -2q-132 0 -244 64.5t-177.5 175.5t-65.5 243q0 131 65.5 243t177.5 177.5t244 65.5t244 -65.5t177.5 -177.5t65.5 -243v-2v-2v-399q0 -192 -127.5 -329t-324.5 -159q-13 0 -38 -1t-36 -1q-154 0 -274 68q-36 15 -52 53.5t-2 75.5q17 39 55 54.5t76 -1.5
q109 -65 250 -47q118 11 195.5 89.5t77.5 197.5v8q-128 -88 -287 -88zM266 481q0 -120 84 -203t203 -83q120 0 203.5 83t83.5 203q0 119 -83.5 203t-203.5 84q-119 0 -203 -84t-84 -203zM485 1139q0 29 20.5 50t49.5 21t50.5 -21t21.5 -50q0 -31 -21.5 -52.5t-50.5 -21.5
t-49.5 21.5t-20.5 52.5z" />
    <glyph glyph-name="uni0122" unicode="&#x122;" horiz-adv-x="1382" 
d="M811 -10q-197 0 -365 97.5t-266 264.5t-98 363q0 198 98 366t266 265.5t365 97.5q215 0 406 -123q34 -25 42.5 -66t-14.5 -75q-25 -34 -65 -42.5t-74 15.5q-134 88 -295 88q-143 0 -264.5 -70t-192.5 -191t-71 -265q0 -106 42 -203.5t112.5 -168.5t168.5 -113t205 -42
q141 0 268 78v348h-266q-41 0 -70.5 30t-29.5 71q0 43 29.5 72.5t70.5 29.5h367q41 0 70.5 -29.5t29.5 -72.5v-504q0 -53 -41 -80q-187 -141 -428 -141zM674 -244l53 146q13 40 50.5 44t62.5 -23.5t8 -65.5l-86 -140q-16 -26 -41.5 -26.5t-41 20t-5.5 45.5z" />
    <glyph glyph-name="uni0123" unicode="&#x123;" horiz-adv-x="1130" 
d="M553 -2q-132 0 -244 64.5t-177.5 175.5t-65.5 243q0 131 65.5 243t177.5 177.5t244 65.5t244 -65.5t177.5 -177.5t65.5 -243v-2v-2v-399q0 -192 -127.5 -329t-324.5 -159q-13 0 -38 -1t-36 -1q-154 0 -274 68q-36 15 -52 53.5t-2 75.5q17 39 55 54.5t76 -1.5
q109 -65 250 -47q118 11 195.5 89.5t77.5 197.5v8q-128 -88 -287 -88zM266 481q0 -120 84 -203t203 -83q120 0 203.5 83t83.5 203q0 119 -83.5 203t-203.5 84q-119 0 -203 -84t-84 -203zM485 1178l86 137q15 27 40.5 28t41.5 -19.5t6 -45.5l-55 -148q-14 -40 -51.5 -44
t-61.5 24.5t-6 67.5z" />
    <glyph glyph-name="Hbar" unicode="&#x126;" horiz-adv-x="1400" 
d="M1141 1436q41 0 70.5 -29t29.5 -70v-110h41q42 0 70 -24t28 -64t-28 -64t-70 -24h-41v-953q0 -41 -29.5 -70.5t-70.5 -29.5q-40 0 -69.5 29.5t-29.5 70.5v512h-675v-512q0 -41 -30 -70.5t-71 -29.5t-69.5 29.5t-28.5 70.5v953h-49q-41 0 -70 24t-29 64t29 64t70 24h49
v110q0 41 28.5 70t69.5 29t71 -29t30 -70v-110h675v110q0 41 29.5 70t69.5 29zM367 809h675v242h-675v-242z" />
    <glyph glyph-name="hbar" unicode="&#x127;" horiz-adv-x="1067" 
d="M207 0q-41 0 -71 29.5t-30 70.5v1022h-63q-35 0 -57.5 18.5t-22.5 51.5q0 31 22.5 49.5t57.5 18.5h63v77q0 42 29.5 71.5t71.5 29.5q43 0 71.5 -29t28.5 -72v-77h246q33 0 55.5 -18.5t22.5 -49.5q0 -33 -22 -51.5t-56 -18.5h-246v-215q106 66 230 66q177 0 302.5 -125.5
t125.5 -302.5v-445q0 -41 -30 -70.5t-71 -29.5t-71.5 29.5t-30.5 70.5v445q0 94 -65.5 160.5t-159.5 66.5q-95 0 -162.5 -66.5t-67.5 -160.5v-445q0 -42 -29 -71t-71 -29z" />
    <glyph glyph-name="Itilde" unicode="&#x128;" horiz-adv-x="421" 
d="M211 -4q-41 0 -70.5 28.5t-29.5 69.5v1245q0 41 29.5 71t70.5 30t70.5 -30t29.5 -71v-1245q0 -41 -29.5 -69.5t-70.5 -28.5zM-35 1651q-6 23 6 44t35 25q42 8 68 -34q18 -36 47 -27q19 8 48.5 30.5t58 38t57.5 15.5q55 0 95 -33t52 -86q9 -52 -37 -65q-51 -16 -76 36
q-3 14 -17 22.5t-32 2.5q-20 -10 -51.5 -33t-57 -36t-52.5 -13q-49 0 -90.5 31.5t-53.5 81.5z" />
    <glyph glyph-name="itilde" unicode="&#x129;" horiz-adv-x="382" 
d="M190 0q-41 0 -70.5 29.5t-29.5 70.5v770q0 41 29.5 71t70.5 30t71 -30t30 -71v-770q0 -41 -30 -70.5t-71 -29.5zM-57 1182q-6 23 6 44t35 25q41 8 67 -34q18 -36 47 -27q19 8 48.5 30.5t58 38t57.5 15.5q55 0 95.5 -33t52.5 -86q9 -52 -37 -65q-51 -16 -76 36
q-3 14 -17 22.5t-32 2.5q-20 -10 -51.5 -33.5t-57.5 -36t-53 -12.5q-49 0 -90 31.5t-53 81.5z" />
    <glyph glyph-name="Imacron" unicode="&#x12a;" horiz-adv-x="421" 
d="M211 -4q-41 0 -70.5 28.5t-29.5 69.5v1245q0 41 29.5 71t70.5 30t70.5 -30t29.5 -71v-1245q0 -41 -29.5 -69.5t-70.5 -28.5zM41 1571q-37 0 -52 28.5t0 57.5t52 29h346q36 0 51 -29t0.5 -57.5t-51.5 -28.5h-346z" />
    <glyph glyph-name="imacron" unicode="&#x12b;" horiz-adv-x="382" 
d="M190 0q-41 0 -70.5 29.5t-29.5 70.5v770q0 41 29.5 71t70.5 30t71 -30t30 -71v-770q0 -41 -30 -70.5t-71 -29.5zM18 1102q-37 0 -52 29t0 57.5t52 28.5h347q36 0 51 -28.5t0.5 -57.5t-51.5 -29h-347z" />
    <glyph glyph-name="Iogonek" unicode="&#x12e;" horiz-adv-x="421" 
d="M244 -422q-33 0 -54 6q-56 14 -97 50t-54 85q-11 33 -11 66.5t6 57.5t24 57t30 49.5t37 50.5l16 23q-30 30 -30 71v1245q0 41 29.5 71t70.5 30t70.5 -30t29.5 -71v-1245q0 -34 -20 -61q-23 -37 -72 -103q-50 -64 -66.5 -101t-2.5 -75q5 -17 23.5 -33.5t43.5 -23.5
q68 -9 113 39q17 18 41 18.5t41 -14.5q17 -19 18 -43t-16 -41q-75 -78 -170 -78z" />
    <glyph glyph-name="iogonek" unicode="&#x12f;" horiz-adv-x="382" 
d="M193 1067q-29 0 -49.5 21.5t-20.5 52.5q0 29 20.5 50t49.5 21t50 -21t21 -50q0 -31 -21 -52.5t-50 -21.5zM-6 -328q-11 33 -11 66.5t6 57.5t24 57t30 49.5t37 50.5q6 9 23 31t26 36q-39 31 -39 80v770q0 41 29.5 71t70.5 30t71 -30t30 -71v-770q0 -38 -29 -71
q-6 -22 -8 -27q-30 -55 -80 -119q-51 -65 -67.5 -101.5t-2.5 -74.5q4 -17 23.5 -33t44.5 -24q68 -9 113 39q17 18 41 18.5t41 -14.5q17 -19 18 -43t-16 -41q-75 -78 -170 -78q-33 0 -54 6q-56 14 -97 50t-54 85z" />
    <glyph glyph-name="Idotaccent" unicode="&#x130;" horiz-adv-x="421" 
d="M211 -4q-41 0 -70.5 28.5t-29.5 69.5v1245q0 41 29.5 71t70.5 30t70.5 -30t29.5 -71v-1245q0 -41 -29.5 -69.5t-70.5 -28.5zM143 1610q0 29 20.5 50t49.5 21t50.5 -21t21.5 -50q0 -31 -21.5 -52.5t-50.5 -21.5t-49.5 21.5t-20.5 52.5z" />
    <glyph glyph-name="dotlessi" unicode="&#x131;" horiz-adv-x="382" 
d="M190 0q-41 0 -70.5 29.5t-29.5 70.5v770q0 41 29.5 71t70.5 30t71 -30t30 -71v-770q0 -41 -30 -70.5t-71 -29.5z" />
    <glyph glyph-name="uni0136" unicode="&#x136;" horiz-adv-x="1191" 
d="M1126 164q28 -31 25.5 -72t-33.5 -67q-31 -25 -65 -25q-48 0 -76 35l-506 583l-149 -165v-355q0 -40 -29.5 -69t-71.5 -29q-40 0 -69 29t-29 69v1237q0 40 29 69.5t69 29.5q42 0 71.5 -29.5t29.5 -69.5v-583l593 649q26 30 68 32.5t72 -24.5q30 -29 32.5 -70t-24.5 -71
l-459 -500zM453 -244l53 146q13 40 50.5 44t62.5 -23.5t8 -65.5l-86 -140q-16 -26 -41.5 -26.5t-41 20t-5.5 45.5z" />
    <glyph glyph-name="uni0137" unicode="&#x137;" horiz-adv-x="931" 
d="M180 0q-40 0 -70 30t-30 70v1235q0 41 30 71t70 30t70.5 -30t30.5 -71v-723l432 334q34 26 75 21t66 -39q26 -32 20 -74t-40 -68l-322 -245l342 -373q27 -29 26 -70.5t-30 -70.5q-34 -27 -70 -27q-43 0 -71 31l-357 385l-71 -56v-260q0 -40 -30.5 -70t-70.5 -30zM88 -244
l53 146q13 40 50.5 44t62.5 -23.5t8 -65.5l-86 -140q-16 -26 -41.5 -26.5t-41 20t-5.5 45.5z" />
    <glyph glyph-name="Lacute" unicode="&#x139;" horiz-adv-x="1224" 
d="M242 0q-40 0 -69.5 29t-29.5 69v1237q0 40 29.5 69.5t69.5 29.5q41 0 70.5 -29.5t29.5 -69.5v-1136h711q41 0 69.5 -29t28.5 -72q0 -40 -28.5 -69t-69.5 -29h-811zM203 1597l53 148q14 40 51.5 44t62 -24t7.5 -67l-86 -137q-16 -26 -42 -27t-41.5 19t-4.5 44z" />
    <glyph glyph-name="lacute" unicode="&#x13a;" horiz-adv-x="665" 
d="M516 0q-200 0 -318 124.5t-118 334.5v874q0 41 29.5 71t70.5 30q40 0 70.5 -30t30.5 -71v-874q0 -132 62.5 -195t172.5 -63q41 0 69.5 -29.5t28.5 -71.5q0 -41 -28.5 -70.5t-69.5 -29.5zM139 1593l54 148q14 40 51 44t61.5 -24t7.5 -67l-86 -138q-16 -26 -42 -26.5
t-41.5 19.5t-4.5 44z" />
    <glyph glyph-name="uni013B" unicode="&#x13b;" horiz-adv-x="1224" 
d="M242 0q-40 0 -69.5 29t-29.5 69v1237q0 40 29.5 69.5t69.5 29.5q41 0 70.5 -29.5t29.5 -69.5v-1136h711q41 0 69.5 -29t28.5 -72q0 -40 -28.5 -69t-69.5 -29h-811zM514 -244l53 146q13 40 50.5 44t62.5 -23.5t8 -65.5l-86 -140q-16 -26 -41.5 -26.5t-41 20t-5.5 45.5z
" />
    <glyph glyph-name="uni013C" unicode="&#x13c;" horiz-adv-x="665" 
d="M516 0q-200 0 -318 124.5t-118 334.5v874q0 41 29.5 71t70.5 30q40 0 70.5 -30t30.5 -71v-874q0 -132 62.5 -195t172.5 -63q41 0 69.5 -29.5t28.5 -71.5q0 -41 -28.5 -70.5t-69.5 -29.5zM229 -244l54 146q13 40 50.5 44t62 -23.5t7.5 -65.5l-86 -140q-16 -26 -41.5 -26.5
t-41 20t-5.5 45.5z" />
    <glyph glyph-name="Lcaron" unicode="&#x13d;" horiz-adv-x="1224" 
d="M242 0q-40 0 -69.5 29t-29.5 69v1237q0 40 29.5 69.5t69.5 29.5q41 0 70.5 -29.5t29.5 -69.5v-1136h711q41 0 69.5 -29t28.5 -72q0 -40 -28.5 -69t-69.5 -29h-811zM25 1714q-15 19 -14 42t18 40q14 14 39 14q27 0 45 -18l129 -150l137 150q17 17 39 18t41 -14
q19 -17 20 -40t-16 -42l-176 -194q-15 -21 -45 -21q-26 0 -41 21z" />
    <glyph glyph-name="lcaron" unicode="&#x13e;" horiz-adv-x="665" 
d="M516 0q-200 0 -318 124.5t-118 334.5v874q0 41 29.5 71t70.5 30q40 0 70.5 -30t30.5 -71v-874q0 -132 62.5 -195t172.5 -63q41 0 69.5 -29.5t28.5 -71.5q0 -41 -28.5 -70.5t-69.5 -29.5zM-39 1729q-15 19 -14 41.5t18 39.5q15 15 39 15q26 0 45 -19l129 -149l137 149
q17 17 39 18t41 -14q19 -17 20 -39.5t-16 -41.5l-176 -195q-15 -21 -45 -21q-26 0 -41 21z" />
    <glyph glyph-name="Lslash" unicode="&#x141;" horiz-adv-x="1325" 
d="M293 0q-41 0 -69.5 29t-28.5 69v488l-7 -6q-29 -29 -69.5 -29t-71.5 29q-28 28 -28 69.5t28 69.5l148 147v469q0 40 28.5 69.5t69.5 29.5t70.5 -29.5t29.5 -69.5v-272l37 37q29 29 69.5 29t69.5 -29t29.5 -71t-27.5 -71l-178 -176v-583h711q40 0 69 -29.5t29 -71.5
q0 -40 -29 -69t-69 -29h-811z" />
    <glyph glyph-name="lslash" unicode="&#x142;" horiz-adv-x="667" 
d="M506 0q-199 0 -317.5 125t-118.5 334v198q-30 -15 -67 -6.5t-58 37.5q-23 34 -16.5 74t38.5 65l103 82v424q0 41 29.5 71t70.5 30t70.5 -30t29.5 -71v-262l27 21q34 23 74 16t65 -39t18.5 -73t-38.5 -66l-146 -117v-354q0 -132 63 -195t173 -63q41 0 70.5 -30t29.5 -71
t-29.5 -70.5t-70.5 -29.5z" />
    <glyph glyph-name="Nacute" unicode="&#x143;" horiz-adv-x="1429" 
d="M229 0q-40 0 -69 29.5t-29 70.5v1239q0 32 18.5 58.5t49.5 36.5q31 11 61.5 2t50.5 -35l787 -1010v948q0 42 28.5 71.5t69.5 29.5q42 0 71 -29.5t29 -71.5v-1239q0 -33 -18.5 -59t-48.5 -35q-15 -6 -33 -6q-49 0 -80 39l-784 1010v-949q0 -41 -30 -70.5t-73 -29.5z
M672 1552l53 148q14 40 51.5 44t62 -24t7.5 -67l-86 -137q-16 -26 -42 -27t-41.5 19t-4.5 44z" />
    <glyph glyph-name="nacute" unicode="&#x144;" 
d="M180 0q-40 0 -70 29.5t-30 70.5v445q0 177 126 302.5t304 125.5q177 0 302.5 -125.5t125.5 -302.5v-445q0 -41 -29.5 -70.5t-70.5 -29.5t-71 29.5t-30 70.5v445q0 94 -66.5 160.5t-160.5 66.5t-161.5 -66.5t-67.5 -160.5v-445q0 -42 -29.5 -71t-71.5 -29zM467 1126
l53 148q14 40 51.5 44t62 -24t7.5 -67l-86 -137q-16 -26 -42 -27t-41.5 19t-4.5 44z" />
    <glyph glyph-name="uni0145" unicode="&#x145;" horiz-adv-x="1429" 
d="M229 0q-40 0 -69 29.5t-29 70.5v1239q0 32 18.5 58.5t49.5 36.5q31 11 61.5 2t50.5 -35l787 -1010v948q0 42 28.5 71.5t69.5 29.5q42 0 71 -29.5t29 -71.5v-1239q0 -33 -18.5 -59t-48.5 -35q-15 -6 -33 -6q-49 0 -80 39l-784 1010v-949q0 -41 -30 -70.5t-73 -29.5z
M584 -244l53 146q13 40 50.5 44t62.5 -23.5t8 -65.5l-86 -140q-16 -26 -41.5 -26.5t-41 20t-5.5 45.5z" />
    <glyph glyph-name="uni0146" unicode="&#x146;" 
d="M180 0q-40 0 -70 29.5t-30 70.5v445q0 177 126 302.5t304 125.5q177 0 302.5 -125.5t125.5 -302.5v-445q0 -41 -29.5 -70.5t-70.5 -29.5t-71 29.5t-30 70.5v445q0 94 -66.5 160.5t-160.5 66.5t-161.5 -66.5t-67.5 -160.5v-445q0 -42 -29.5 -71t-71.5 -29zM377 -244
l53 146q13 40 50.5 44t62.5 -23.5t8 -65.5l-86 -140q-16 -26 -41.5 -26.5t-41 20t-5.5 45.5z" />
    <glyph glyph-name="Ncaron" unicode="&#x147;" horiz-adv-x="1429" 
d="M229 0q-40 0 -69 29.5t-29 70.5v1239q0 32 18.5 58.5t49.5 36.5q31 11 61.5 2t50.5 -35l787 -1010v948q0 42 28.5 71.5t69.5 29.5q42 0 71 -29.5t29 -71.5v-1239q0 -33 -18.5 -59t-48.5 -35q-15 -6 -33 -6q-49 0 -80 39l-784 1010v-949q0 -41 -30 -70.5t-73 -29.5z
M494 1671q-15 19 -14 42t18 40q14 14 39 14q27 0 45 -18l129 -150l137 150q17 17 39 18t41 -14q19 -17 20 -40t-16 -42l-176 -194q-15 -21 -45 -21q-26 0 -41 21z" />
    <glyph glyph-name="ncaron" unicode="&#x148;" 
d="M180 0q-40 0 -70 29.5t-30 70.5v445q0 177 126 302.5t304 125.5q177 0 302.5 -125.5t125.5 -302.5v-445q0 -41 -29.5 -70.5t-70.5 -29.5t-71 29.5t-30 70.5v445q0 94 -66.5 160.5t-160.5 66.5t-161.5 -66.5t-67.5 -160.5v-445q0 -42 -29.5 -71t-71.5 -29zM291 1243
q-15 19 -14 42t18 40q14 14 39 14q27 0 45 -18l129 -150l137 150q17 17 39 18t41 -14q19 -17 20 -40t-16 -42l-176 -194q-15 -21 -45 -21q-26 0 -41 21z" />
    <glyph glyph-name="Eng" unicode="&#x14a;" horiz-adv-x="1470" 
d="M250 0q-40 0 -69 29.5t-29 70.5v1239q0 32 18 58.5t49 36.5q31 11 62 2t51 -35l786 -1010v948q0 41 29 71t70 30q42 0 71 -29.5t29 -71.5v-1257q0 -136 -51 -243t-160 -172.5t-262 -65.5q-52 0 -83.5 28.5t-31.5 71.5q0 42 29 71t71 29h29q117 0 186.5 66.5t73.5 195.5
l-766 986v-949q0 -41 -29.5 -70.5t-72.5 -29.5z" />
    <glyph glyph-name="eng" unicode="&#x14b;" horiz-adv-x="1040" 
d="M190 0q-40 0 -70 29.5t-30 70.5v445q0 177 126 302.5t304 125.5q177 0 302.5 -125.5t125.5 -302.5v-469q0 -138 -51.5 -246t-162 -174t-267.5 -66q-53 0 -85 29t-32 72q0 41 30 71.5t73 30.5h30q123 0 194 72t71 211v469q0 94 -67 160.5t-161 66.5t-161.5 -66.5
t-67.5 -160.5v-445q0 -42 -29.5 -71t-71.5 -29z" />
    <glyph glyph-name="Omacron" unicode="&#x14c;" horiz-adv-x="1609" 
d="M807 -16q-200 0 -370 98.5t-268.5 267.5t-98.5 367q0 150 58 286.5t157 234.5t235.5 156t286.5 58q198 0 366 -98t266.5 -267.5t98.5 -369.5q0 -198 -98.5 -367t-267 -267.5t-365.5 -98.5zM272 717q0 -107 42.5 -205.5t114 -170.5t170.5 -114.5t208 -42.5q107 0 205 42.5
t169.5 114.5t113.5 170.5t42 205.5q0 145 -71.5 268t-193.5 194.5t-265 71.5q-145 0 -268.5 -71.5t-195 -194.5t-71.5 -268zM655 1571q-37 0 -52 28.5t0 57.5t52 29h306q36 0 51 -29t0.5 -57.5t-51.5 -28.5h-306z" />
    <glyph glyph-name="omacron" unicode="&#x14d;" horiz-adv-x="1095" 
d="M549 -6q-133 0 -245.5 65t-177.5 177t-65 245q0 98 38.5 188t104 155t156 104t189.5 39q131 0 242.5 -65.5t177 -177.5t65.5 -243q0 -133 -65.5 -245t-177 -177t-242.5 -65zM260 481q0 -120 84.5 -204t204.5 -84q119 0 203 84t84 204q0 119 -84 203t-203 84
q-120 0 -204.5 -84t-84.5 -203zM391 1104q-37 0 -52 29t0 57.5t52 28.5h305q36 0 51 -28.5t0.5 -57.5t-51.5 -29h-305z" />
    <glyph glyph-name="Ohungarumlaut" unicode="&#x150;" horiz-adv-x="1609" 
d="M807 -16q-200 0 -370 98.5t-268.5 267.5t-98.5 367q0 150 58 286.5t157 234.5t235.5 156t286.5 58q198 0 366 -98t266.5 -267.5t98.5 -369.5q0 -198 -98.5 -367t-267 -267.5t-365.5 -98.5zM272 717q0 -107 42.5 -205.5t114 -170.5t170.5 -114.5t208 -42.5q107 0 205 42.5
t169.5 114.5t113.5 170.5t42 205.5q0 145 -71.5 268t-193.5 194.5t-265 71.5q-145 0 -268.5 -71.5t-195 -194.5t-71.5 -268zM666 1614l47 137q15 40 52 43.5t60.5 -25t5.5 -65.5l-79 -129q-13 -22 -37.5 -22.5t-41 18t-7.5 43.5zM856 1612l47 135q15 40 52 44t60.5 -24.5
t6.5 -66.5l-80 -127q-13 -23 -37.5 -24t-41 18t-7.5 45z" />
    <glyph glyph-name="ohungarumlaut" unicode="&#x151;" horiz-adv-x="1095" 
d="M549 -6q-133 0 -245.5 65t-177.5 177t-65 245q0 98 38.5 188t104 155t156 104t189.5 39q131 0 242.5 -65.5t177 -177.5t65.5 -243q0 -133 -65.5 -245t-177 -177t-242.5 -65zM260 481q0 -120 84.5 -204t204.5 -84q119 0 203 84t84 204q0 119 -84 203t-203 84
q-120 0 -204.5 -84t-84.5 -203zM401 1147l48 137q15 40 52 43.5t60.5 -25t5.5 -65.5l-80 -129q-13 -22 -37.5 -22.5t-41 18t-7.5 43.5zM592 1145l47 135q15 40 52 44t60.5 -24.5t6.5 -66.5l-80 -127q-13 -23 -37.5 -24t-41 18t-7.5 45z" />
    <glyph glyph-name="OE" unicode="&#x152;" horiz-adv-x="2377" 
d="M807 -16q-200 0 -370 98.5t-268.5 267.5t-98.5 367q0 150 58 286.5t157 234.5t235.5 156t286.5 58q154 0 291 -60.5t239 -168.5v112q0 40 29.5 69.5t69.5 29.5h780q41 0 70.5 -29.5t29.5 -69.5q0 -41 -29.5 -70.5t-70.5 -29.5h-680v-420h571q42 0 71.5 -28.5t29.5 -69.5
t-30 -70t-71 -29h-571v-419h680q41 0 70.5 -30t29.5 -71q0 -40 -29.5 -69t-70.5 -29h-780q-40 0 -69.5 29t-29.5 69v115q-102 -108 -239 -168.5t-291 -60.5zM272 717q0 -107 42.5 -205.5t114 -170.5t170.5 -114.5t208 -42.5q107 0 205 42.5t169.5 114.5t113.5 170.5
t42 205.5q0 145 -71.5 268t-193.5 194.5t-265 71.5q-145 0 -268.5 -71.5t-195 -194.5t-71.5 -268z" />
    <glyph glyph-name="oe" unicode="&#x153;" horiz-adv-x="1849" 
d="M549 -6q-133 0 -245.5 65t-177.5 177t-65 245q0 98 38.5 188t104 155t156 104t189.5 39q114 0 215 -51.5t170 -139.5q67 91 168 143t219 52q196 0 331.5 -132.5t135.5 -324.5q0 -38 -25 -65.5t-61 -32.5h-10l-650 -2q23 -91 97 -150.5t172 -68.5q167 -19 299 81
q36 14 74 1.5t51 -48.5q15 -36 -1 -70t-53 -55q-141 -128 -399 -102q-216 21 -346 186q-67 -91 -168.5 -142.5t-218.5 -51.5zM260 481q0 -120 84.5 -204t204.5 -84q119 0 203 84t84 204q0 119 -84 203t-203 84q-120 0 -204.5 -84t-84.5 -203zM1040 557h549
q-15 102 -89 166.5t-179 64.5q-104 0 -182 -62.5t-99 -168.5z" />
    <glyph glyph-name="Racute" unicode="&#x154;" horiz-adv-x="1335" 
d="M221 0q-40 0 -69 29t-29 69v1237q0 40 29 69.5t69 29.5h557q130 0 240.5 -64.5t174.5 -175t64 -240.5q0 -156 -93.5 -277.5t-235.5 -160.5l305 -350q27 -33 24.5 -73t-32.5 -68q-31 -25 -66 -25q-51 0 -76 35l-385 440h-376v-377q0 -40 -30 -69t-71 -29zM322 674h456
q116 0 198.5 81.5t82.5 198.5t-82.5 199t-198.5 82h-456v-561zM598 1597l53 148q14 40 51.5 44t62 -24t7.5 -67l-86 -137q-16 -26 -42 -27t-41.5 19t-4.5 44z" />
    <glyph glyph-name="racute" unicode="&#x155;" horiz-adv-x="968" 
d="M190 0q-40 0 -70 29t-30 69v451q0 177 125.5 301.5t302.5 124.5q137 0 248.5 -79.5t155.5 -209.5q13 -38 -5.5 -75.5t-56.5 -51.5q-40 -12 -78 6.5t-51 57.5q-23 69 -82 111t-131 42q-94 0 -160.5 -66.5t-66.5 -160.5v-451q0 -40 -30 -69t-71 -29zM477 1128l53 148
q14 40 51.5 44t62 -24t7.5 -67l-86 -137q-16 -26 -42 -27t-41.5 19t-4.5 44z" />
    <glyph glyph-name="uni0156" unicode="&#x156;" horiz-adv-x="1335" 
d="M221 0q-40 0 -69 29t-29 69v1237q0 40 29 69.5t69 29.5h557q130 0 240.5 -64.5t174.5 -175t64 -240.5q0 -156 -93.5 -277.5t-235.5 -160.5l305 -350q27 -33 24.5 -73t-32.5 -68q-31 -25 -66 -25q-51 0 -76 35l-385 440h-376v-377q0 -40 -30 -69t-71 -29zM322 674h456
q116 0 198.5 81.5t82.5 198.5t-82.5 199t-198.5 82h-456v-561zM504 -244l53 146q13 40 50.5 44t62.5 -23.5t8 -65.5l-86 -140q-16 -26 -41.5 -26.5t-41 20t-5.5 45.5z" />
    <glyph glyph-name="uni0157" unicode="&#x157;" horiz-adv-x="968" 
d="M190 0q-40 0 -70 29t-30 69v451q0 177 125.5 301.5t302.5 124.5q137 0 248.5 -79.5t155.5 -209.5q13 -38 -5.5 -75.5t-56.5 -51.5q-40 -12 -78 6.5t-51 57.5q-23 69 -82 111t-131 42q-94 0 -160.5 -66.5t-66.5 -160.5v-451q0 -40 -30 -69t-71 -29zM63 -242l54 146
q13 40 50.5 44t62.5 -23.5t8 -65.5l-86 -140q-16 -26 -41.5 -26.5t-41.5 20t-6 45.5z" />
    <glyph glyph-name="Rcaron" unicode="&#x158;" horiz-adv-x="1335" 
d="M221 0q-40 0 -69 29t-29 69v1237q0 40 29 69.5t69 29.5h557q130 0 240.5 -64.5t174.5 -175t64 -240.5q0 -156 -93.5 -277.5t-235.5 -160.5l305 -350q27 -33 24.5 -73t-32.5 -68q-31 -25 -66 -25q-51 0 -76 35l-385 440h-376v-377q0 -40 -30 -69t-71 -29zM322 674h456
q116 0 198.5 81.5t82.5 198.5t-82.5 199t-198.5 82h-456v-561zM420 1714q-15 19 -14 42t18 40q14 14 39 14q27 0 45 -18l129 -150l137 150q17 17 39 18t41 -14q19 -17 20 -40t-16 -42l-176 -194q-15 -21 -45 -21q-26 0 -41 21z" />
    <glyph glyph-name="rcaron" unicode="&#x159;" horiz-adv-x="968" 
d="M190 0q-40 0 -70 29t-30 69v451q0 177 125.5 301.5t302.5 124.5q137 0 248.5 -79.5t155.5 -209.5q13 -38 -5.5 -75.5t-56.5 -51.5q-40 -12 -78 6.5t-51 57.5q-23 69 -82 111t-131 42q-94 0 -160.5 -66.5t-66.5 -160.5v-451q0 -40 -30 -69t-71 -29zM301 1245
q-15 19 -14 42t18 40q14 14 39 14q27 0 45 -18l129 -149l137 149q17 17 39 18t41 -14q19 -17 20 -40t-16 -42l-176 -194q-15 -21 -45 -21q-26 0 -41 21z" />
    <glyph glyph-name="Sacute" unicode="&#x15a;" horiz-adv-x="1212" 
d="M618 -8q-91 0 -171 18.5t-142 52t-103.5 65t-82.5 71.5q-33 23 -40 63t17 72q25 33 64.5 39.5t72.5 -17.5q33 -34 65 -59.5t79.5 -53t109 -42.5t131.5 -15q151 0 233.5 63.5t88.5 158.5q9 185 -332 235q-319 49 -436 213q-82 111 -55 258q28 153 166.5 244.5t343.5 87.5
q230 -9 387 -180q34 -25 39 -65.5t-21 -74.5q-27 -31 -65.5 -35.5t-69.5 21.5q-56 58 -122 94.5t-159 40.5q-132 6 -213.5 -46.5t-91.5 -121.5q-13 -69 28.5 -119t115.5 -77.5t182 -42.5q94 -14 170.5 -39t128 -55t90.5 -68t60 -74t33.5 -76t15 -71.5t0.5 -63.5
q-4 -76 -37 -145.5t-94 -127.5t-161 -93t-225 -35zM573 1595l54 148q14 40 51.5 44t62 -24t7.5 -67l-86 -137q-16 -26 -42.5 -27t-42 19t-4.5 44z" />
    <glyph glyph-name="sacute" unicode="&#x15b;" horiz-adv-x="897" 
d="M469 -6q-160 -2 -348 94q-36 15 -51.5 52.5t-1.5 74.5q15 38 52.5 53t74.5 0q54 -34 115.5 -53t114.5 -21.5t97 6.5t69.5 31t26.5 52q0 37 -47 67.5t-127 48.5q-107 27 -181 66.5t-109 84t-48 85.5t-10 84q5 74 56 133t134 90.5t179 28.5q144 0 276 -76q37 -17 52 -55.5
t-2 -73.5q-18 -37 -55 -52t-74 3q-60 37 -124.5 51t-112.5 7t-80 -27.5t-34 -47.5q-2 -12 5 -26t24 -31.5t54 -34t89 -28.5q353 -90 353 -297q0 -53 -22 -102.5t-65.5 -91t-115.5 -67.5t-164 -28zM420 1135l53 147q14 40 51.5 44t62 -24t7.5 -67l-86 -137q-16 -26 -42 -26.5
t-41.5 19.5t-4.5 44z" />
    <glyph glyph-name="Scedilla" unicode="&#x15e;" horiz-adv-x="1212" 
d="M500 -459q-24 4 -37 24t-8 44q6 25 26 37t45 6q121 -25 181 20q29 20 36 47.5t-12 47.5q-21 24 -67 24q-54 0 -99 -22q-36 -14 -64.5 12.5t-11.5 62.5l68 150q-246 18 -438 205q-33 23 -40 63t17 72q25 33 64.5 39.5t72.5 -17.5q33 -34 65 -59.5t79.5 -53t109 -42.5
t131.5 -15q151 0 233.5 63.5t88.5 158.5q9 185 -332 235q-319 49 -436 213q-82 111 -55 258q28 153 166.5 244.5t343.5 87.5q230 -9 387 -180q34 -25 39 -65.5t-21 -74.5q-27 -31 -65.5 -35.5t-69.5 21.5q-56 58 -122 94.5t-159 40.5q-132 6 -213.5 -46.5t-91.5 -121.5
q-13 -69 28.5 -119t115.5 -77.5t182 -42.5q94 -14 170.5 -39t128 -55t90.5 -68t60 -74t33.5 -76t15 -71.5t0.5 -63.5q-4 -71 -33 -136.5t-83 -122t-141.5 -94.5t-197.5 -46q0 -5 -4 -17l-35 -73q49 5 98.5 -11.5t77.5 -50.5q48 -53 41 -131q-9 -84 -84 -133
q-116 -78 -274 -37z" />
    <glyph glyph-name="scedilla" unicode="&#x15f;" horiz-adv-x="897" 
d="M348 -446q-24 4 -37 23.5t-8 43.5q6 25 26.5 37t45.5 6q119 -25 180 21q29 20 36.5 47t-11.5 47q-21 24 -68 24q-53 0 -98 -22q-36 -14 -64.5 13t-11.5 63l63 141q-135 14 -280 90q-36 15 -51.5 52.5t-1.5 74.5q15 38 52.5 53t74.5 0q54 -34 115.5 -53t114.5 -21.5
t97 6.5t69.5 31t26.5 52q0 37 -47 67.5t-127 48.5q-107 27 -181 66.5t-109 84t-48 85.5t-10 84q5 74 56 133t134 90.5t179 28.5q144 0 276 -76q37 -17 52 -55.5t-2 -73.5q-18 -37 -55 -52t-74 3q-60 37 -124.5 51t-112.5 7t-80 -27.5t-34 -47.5q-2 -12 5 -26t24 -31.5
t54 -34t89 -28.5q353 -90 353 -297q0 -103 -79.5 -185t-228.5 -100q-1 -1 -2 -4t-2 -4l-35 -74q50 5 99.5 -11t77.5 -50q48 -53 41 -131q-10 -85 -84 -134q-115 -78 -275 -36z" />
    <glyph glyph-name="Scaron" unicode="&#x160;" horiz-adv-x="1212" 
d="M618 -8q-91 0 -171 18.5t-142 52t-103.5 65t-82.5 71.5q-33 23 -40 63t17 72q25 33 64.5 39.5t72.5 -17.5q33 -34 65 -59.5t79.5 -53t109 -42.5t131.5 -15q151 0 233.5 63.5t88.5 158.5q9 185 -332 235q-319 49 -436 213q-82 111 -55 258q28 153 166.5 244.5t343.5 87.5
q230 -9 387 -180q34 -25 39 -65.5t-21 -74.5q-27 -31 -65.5 -35.5t-69.5 21.5q-56 58 -122 94.5t-159 40.5q-132 6 -213.5 -46.5t-91.5 -121.5q-13 -69 28.5 -119t115.5 -77.5t182 -42.5q94 -14 170.5 -39t128 -55t90.5 -68t60 -74t33.5 -76t15 -71.5t0.5 -63.5
q-4 -76 -37 -145.5t-94 -127.5t-161 -93t-225 -35zM395 1712q-15 19 -14 42t18 40q14 14 39 14q27 0 45 -18l129 -150l138 150q37 37 79 4q19 -17 20.5 -40t-15.5 -42l-177 -194q-15 -21 -45 -21q-26 0 -41 21z" />
    <glyph glyph-name="scaron" unicode="&#x161;" horiz-adv-x="897" 
d="M469 -6q-160 -2 -348 94q-36 15 -51.5 52.5t-1.5 74.5q15 38 52.5 53t74.5 0q54 -34 115.5 -53t114.5 -21.5t97 6.5t69.5 31t26.5 52q0 37 -47 67.5t-127 48.5q-107 27 -181 66.5t-109 84t-48 85.5t-10 84q5 74 56 133t134 90.5t179 28.5q144 0 276 -76q37 -17 52 -55.5
t-2 -73.5q-18 -37 -55 -52t-74 3q-60 37 -124.5 51t-112.5 7t-80 -27.5t-34 -47.5q-2 -12 5 -26t24 -31.5t54 -34t89 -28.5q353 -90 353 -297q0 -53 -22 -102.5t-65.5 -91t-115.5 -67.5t-164 -28zM242 1251q-15 19 -14 42t18 40q15 15 39 15q26 0 45 -19l129 -149l137 149
q17 17 39 18t41 -14q19 -17 20 -40t-16 -42l-176 -194q-15 -21 -45 -21q-26 0 -41 21z" />
    <glyph glyph-name="uni0162" unicode="&#x162;" horiz-adv-x="1236" 
d="M1063 1434q40 0 69 -29.5t29 -69.5q0 -41 -29 -70.5t-69 -29.5h-346v-1137q0 -49 -37 -78q0 -12 -6 -24l-35 -74q50 5 99 -11t77 -50q48 -53 41 -131q-9 -84 -84 -133q-116 -78 -274 -37q-24 4 -37 23.5t-8 43.5q6 25 26 37t45 6q120 -25 181 21q29 20 36 47t-12 47
q-21 25 -67 25q-52 0 -99 -23q-36 -14 -64.5 13t-11.5 63l72 157q-41 26 -41 78v1137h-342q-41 0 -70.5 29.5t-29.5 70.5q0 40 29.5 69.5t70.5 29.5h887z" />
    <glyph glyph-name="uni0163" unicode="&#x163;" horiz-adv-x="731" 
d="M190 1434q41 0 71 -29.5t30 -69.5v-368h248q38 0 65 -27.5t27 -65.5q0 -40 -27 -67t-65 -27h-248v-288q0 -129 69.5 -210t192.5 -81l29 -2q41 0 70.5 -29t29.5 -70q0 -29 -16 -55q0 -1 -1 -2t-1 -2l-35 -74q50 5 99 -11t77 -50q48 -53 41 -131q-9 -84 -84 -133
q-116 -79 -275 -37q-24 4 -37 23.5t-8 43.5q6 25 26.5 37t45.5 6q119 -25 180 21q29 20 36.5 47t-11.5 47q-21 25 -68 25q-51 0 -98 -23q-36 -14 -64.5 13t-11.5 63l43 94q-65 4 -126 23.5t-116.5 59.5t-97 95t-66 135.5t-24.5 176.5v843q0 40 29.5 69.5t70.5 29.5z" />
    <glyph glyph-name="Tcaron" unicode="&#x164;" horiz-adv-x="1236" 
d="M1063 1434q40 0 69 -29.5t29 -69.5q0 -41 -29 -70.5t-69 -29.5h-346v-1137q0 -40 -29 -69t-70 -29t-70.5 29t-29.5 69v1137h-342q-41 0 -70.5 29.5t-29.5 70.5q0 40 29.5 69.5t70.5 29.5h887zM399 1714q-15 19 -14 42t18 40q14 14 39 14q27 0 45 -18l129 -150l138 150
q17 17 39 18t41 -14q19 -17 20 -40t-16 -42l-176 -194q-15 -21 -46 -21q-26 0 -41 21z" />
    <glyph glyph-name="tcaron" unicode="&#x165;" horiz-adv-x="731" 
d="M190 1434q41 0 71 -29.5t30 -69.5v-368h248q38 0 65 -27.5t27 -65.5q0 -40 -27 -67t-65 -27h-248v-288q0 -129 69.5 -210t192.5 -81l29 -2q41 0 70.5 -29t29.5 -70t-29.5 -70.5t-70.5 -29.5h-29q-68 0 -132.5 17.5t-125 56t-106 94.5t-72.5 139.5t-27 184.5v843
q0 40 29.5 69.5t70.5 29.5zM-29 1698q-15 19 -14 42t18 40q14 14 39 14q27 0 45 -18l129 -150l138 150q17 17 39 18t41 -14q19 -17 20 -40t-16 -42l-177 -195q-14 -20 -45 -20q-27 0 -41 20z" />
    <glyph glyph-name="Tbar" unicode="&#x166;" horiz-adv-x="1249" 
d="M1069 1434q40 0 69 -29.5t29 -69.5q0 -41 -29 -70.5t-69 -29.5h-346v-385h207q41 0 70.5 -29.5t29.5 -70.5t-29.5 -71t-70.5 -30h-207v-551q0 -40 -29.5 -69t-70.5 -29q-40 0 -69.5 29t-29.5 69v551h-194q-41 0 -70 30t-29 71t29 70.5t70 29.5h194v385h-344
q-40 0 -69 29.5t-29 70.5q0 40 29 69.5t69 29.5h889z" />
    <glyph glyph-name="tbar" unicode="&#x167;" horiz-adv-x="974" 
d="M180 1434q42 0 71.5 -29.5t29.5 -69.5v-368h249q37 0 65 -27.5t28 -65.5q0 -39 -28 -66.5t-65 -27.5h-249v-147h268q28 0 47.5 -20t19.5 -48t-19.5 -47.5t-47.5 -19.5h-268v-6q0 -129 70.5 -210t193.5 -81l28 -2q41 0 70 -29t29 -70t-29 -70.5t-70 -29.5h-28
q-68 0 -132.5 17.5t-125 56t-106 94.5t-72.5 139.5t-27 184.5v843q0 40 29 69.5t69 29.5z" />
    <glyph glyph-name="Utilde" unicode="&#x168;" horiz-adv-x="1402" 
d="M702 -8q-159 0 -294 78t-213 212.5t-78 292.5v758q0 43 29.5 72t70.5 29t70.5 -29t29.5 -72v-758q0 -159 113 -272t272 -113t271 113t112 272v758q0 42 29.5 71.5t71.5 29.5t71 -29t29 -72v-758q0 -158 -78.5 -292.5t-213 -212.5t-292.5 -78zM461 1651q-6 23 6 44t35 25
q41 8 67 -34q18 -36 47 -27q19 8 48.5 30.5t58 38t57.5 15.5q55 0 95.5 -33t52.5 -86q9 -52 -37 -65q-51 -16 -76 36q-3 14 -17 22.5t-32 2.5q-20 -10 -51.5 -33.5t-57.5 -36t-53 -12.5q-49 0 -90 31.5t-53 81.5z" />
    <glyph glyph-name="utilde" unicode="&#x169;" 
d="M180 973q43 0 72 -29t29 -72v-444q0 -92 67.5 -158.5t161.5 -66.5t160.5 66.5t66.5 158.5v444q0 42 29.5 71.5t71.5 29.5t71 -29.5t29 -71.5v-444q0 -177 -125.5 -302.5t-302.5 -125.5q-178 0 -304 125.5t-126 302.5v444q0 42 30 71.5t70 29.5zM262 1184q-6 23 6 44
t35 25q42 8 68 -34q18 -36 47 -27q19 8 48.5 30.5t58 38t57.5 15.5q55 0 95 -33t52 -86q9 -52 -37 -65q-51 -16 -76 36q-3 14 -17 22.5t-32 2.5q-20 -10 -51.5 -33t-57 -36t-52.5 -13q-49 0 -90.5 31.5t-53.5 81.5z" />
    <glyph glyph-name="Umacron" unicode="&#x16a;" horiz-adv-x="1402" 
d="M702 -8q-159 0 -294 78t-213 212.5t-78 292.5v758q0 43 29.5 72t70.5 29t70.5 -29t29.5 -72v-758q0 -159 113 -272t272 -113t271 113t112 272v758q0 42 29.5 71.5t71.5 29.5t71 -29t29 -72v-758q0 -158 -78.5 -292.5t-213 -212.5t-292.5 -78zM557 1571q-37 0 -52 28.5
t0 57.5t52 29h305q36 0 51 -29t0.5 -57.5t-51.5 -28.5h-305z" />
    <glyph glyph-name="umacron" unicode="&#x16b;" 
d="M180 973q43 0 72 -29t29 -72v-444q0 -92 67.5 -158.5t161.5 -66.5t160.5 66.5t66.5 158.5v444q0 42 29.5 71.5t71.5 29.5t71 -29.5t29 -71.5v-444q0 -177 -125.5 -302.5t-302.5 -125.5q-178 0 -304 125.5t-126 302.5v444q0 42 30 71.5t70 29.5zM358 1104q-37 0 -52 29
t0 57.5t52 28.5h306q36 0 51 -28.5t0.5 -57.5t-51.5 -29h-306z" />
    <glyph glyph-name="Uring" unicode="&#x16e;" horiz-adv-x="1402" 
d="M702 -8q-159 0 -294 78t-213 212.5t-78 292.5v758q0 43 29.5 72t70.5 29t70.5 -29t29.5 -72v-758q0 -159 113 -272t272 -113t271 113t112 272v758q0 42 29.5 71.5t71.5 29.5t71 -29t29 -72v-758q0 -158 -78.5 -292.5t-213 -212.5t-292.5 -78zM535 1716q0 72 52 123
t124 51q73 0 124.5 -51t51.5 -123q0 -71 -51.5 -121.5t-124.5 -50.5q-72 0 -124 51t-52 121zM649 1716q0 -23 18 -40t44 -17q25 0 42 17t17 40q0 25 -17 42.5t-42 17.5q-26 0 -44 -17.5t-18 -42.5z" />
    <glyph glyph-name="uring" unicode="&#x16f;" 
d="M180 973q43 0 72 -29t29 -72v-444q0 -92 67.5 -158.5t161.5 -66.5t160.5 66.5t66.5 158.5v444q0 42 29.5 71.5t71.5 29.5t71 -29.5t29 -71.5v-444q0 -177 -125.5 -302.5t-302.5 -125.5q-178 0 -304 125.5t-126 302.5v444q0 42 30 71.5t70 29.5zM334 1249q0 72 52 123
t124 51q73 0 124.5 -51t51.5 -123q0 -71 -51.5 -121.5t-124.5 -50.5q-72 0 -124 51t-52 121zM449 1249q0 -24 17.5 -40.5t43.5 -16.5q25 0 42 17t17 40q0 25 -17 42.5t-42 17.5q-26 0 -43.5 -17.5t-17.5 -42.5z" />
    <glyph glyph-name="Uhungarumlaut" unicode="&#x170;" horiz-adv-x="1402" 
d="M702 -8q-159 0 -294 78t-213 212.5t-78 292.5v758q0 43 29.5 72t70.5 29t70.5 -29t29.5 -72v-758q0 -159 113 -272t272 -113t271 113t112 272v758q0 42 29.5 71.5t71.5 29.5t71 -29t29 -72v-758q0 -158 -78.5 -292.5t-213 -212.5t-292.5 -78zM569 1614l47 137
q15 40 52.5 43.5t61 -25t5.5 -65.5l-80 -129q-13 -22 -37.5 -22.5t-41 18t-7.5 43.5zM760 1612l47 135q15 40 52 44t60.5 -24.5t6.5 -66.5l-80 -127q-13 -23 -37.5 -24t-41 18t-7.5 45z" />
    <glyph glyph-name="uhungarumlaut" unicode="&#x171;" 
d="M180 973q43 0 72 -29t29 -72v-444q0 -92 67.5 -158.5t161.5 -66.5t160.5 66.5t66.5 158.5v444q0 42 29.5 71.5t71.5 29.5t71 -29.5t29 -71.5v-444q0 -177 -125.5 -302.5t-302.5 -125.5q-178 0 -304 125.5t-126 302.5v444q0 42 30 71.5t70 29.5zM369 1147l47 137
q15 40 52.5 43.5t61 -25t5.5 -65.5l-80 -129q-13 -22 -37.5 -22.5t-41 18t-7.5 43.5zM559 1145l47 135q15 40 52 44t60.5 -24.5t6.5 -66.5l-80 -127q-13 -23 -37.5 -24t-41 18t-7.5 45z" />
    <glyph glyph-name="Uogonek" unicode="&#x172;" horiz-adv-x="1402" 
d="M702 -8q-159 0 -294 78t-213 212.5t-78 292.5v758q0 43 29.5 72t70.5 29t70.5 -29t29.5 -72v-758q0 -159 113 -272t272 -113t271 113t112 272v758q0 42 29.5 71.5t71.5 29.5t71 -29t29 -72v-758q0 -211 -139 -376q-23 -43 -76 -113q-51 -65 -67.5 -101.5t-2.5 -74.5
q4 -17 23.5 -33t44.5 -24q69 -9 113 38q17 18 41 19t41 -14q17 -19 18 -43t-16 -41q-75 -78 -170 -78q-33 0 -54 6q-56 14 -97 50t-54 85q-25 77 4 150q-97 -33 -193 -33z" />
    <glyph glyph-name="uogonek" unicode="&#x173;" 
d="M180 973q43 0 72 -29t29 -72v-444q0 -92 67.5 -158.5t161.5 -66.5t160.5 66.5t66.5 158.5v444q0 42 29.5 71.5t71.5 29.5t71 -29.5t29 -71.5v-444q0 -155 -102 -278l-2 -3q-28 -51 -80 -118q-51 -65 -67.5 -101.5t-2.5 -74.5q5 -17 24 -34t44 -24q67 -9 112 39
q17 18 41 18.5t41 -14.5q17 -19 18 -43t-16 -41q-75 -78 -170 -78q-28 0 -53 7q-56 14 -97.5 50t-54.5 85q-32 95 25 190q-58 -8 -88 -8q-178 0 -304 125.5t-126 302.5v444q0 42 30 71.5t70 29.5z" />
    <glyph glyph-name="Wcircumflex" unicode="&#x174;" horiz-adv-x="1935" 
d="M1806 1436q40 -12 59 -49.5t5 -75.5l-461 -1243q-28 -65 -92 -68h-2q-31 0 -56.5 17t-37.5 46l-252 642l-254 -642q-10 -29 -35.5 -46t-56.5 -17h-2q-67 3 -95 68l-458 1243q-14 38 4.5 75.5t56.5 49.5q40 14 77 -4t50 -58l373 -985l248 625q13 38 50.5 54.5t76.5 2.5
q40 -17 57 -55v-2l246 -625l374 985q13 40 50 58t75 4zM752 1620l176 195q15 20 41 20t45 -20l176 -195q17 -19 16 -42t-20 -40q-19 -15 -41 -14t-39 18l-137 150l-129 -150q-18 -18 -42.5 -18.5t-41.5 14.5q-17 17 -18 40t14 42z" />
    <glyph glyph-name="wcircumflex" unicode="&#x175;" horiz-adv-x="1605" 
d="M467 0q-29 0 -54.5 16.5t-37.5 44.5l-322 773q-15 37 1.5 75.5t54.5 55.5q38 15 76 -1.5t55 -54.5l231 -551l238 553q17 38 56 53.5t77 0.5q14 -7 22 -15q19 -14 33 -41l229 -551l240 553q17 38 56 53.5t77 0.5q38 -17 53 -56.5t-2 -77.5l-331 -770q-12 -28 -37.5 -44.5
t-55.5 -16.5h-2q-31 0 -55.5 16.5t-36.5 44.5l-231 555l-240 -555q-12 -28 -37.5 -44.5t-54.5 -16.5h-2zM582 1153l176 195q15 20 41 20t45 -20l176 -195q17 -19 16 -42t-20 -40q-19 -15 -41 -14t-39 18l-137 150l-129 -150q-18 -18 -42.5 -18.5t-41.5 14.5q-17 17 -18 40
t14 42z" />
    <glyph glyph-name="Ycircumflex" unicode="&#x176;" horiz-adv-x="1251" 
d="M1155 1421q34 -23 43.5 -63t-12.5 -74l-459 -731l-2 -455q0 -40 -29.5 -69t-70.5 -29t-70 29t-29 69l2 455l-462 731q-22 34 -13.5 74t43.5 63q35 22 75 13t62 -43l394 -623l389 623q23 34 62.5 42.5t76.5 -12.5zM410 1620l176 195q15 20 41 20t45 -20l176 -195
q17 -19 16 -42t-20 -40q-19 -15 -41 -14t-39 18l-137 150l-129 -150q-18 -18 -42.5 -18.5t-41.5 14.5q-17 17 -18 40t14 42z" />
    <glyph glyph-name="ycircumflex" unicode="&#x177;" horiz-adv-x="999" 
d="M352 -367q-22 0 -43 9q-38 17 -52.5 56.5t3.5 76.5l137 309l-342 739q-19 38 -5 78t52 57q37 18 77 4t57 -51l270 -581l256 577q17 40 56 55t79 -4q37 -17 51.5 -56t-2.5 -79l-502 -1130q-28 -60 -92 -60zM283 1153l176 195q15 20 41 20t45 -20l176 -195q17 -19 16 -42
t-20 -40q-19 -15 -41 -14t-39 18l-137 150l-129 -150q-18 -18 -42.5 -18.5t-41.5 14.5q-17 17 -18 40t14 42z" />
    <glyph glyph-name="Ydieresis" unicode="&#x178;" horiz-adv-x="1251" 
d="M1155 1421q34 -23 43.5 -63t-12.5 -74l-459 -731l-2 -455q0 -40 -29.5 -69t-70.5 -29t-70 29t-29 69l2 455l-462 731q-22 34 -13.5 74t43.5 63q35 22 75 13t62 -43l394 -623l389 623q23 34 62.5 42.5t76.5 -12.5zM442 1587q0 30 21 51t51 21q29 0 50.5 -21.5t21.5 -50.5
q0 -31 -21.5 -52.5t-50.5 -21.5q-31 0 -51.5 21.5t-20.5 52.5zM672 1587q0 30 20.5 51t50.5 21q28 0 49 -21.5t21 -50.5q0 -30 -21 -52t-49 -22q-30 0 -50.5 21.5t-20.5 52.5z" />
    <glyph glyph-name="Zacute" unicode="&#x179;" horiz-adv-x="1413" 
d="M1210 199q41 0 71 -30t30 -71q0 -40 -30 -69t-71 -29h-1009q-28 0 -52 15t-36 40q-29 56 10 107l840 1075h-738q-41 0 -70.5 28.5t-29.5 69.5q0 43 29.5 72t70.5 29h940q28 0 52 -15.5t36 -40.5q27 -60 -10 -106l-840 -1075h807zM670 1597l53 148q14 40 51.5 44t62 -24
t7.5 -67l-86 -137q-16 -26 -42 -27t-41.5 19t-4.5 44z" />
    <glyph glyph-name="zacute" unicode="&#x17a;" horiz-adv-x="968" 
d="M170 0q-28 0 -53 15t-37 40q-12 26 -9 56t21 51l473 604h-379q-43 0 -72.5 29.5t-29.5 70.5q0 43 29.5 72t72.5 29h584q64 0 90 -56q26 -57 -10 -106l-473 -604h422q41 0 69.5 -29.5t28.5 -71.5q0 -41 -28.5 -70.5t-69.5 -29.5h-629zM442 1130l54 148q14 40 51 44
t61.5 -24t7.5 -67l-86 -137q-16 -26 -42 -27t-41.5 19t-4.5 44z" />
    <glyph glyph-name="Zdotaccent" unicode="&#x17b;" horiz-adv-x="1413" 
d="M1210 199q41 0 71 -30t30 -71q0 -40 -30 -69t-71 -29h-1009q-28 0 -52 15t-36 40q-29 56 10 107l840 1075h-738q-41 0 -70.5 28.5t-29.5 69.5q0 43 29.5 72t70.5 29h940q28 0 52 -15.5t36 -40.5q27 -60 -10 -106l-840 -1075h807zM643 1610q0 29 20.5 50t49.5 21t50 -21
t21 -50q0 -31 -21 -52.5t-50 -21.5t-49.5 21.5t-20.5 52.5z" />
    <glyph glyph-name="zdotaccent" unicode="&#x17c;" horiz-adv-x="968" 
d="M170 0q-28 0 -53 15t-37 40q-12 26 -9 56t21 51l473 604h-379q-43 0 -72.5 29.5t-29.5 70.5q0 43 29.5 72t72.5 29h584q64 0 90 -56q26 -57 -10 -106l-473 -604h422q41 0 69.5 -29.5t28.5 -71.5q0 -41 -28.5 -70.5t-69.5 -29.5h-629zM414 1143q0 29 20 50t49 21t50.5 -21
t21.5 -50q0 -31 -21.5 -52.5t-50.5 -21.5t-49 21.5t-20 52.5z" />
    <glyph glyph-name="Zcaron" unicode="&#x17d;" horiz-adv-x="1413" 
d="M1210 199q41 0 71 -30t30 -71q0 -40 -30 -69t-71 -29h-1009q-28 0 -52 15t-36 40q-29 56 10 107l840 1075h-738q-41 0 -70.5 28.5t-29.5 69.5q0 43 29.5 72t70.5 29h940q28 0 52 -15.5t36 -40.5q27 -60 -10 -106l-840 -1075h807zM492 1714q-15 19 -14 42t18 40
q14 14 39 14q27 0 45 -18l129 -150l137 150q17 17 39 18t41 -14q19 -17 20 -40t-16 -42l-176 -194q-15 -21 -45 -21q-26 0 -41 21z" />
    <glyph glyph-name="zcaron" unicode="&#x17e;" horiz-adv-x="968" 
d="M170 0q-28 0 -53 15t-37 40q-12 26 -9 56t21 51l473 604h-379q-43 0 -72.5 29.5t-29.5 70.5q0 43 29.5 72t72.5 29h584q64 0 90 -56q26 -57 -10 -106l-473 -604h422q41 0 69.5 -29.5t28.5 -71.5q0 -41 -28.5 -70.5t-69.5 -29.5h-629zM264 1247q-15 19 -14 42t18 40
q14 14 39 14q27 0 45 -18l129 -149l137 149q17 17 39 18t41 -14q19 -17 20 -40t-16 -42l-176 -194q-15 -21 -45 -21q-26 0 -41 21z" />
    <glyph glyph-name="uni01CD" unicode="&#x1cd;" horiz-adv-x="1400" 
d="M236 59q-12 -25 -31 -40t-40 -18t-43 1t-39 17.5t-29 31t-13 41.5t10 49l557 1235q17 39 54 54t74 0.5t55 -54.5l559 -1235q11 -25 10 -48.5t-13 -41t-29 -31.5t-39 -18t-42.5 -1.5t-39.5 18t-30 40.5l-125 281h-684zM449 539h501l-252 555zM479 1741q-15 19 -14 42
t18 40q14 14 39 14q27 0 45 -18l129 -150l138 150q37 37 79 4q19 -17 20.5 -40t-15.5 -42l-177 -195q-14 -20 -45 -20q-27 0 -41 20z" />
    <glyph glyph-name="uni01CE" unicode="&#x1ce;" horiz-adv-x="1114" 
d="M553 -6q-133 0 -245 65t-177 177t-65 245q0 131 65 243t177 177.5t245 65.5q131 0 242.5 -65.5t177 -177.5t65.5 -243v-8v-6v-373q0 -41 -26.5 -69.5t-63.5 -28.5q-40 0 -66 28t-26 70v37q-137 -137 -303 -137zM264 481q0 -120 85 -204t204 -84t203 84t84 204
q0 119 -84 203t-203 84t-204 -84.5t-85 -202.5zM334 1262q-15 19 -14 41.5t18 39.5q15 15 39 15q26 0 45 -19l129 -149l137 149q17 17 39 18t41 -14q19 -17 20 -39.5t-16 -41.5l-176 -195q-14 -20 -45 -20q-27 0 -41 20z" />
    <glyph glyph-name="uni01CF" unicode="&#x1cf;" horiz-adv-x="421" 
d="M211 -4q-41 0 -70.5 28.5t-29.5 69.5v1245q0 41 29.5 71t70.5 30t70.5 -30t29.5 -71v-1245q0 -41 -29.5 -69.5t-70.5 -28.5zM-6 1733q-15 19 -14 42t18 40q14 14 39 14q26 0 45 -19l129 -149l137 149q17 17 39 18.5t41 -13.5q19 -17 20 -40t-16 -42l-176 -195
q-14 -20 -45 -20q-27 0 -41 20z" />
    <glyph glyph-name="uni01D0" unicode="&#x1d0;" horiz-adv-x="382" 
d="M190 0q-41 0 -70.5 29.5t-29.5 70.5v770q0 41 29.5 71t70.5 30t71 -30t30 -71v-770q0 -41 -30 -70.5t-71 -29.5zM-29 1264q-15 19 -14 42t18 40q14 14 39 14q26 0 45 -19l129 -149l138 149q17 17 39 18.5t41 -13.5q19 -17 20 -40t-16 -42l-177 -195q-14 -20 -45 -20
q-27 0 -41 20z" />
    <glyph glyph-name="uni01D1" unicode="&#x1d1;" horiz-adv-x="1609" 
d="M807 -16q-200 0 -370 98.5t-268.5 267.5t-98.5 367q0 150 58 286.5t157 234.5t235.5 156t286.5 58q198 0 366 -98t266.5 -267.5t98.5 -369.5q0 -198 -98.5 -367t-267 -267.5t-365.5 -98.5zM272 717q0 -107 42.5 -205.5t114 -170.5t170.5 -114.5t208 -42.5q107 0 205 42.5
t169.5 114.5t113.5 170.5t42 205.5q0 145 -71.5 268t-193.5 194.5t-265 71.5q-145 0 -268.5 -71.5t-195 -194.5t-71.5 -268zM588 1733q-15 19 -14 42t18 40q14 14 39 14q26 0 45 -19l129 -149l137 149q17 17 39 18.5t41 -13.5q19 -17 20 -40t-16 -42l-176 -195
q-14 -20 -45 -20q-27 0 -41 20z" />
    <glyph glyph-name="uni01D2" unicode="&#x1d2;" horiz-adv-x="1095" 
d="M549 -6q-133 0 -245.5 65t-177.5 177t-65 245q0 98 38.5 188t104 155t156 104t189.5 39q131 0 242.5 -65.5t177 -177.5t65.5 -243q0 -133 -65.5 -245t-177 -177t-242.5 -65zM260 481q0 -120 84.5 -204t204.5 -84q119 0 203 84t84 204q0 119 -84 203t-203 84
q-120 0 -204.5 -84t-84.5 -203zM326 1266q-15 19 -14 42t18 40q14 14 39 14q26 0 45 -19l129 -149l137 149q17 17 39 18.5t41 -13.5q19 -17 20 -40t-16 -42l-176 -195q-14 -20 -45 -20q-27 0 -41 20z" />
    <glyph glyph-name="uni01D3" unicode="&#x1d3;" horiz-adv-x="1402" 
d="M702 -8q-159 0 -294 78t-213 212.5t-78 292.5v758q0 43 29.5 72t70.5 29t70.5 -29t29.5 -72v-758q0 -159 113 -272t272 -113t271 113t112 272v758q0 42 29.5 71.5t71.5 29.5t71 -29t29 -72v-758q0 -158 -78.5 -292.5t-213 -212.5t-292.5 -78zM492 1733q-15 19 -14 42
t18 40q14 14 39 14q26 0 45 -19l129 -149l137 149q17 17 39 18.5t41 -13.5q19 -17 20 -40t-16 -42l-176 -195q-14 -20 -45 -20q-27 0 -41 20z" />
    <glyph glyph-name="uni01D4" unicode="&#x1d4;" 
d="M180 973q43 0 72 -29t29 -72v-444q0 -92 67.5 -158.5t161.5 -66.5t160.5 66.5t66.5 158.5v444q0 42 29.5 71.5t71.5 29.5t71 -29.5t29 -71.5v-444q0 -177 -125.5 -302.5t-302.5 -125.5q-178 0 -304 125.5t-126 302.5v444q0 42 30 71.5t70 29.5zM293 1266q-15 19 -14 42
t18 40q14 14 39 14q26 0 45 -19l129 -149l137 149q17 17 39 18.5t41 -13.5q19 -17 20 -40t-16 -42l-176 -195q-14 -20 -45 -20q-27 0 -41 20z" />
    <glyph glyph-name="Gcaron" unicode="&#x1e6;" horiz-adv-x="1382" 
d="M811 -10q-197 0 -365 97.5t-266 264.5t-98 363q0 198 98 366t266 265.5t365 97.5q215 0 406 -123q34 -25 42.5 -66t-14.5 -75q-25 -34 -65 -42.5t-74 15.5q-134 88 -295 88q-143 0 -264.5 -70t-192.5 -191t-71 -265q0 -106 42 -203.5t112.5 -168.5t168.5 -113t205 -42
q141 0 268 78v348h-266q-41 0 -70.5 30t-29.5 71q0 43 29.5 72.5t70.5 29.5h367q41 0 70.5 -29.5t29.5 -72.5v-504q0 -53 -41 -80q-187 -141 -428 -141zM594 1743q-15 19 -14 42t18 40q14 14 39 14q27 0 45 -18l129 -150l137 150q17 17 39 18t41 -14q19 -17 20 -40t-16 -42
l-176 -195q-14 -20 -45 -20q-27 0 -41 20z" />
    <glyph glyph-name="gcaron" unicode="&#x1e7;" horiz-adv-x="1130" 
d="M553 -2q-132 0 -244 64.5t-177.5 175.5t-65.5 243q0 131 65.5 243t177.5 177.5t244 65.5t244 -65.5t177.5 -177.5t65.5 -243v-2v-2v-399q0 -192 -127.5 -329t-324.5 -159q-13 0 -38 -1t-36 -1q-154 0 -274 68q-36 15 -52 53.5t-2 75.5q17 39 55 54.5t76 -1.5
q109 -65 250 -47q118 11 195.5 89.5t77.5 197.5v8q-128 -88 -287 -88zM266 481q0 -120 84 -203t203 -83q120 0 203.5 83t83.5 203q0 119 -83.5 203t-203.5 84q-119 0 -203 -84t-84 -203zM334 1262q-15 19 -14 41.5t18 39.5q15 15 39 15q26 0 45 -19l129 -149l137 149
q17 17 39 18t41 -14q19 -17 20 -39.5t-16 -41.5l-176 -195q-14 -20 -45 -20q-27 0 -41 20z" />
    <glyph glyph-name="uni0218" unicode="&#x218;" horiz-adv-x="1212" 
d="M618 -8q-91 0 -171 18.5t-142 52t-103.5 65t-82.5 71.5q-33 23 -40 63t17 72q25 33 64.5 39.5t72.5 -17.5q33 -34 65 -59.5t79.5 -53t109 -42.5t131.5 -15q151 0 233.5 63.5t88.5 158.5q9 185 -332 235q-319 49 -436 213q-82 111 -55 258q28 153 166.5 244.5t343.5 87.5
q230 -9 387 -180q34 -25 39 -65.5t-21 -74.5q-27 -31 -65.5 -35.5t-69.5 21.5q-56 58 -122 94.5t-159 40.5q-132 6 -213.5 -46.5t-91.5 -121.5q-13 -69 28.5 -119t115.5 -77.5t182 -42.5q94 -14 170.5 -39t128 -55t90.5 -68t60 -74t33.5 -76t15 -71.5t0.5 -63.5
q-4 -76 -37 -145.5t-94 -127.5t-161 -93t-225 -35zM487 -248l54 146q13 40 50.5 44t62.5 -23.5t8 -65.5l-87 -140q-16 -26 -41.5 -26.5t-41 20t-5.5 45.5z" />
    <glyph glyph-name="uni0219" unicode="&#x219;" horiz-adv-x="897" 
d="M469 -6q-160 -2 -348 94q-36 15 -51.5 52.5t-1.5 74.5q15 38 52.5 53t74.5 0q54 -34 115.5 -53t114.5 -21.5t97 6.5t69.5 31t26.5 52q0 37 -47 67.5t-127 48.5q-107 27 -181 66.5t-109 84t-48 85.5t-10 84q5 74 56 133t134 90.5t179 28.5q144 0 276 -76q37 -17 52 -55.5
t-2 -73.5q-18 -37 -55 -52t-74 3q-60 37 -124.5 51t-112.5 7t-80 -27.5t-34 -47.5q-2 -12 5 -26t24 -31.5t54 -34t89 -28.5q353 -90 353 -297q0 -53 -22 -102.5t-65.5 -91t-115.5 -67.5t-164 -28zM336 -236l53 146q13 40 50.5 44t62.5 -23.5t8 -65.5l-86 -139
q-16 -26 -41.5 -26.5t-41 19.5t-5.5 45z" />
    <glyph glyph-name="uni021A" unicode="&#x21a;" horiz-adv-x="1236" 
d="M1063 1434q40 0 69 -29.5t29 -69.5q0 -41 -29 -70.5t-69 -29.5h-346v-1137q0 -40 -29 -69t-70 -29t-70.5 29t-29.5 69v1137h-342q-41 0 -70.5 29.5t-29.5 70.5q0 40 29.5 69.5t70.5 29.5h887zM485 -231l54 145q13 40 50.5 44t62 -23.5t7.5 -65.5l-86 -139
q-16 -26 -41.5 -26.5t-41 20t-5.5 45.5z" />
    <glyph glyph-name="uni021B" unicode="&#x21b;" horiz-adv-x="731" 
d="M190 1434q41 0 71 -29.5t30 -69.5v-368h248q38 0 65 -27.5t27 -65.5q0 -40 -27 -67t-65 -27h-248v-288q0 -129 69.5 -210t192.5 -81l29 -2q41 0 70.5 -29t29.5 -70q0 -35 -22 -62.5t-56 -35.5q29 -7 44 -31.5t1 -54.5l-86 -139q-16 -26 -41.5 -26.5t-41 20t-5.5 45.5
l53 145q9 29 33 39h-8q-68 0 -132.5 17.5t-125 56t-106 94.5t-72.5 139.5t-27 184.5v843q0 40 29.5 69.5t70.5 29.5z" />
    <glyph glyph-name="uni0228" unicode="&#x228;" horiz-adv-x="1181" 
d="M1012 199q41 0 70.5 -30t29.5 -71q0 -40 -29.5 -69t-70.5 -29h-181l-32 -68q50 5 99 -11t77 -50q48 -53 41 -131q-9 -84 -84 -133q-116 -79 -275 -37q-24 4 -37 24t-8 44q6 25 26.5 37t45.5 6q120 -25 180 20q29 20 36.5 47t-11.5 47q-21 25 -68 25q-51 0 -98 -23
q-36 -14 -64.5 13t-11.5 63l58 127h-474q-41 0 -70.5 29t-29.5 69v1237q0 40 29.5 69.5t70.5 29.5h781q41 0 70.5 -29.5t29.5 -69.5q0 -41 -29.5 -70.5t-70.5 -29.5h-682v-420h573q42 0 71.5 -28.5t29.5 -69.5t-30 -70t-71 -29h-573v-419h682z" />
    <glyph glyph-name="uni0229" unicode="&#x229;" horiz-adv-x="1083" 
d="M459 -428q-24 4 -37 24t-8 44q6 25 26 37t45 6q121 -25 181 20q29 20 36 47t-12 47q-21 25 -67 25q-52 0 -99 -23q-36 -14 -64 13t-11 63l57 127q-195 23 -317.5 160t-122.5 325q0 132 65 244t176 177t242 65q197 0 332 -133t135 -326q0 -35 -24 -61.5t-58 -32.5
q-4 -2 -14 -2l-650 -2q20 -93 92 -153.5t177 -72.5q174 -20 301 76q36 14 73.5 6t51.5 -41q14 -35 -2.5 -69.5t-53.5 -55.5q-106 -95 -278 -106l-31 -66q50 5 99 -11t77 -50q48 -53 41 -131q-9 -84 -84 -133q-116 -78 -274 -37zM268 557l547 2q-14 102 -87.5 165.5
t-178.5 63.5q-104 0 -182 -62.5t-99 -168.5z" />
    <glyph glyph-name="circumflex" unicode="&#x2c6;" horiz-adv-x="636" 
d="M537 1419q17 -19 15.5 -42t-20.5 -40q-42 -33 -79 4l-138 150l-129 -150q-18 -18 -42.5 -18.5t-41.5 14.5q-17 17 -18 40t14 42l176 195q15 20 41 20t45 -20z" />
    <glyph glyph-name="caron" unicode="&#x2c7;" horiz-adv-x="636" 
d="M360 1321q-15 -21 -45 -21q-26 0 -41 21l-176 195q-15 19 -14 41.5t18 39.5q15 15 39 15q26 0 45 -19l129 -149l138 149q37 37 79 4q19 -17 20.5 -39.5t-15.5 -41.5z" />
    <glyph glyph-name="breve" unicode="&#x2d8;" horiz-adv-x="636" 
d="M319 1343q-97 0 -166 66t-69 160q0 25 17 42t42 17q23 0 40.5 -17t17.5 -42q0 -46 33.5 -77.5t84.5 -31.5q48 0 83.5 32t35.5 77q0 25 16.5 42t41.5 17q23 0 40 -17t17 -42q0 -94 -68.5 -160t-165.5 -66z" />
    <glyph glyph-name="dotaccent" unicode="&#x2d9;" horiz-adv-x="288" 
d="M143 1407q-29 0 -49 21.5t-20 52.5q0 29 20 50t49 21t50.5 -21t21.5 -50q0 -31 -21.5 -52.5t-50.5 -21.5z" />
    <glyph glyph-name="ring" unicode="&#x2da;" horiz-adv-x="520" 
d="M260 1612q73 0 124.5 -50.5t51.5 -121.5q0 -72 -51.5 -123t-124.5 -51q-72 0 -124 51t-52 123q0 70 52 121t124 51zM199 1440q0 -25 17.5 -41.5t43.5 -16.5q25 0 42 16.5t17 41.5t-17 41t-42 16q-26 0 -43.5 -16t-17.5 -41z" />
    <glyph glyph-name="ogonek" unicode="&#x2db;" horiz-adv-x="589" 
d="M309 -455q-32 0 -53 6q-56 14 -97.5 50.5t-54.5 85.5q-11 33 -11 66.5t5.5 57t24.5 56.5t30 49t37 51q49 65 74 107q11 22 33.5 27.5t44.5 -7.5q21 -9 28 -32t-5 -46q-28 -51 -80 -118q-50 -65 -67 -102t-3 -75q4 -17 23.5 -33t44.5 -24q67 -9 112 39q17 18 41 18.5
t41 -14.5q17 -19 18 -43t-16 -41q-75 -78 -170 -78z" />
    <glyph glyph-name="tilde" unicode="&#x2dc;" horiz-adv-x="636" 
d="M406 1616q55 0 95 -33t52 -86q9 -52 -37 -65q-51 -16 -76 36q-3 14 -17 22.5t-32 2.5q-20 -10 -51.5 -33.5t-57.5 -36t-53 -12.5q-49 0 -90 31.5t-53 81.5q-6 23 6 44t35 25q42 8 68 -34q18 -36 47 -27q19 8 48.5 30.5t58 38t57.5 15.5z" />
    <glyph glyph-name="hungarumlaut" unicode="&#x2dd;" horiz-adv-x="532" 
d="M131 1634q15 40 52.5 43.5t61 -25t5.5 -65.5l-80 -129q-13 -22 -37.5 -22.5t-41 18t-7.5 43.5zM274 1495l48 135q15 40 51.5 44t60 -24.5t6.5 -66.5l-80 -127q-13 -23 -37.5 -24t-41 18t-7.5 45z" />
    <glyph glyph-name="gravecomb" unicode="&#x300;" horiz-adv-x="0" 
d="M92 1550q-18 39 6 67t61.5 24t51.5 -44l55 -147q10 -24 -6 -43t-41.5 -18.5t-40.5 24.5z" />
    <glyph glyph-name="acutecomb" unicode="&#x301;" horiz-adv-x="0" 
d="M141 1589q14 40 51.5 44t62 -24t7.5 -67l-86 -137q-16 -26 -42 -26.5t-41.5 19.5t-4.5 44z" />
    <glyph glyph-name="uni0302" unicode="&#x302;" horiz-adv-x="0" 
d="M537 1419q15 -15 16 -33.5t-9 -32.5t-24.5 -23t-33 -6t-33.5 19l-138 148l-129 -148q-15 -16 -34 -19t-34 5.5t-25.5 22t-9.5 32.5t15 35l176 197q15 19 42 19t44 -19z" />
    <glyph glyph-name="tildecomb" unicode="&#x303;" horiz-adv-x="0" 
d="M406 1616q55 0 95 -33t52 -86q9 -52 -37 -65q-51 -16 -76 36q-3 14 -17 22.5t-32 2.5q-20 -10 -51.5 -33.5t-57.5 -36t-53 -12.5q-49 0 -90 31.5t-53 81.5q-6 23 6 44t35 25q42 8 68 -34q18 -36 47 -27q19 8 48.5 30.5t58 38t57.5 15.5z" />
    <glyph glyph-name="uni0304" unicode="&#x304;" horiz-adv-x="0" 
d="M133 1473q-37 0 -52 28.5t0 57t52 28.5h346q36 0 51 -28.5t0.5 -57t-51.5 -28.5h-346z" />
    <glyph glyph-name="uni0306" unicode="&#x306;" horiz-adv-x="0" 
d="M319 1343q-97 0 -166 66t-69 160q0 25 17 42t42 17q23 0 40.5 -17t17.5 -42q0 -46 33.5 -77.5t84.5 -31.5q48 0 83.5 32t35.5 77q0 25 16.5 42t41.5 17q23 0 40 -17t17 -42q0 -94 -68.5 -160t-165.5 -66z" />
    <glyph glyph-name="uni0307" unicode="&#x307;" horiz-adv-x="0" 
d="M143 1407q-29 0 -49 21.5t-20 52.5q0 29 20 50t49 21t50.5 -21t21.5 -50q0 -31 -21.5 -52.5t-50.5 -21.5z" />
    <glyph glyph-name="uni0308" unicode="&#x308;" horiz-adv-x="0" 
d="M147 1389q-31 0 -51 21t-20 52q0 30 20.5 51t50.5 21q28 0 49 -21.5t21 -50.5q0 -30 -21 -51.5t-49 -21.5zM303 1462q0 30 21 51t51 21q29 0 50 -21.5t21 -50.5q0 -31 -21 -52t-50 -21q-31 0 -51.5 21t-20.5 52z" />
    <glyph glyph-name="uni030A" unicode="&#x30a;" horiz-adv-x="0" 
d="M260 1608q73 0 124.5 -51t51.5 -123q0 -71 -51.5 -121.5t-124.5 -50.5q-72 0 -124 51t-52 121q0 72 52 123t124 51zM199 1434q0 -24 17.5 -41t43.5 -17q24 0 41.5 17t17.5 41q0 25 -17 42t-42 17q-26 0 -43.5 -17t-17.5 -42z" />
    <glyph glyph-name="uni030B" unicode="&#x30b;" horiz-adv-x="0" 
d="M133 1634q15 40 52.5 43.5t61.5 -25t7 -65.5l-82 -129q-13 -22 -37 -22.5t-40.5 18t-8.5 43.5zM276 1495l48 135q15 40 52 44t61 -24.5t7 -66.5l-82 -127q-13 -23 -37 -24t-40.5 18t-8.5 45z" />
    <glyph glyph-name="uni030C" unicode="&#x30c;" horiz-adv-x="0" 
d="M360 1305q-15 -21 -45 -21q-26 0 -41 21l-176 194q-15 19 -14 42t18 40q14 14 39 14q27 0 45 -18l129 -150l138 150q37 37 79 4q19 -17 20.5 -40t-15.5 -42z" />
    <glyph glyph-name="uni0312" unicode="&#x312;" horiz-adv-x="0" 
d="M211 1421q-14 -40 -51.5 -44t-61.5 24t-6 67l86 138q15 27 40.5 28t41.5 -19.5t6 -45.5z" />
    <glyph glyph-name="uni0326" unicode="&#x326;" horiz-adv-x="0" 
d="M176 -283q-16 -26 -41.5 -26.5t-41 20t-5.5 45.5l53 146q13 40 50.5 44t62.5 -23.5t8 -65.5z" />
    <glyph glyph-name="uni0327" unicode="&#x327;" horiz-adv-x="0" 
d="M119 -440q-24 4 -37 23.5t-8 43.5q6 25 26 37t45 6q120 -25 181 21q29 20 36 47t-12 47q-21 25 -67 25q-52 0 -99 -23q-36 -14 -64 13t-11 63l81 180q10 25 32.5 33t43.5 -2q22 -11 30.5 -33t-1.5 -45l-35 -74q50 5 99 -11t77 -50q48 -53 41 -131q-9 -84 -84 -133
q-116 -78 -274 -37z" />
    <glyph glyph-name="uni0328" unicode="&#x328;" horiz-adv-x="0" 
d="M309 -455q-32 0 -53 6q-56 14 -97.5 50.5t-54.5 85.5q-11 33 -11 66.5t5.5 57t24.5 56.5t30 49t37 51q49 65 74 107q11 22 33.5 27.5t44.5 -7.5q21 -9 28 -32t-5 -46q-28 -51 -80 -118q-50 -65 -67 -102t-3 -75q4 -17 23.5 -33t44.5 -24q67 -9 112 39q17 18 41 18.5
t41 -14.5q17 -19 18 -43t-16 -41q-75 -78 -170 -78z" />
    <glyph glyph-name="uni1E3E" unicode="&#x1e3e;" horiz-adv-x="1705" 
d="M231 0q-41 0 -70.5 29t-29.5 69v1239q0 33 19.5 59.5t50.5 37.5q31 9 61.5 -0.5t50.5 -34.5l539 -737l541 737q20 25 50.5 34.5t61.5 0.5q31 -11 49.5 -37t18.5 -60v-1239q0 -40 -29.5 -69t-70.5 -29q-40 0 -69.5 29t-29.5 69v936l-440 -600q-33 -42 -83.5 -41t-78.5 41
l-440 600v-936q0 -40 -30 -69t-71 -29zM813 1513l53 148q14 40 51.5 44t62 -24t7.5 -67l-86 -137q-16 -26 -42 -27t-41.5 19t-4.5 44z" />
    <glyph glyph-name="uni1E3F" unicode="&#x1e3f;" horiz-adv-x="1568" 
d="M784 0q-42 0 -71 29t-29 71v473q0 83 -57.5 141t-139.5 58q-80 0 -137 -58t-57 -141v-473q0 -41 -30 -70.5t-73 -29.5q-41 0 -70.5 29.5t-29.5 70.5v473q0 165 116 281.5t281 116.5q177 0 297 -133q120 133 297 133q165 0 281.5 -116.5t116.5 -281.5v-473
q0 -41 -30 -70.5t-71 -29.5q-43 0 -72.5 29.5t-29.5 70.5v473q0 83 -57.5 141t-137.5 58q-82 0 -139 -58t-57 -141v-473q0 -41 -30 -70.5t-71 -29.5zM739 1128l54 148q14 40 51 44t61.5 -24t7.5 -67l-86 -137q-16 -26 -42 -27t-41.5 19t-4.5 44z" />
    <glyph glyph-name="Wgrave" unicode="&#x1e80;" horiz-adv-x="1935" 
d="M1806 1436q40 -12 59 -49.5t5 -75.5l-461 -1243q-28 -65 -92 -68h-2q-31 0 -56.5 17t-37.5 46l-252 642l-254 -642q-10 -29 -35.5 -46t-56.5 -17h-2q-67 3 -95 68l-458 1243q-14 38 4.5 75.5t56.5 49.5q40 14 77 -4t50 -58l373 -985l248 625q13 38 50.5 54.5t76.5 2.5
q40 -17 57 -55v-2l246 -625l374 985q13 40 50 58t75 4zM844 1686q-18 38 6 65.5t61.5 23.5t51.5 -44l49 -140q11 -24 -4.5 -43t-41.5 -18.5t-42 24.5z" />
    <glyph glyph-name="wgrave" unicode="&#x1e81;" horiz-adv-x="1605" 
d="M467 0q-29 0 -54.5 16.5t-37.5 44.5l-322 773q-15 37 1.5 75.5t54.5 55.5q38 15 76 -1.5t55 -54.5l231 -551l238 553q17 38 56 53.5t77 0.5q14 -7 22 -15q19 -14 33 -41l229 -551l240 553q17 38 56 53.5t77 0.5q38 -17 53 -56.5t-2 -77.5l-331 -770q-12 -28 -37.5 -44.5
t-55.5 -16.5h-2q-31 0 -55.5 16.5t-36.5 44.5l-231 555l-240 -555q-12 -28 -37.5 -44.5t-54.5 -16.5h-2zM672 1219q-18 38 6 65.5t61.5 23.5t51.5 -44l49 -140q11 -24 -4.5 -43t-41.5 -18.5t-42 24.5z" />
    <glyph glyph-name="Wacute" unicode="&#x1e82;" horiz-adv-x="1935" 
d="M1806 1436q40 -12 59 -49.5t5 -75.5l-461 -1243q-28 -65 -92 -68h-2q-31 0 -56.5 17t-37.5 46l-252 642l-254 -642q-10 -29 -35.5 -46t-56.5 -17h-2q-67 3 -95 68l-458 1243q-14 38 4.5 75.5t56.5 49.5q40 14 77 -4t50 -58l373 -985l248 625q13 38 50.5 54.5t76.5 2.5
q40 -17 57 -55v-2l246 -625l374 985q13 40 50 58t75 4zM928 1571l49 137q14 40 51 43.5t61 -25t7 -65.5l-82 -129q-12 -22 -36.5 -23.5t-41 17t-8.5 45.5z" />
    <glyph glyph-name="wacute" unicode="&#x1e83;" horiz-adv-x="1605" 
d="M467 0q-29 0 -54.5 16.5t-37.5 44.5l-322 773q-15 37 1.5 75.5t54.5 55.5q38 15 76 -1.5t55 -54.5l231 -551l238 553q17 38 56 53.5t77 0.5q14 -7 22 -15q19 -14 33 -41l229 -551l240 553q17 38 56 53.5t77 0.5q38 -17 53 -56.5t-2 -77.5l-331 -770q-12 -28 -37.5 -44.5
t-55.5 -16.5h-2q-31 0 -55.5 16.5t-36.5 44.5l-231 555l-240 -555q-12 -28 -37.5 -44.5t-54.5 -16.5h-2zM758 1104l49 137q14 40 51 43.5t61 -25t7 -65.5l-82 -129q-12 -22 -36.5 -23.5t-41 17t-8.5 45.5z" />
    <glyph glyph-name="Wdieresis" unicode="&#x1e84;" horiz-adv-x="1935" 
d="M1806 1436q40 -12 59 -49.5t5 -75.5l-461 -1243q-28 -65 -92 -68h-2q-31 0 -56.5 17t-37.5 46l-252 642l-254 -642q-10 -29 -35.5 -46t-56.5 -17h-2q-67 3 -95 68l-458 1243q-14 38 4.5 75.5t56.5 49.5q40 14 77 -4t50 -58l373 -985l248 625q13 38 50.5 54.5t76.5 2.5
q40 -17 57 -55v-2l246 -625l374 985q13 40 50 58t75 4zM784 1587q0 30 21 51t51 21q29 0 50.5 -21.5t21.5 -50.5q0 -31 -21.5 -52.5t-50.5 -21.5q-31 0 -51.5 21.5t-20.5 52.5zM1014 1587q0 30 20.5 51t50.5 21q28 0 49 -21.5t21 -50.5q0 -30 -21 -52t-49 -22
q-30 0 -50.5 21.5t-20.5 52.5z" />
    <glyph glyph-name="wdieresis" unicode="&#x1e85;" horiz-adv-x="1605" 
d="M467 0q-29 0 -54.5 16.5t-37.5 44.5l-322 773q-15 37 1.5 75.5t54.5 55.5q38 15 76 -1.5t55 -54.5l231 -551l238 553q17 38 56 53.5t77 0.5q14 -7 22 -15q19 -14 33 -41l229 -551l240 553q17 38 56 53.5t77 0.5q38 -17 53 -56.5t-2 -77.5l-331 -770q-12 -28 -37.5 -44.5
t-55.5 -16.5h-2q-31 0 -55.5 16.5t-36.5 44.5l-231 555l-240 -555q-12 -28 -37.5 -44.5t-54.5 -16.5h-2zM612 1120q0 30 21 51t51 21q29 0 50.5 -21.5t21.5 -50.5q0 -30 -21 -51.5t-51 -21.5q-31 0 -51.5 21t-20.5 52zM842 1120q0 30 20.5 51t50.5 21q28 0 49 -21.5
t21 -50.5q0 -30 -21 -51.5t-49 -21.5q-31 0 -51 21t-20 52z" />
    <glyph glyph-name="uni1EBC" unicode="&#x1ebc;" horiz-adv-x="1181" 
d="M1012 199q41 0 70.5 -30t29.5 -71q0 -40 -29.5 -69t-70.5 -29h-781q-41 0 -70.5 29t-29.5 69v1237q0 40 29.5 69.5t70.5 29.5h781q41 0 70.5 -29.5t29.5 -69.5q0 -41 -29.5 -70.5t-70.5 -29.5h-682v-420h573q42 0 71.5 -28.5t29.5 -69.5t-30 -70t-71 -29h-573v-419h682z
M373 1657q-6 23 6 44t35 25q41 8 67 -34q18 -36 47 -27q19 8 48.5 30.5t58 38t57.5 15.5q55 0 95.5 -33t52.5 -86q9 -52 -37 -65q-50 -16 -76 37q-3 14 -17 22t-32 2q-20 -10 -51.5 -33.5t-57.5 -36t-53 -12.5q-49 0 -90 31.5t-53 81.5z" />
    <glyph glyph-name="uni1EBD" unicode="&#x1ebd;" horiz-adv-x="1083" 
d="M510 2q-196 22 -320 159t-124 326q0 132 65 244t176 177t242 65q197 0 332 -133t135 -326q0 -35 -24 -61.5t-58 -32.5q-4 -2 -14 -2l-650 -2q20 -93 92 -153.5t177 -72.5q174 -20 301 76q36 14 73.5 6t51.5 -41q14 -35 -2.5 -69.5t-53.5 -55.5q-140 -127 -399 -104z
M268 557l547 2q-14 102 -87.5 165.5t-178.5 63.5q-104 0 -182 -62.5t-99 -168.5zM301 1186q-6 23 6 44t35 25q42 8 68 -34q18 -36 47 -27q19 8 48.5 30.5t58 38t57.5 15.5q55 0 95 -33t52 -86q9 -52 -37 -65q-51 -16 -76 36q-3 14 -17 22.5t-32 2.5q-20 -10 -51.5 -33.5
t-57.5 -36t-53 -12.5q-49 0 -90 31.5t-53 81.5z" />
    <glyph glyph-name="Ygrave" unicode="&#x1ef2;" horiz-adv-x="1251" 
d="M1155 1421q34 -23 43.5 -63t-12.5 -74l-459 -731l-2 -455q0 -40 -29.5 -69t-70.5 -29t-70 29t-29 69l2 455l-462 731q-22 34 -13.5 74t43.5 63q35 22 75 13t62 -43l394 -623l389 623q23 34 62.5 42.5t76.5 -12.5zM500 1686q-18 38 6 65.5t61 23.5t51 -44l50 -140
q11 -24 -4.5 -43t-41.5 -18.5t-42 24.5z" />
    <glyph glyph-name="ygrave" unicode="&#x1ef3;" horiz-adv-x="999" 
d="M352 -367q-22 0 -43 9q-38 17 -52.5 56.5t3.5 76.5l137 309l-342 739q-19 38 -5 78t52 57q37 18 77 4t57 -51l270 -581l256 577q17 40 56 55t79 -4q37 -17 51.5 -56t-2.5 -79l-502 -1130q-28 -60 -92 -60zM373 1219q-18 38 6 65.5t61.5 23.5t51.5 -44l49 -140
q11 -24 -4.5 -43t-41.5 -18.5t-42 24.5z" />
    <glyph glyph-name="uni1EF8" unicode="&#x1ef8;" horiz-adv-x="1251" 
d="M1155 1421q34 -23 43.5 -63t-12.5 -74l-459 -731l-2 -455q0 -40 -29.5 -69t-70.5 -29t-70 29t-29 69l2 455l-462 731q-22 34 -13.5 74t43.5 63q35 22 75 13t62 -43l394 -623l389 623q23 34 62.5 42.5t76.5 -12.5zM381 1651q-6 23 6 44t35 25q41 8 67 -34q18 -36 48 -27
q19 8 48.5 30.5t57.5 38t57 15.5q55 0 95.5 -33t52.5 -86q9 -52 -37 -65q-51 -16 -76 36q-3 14 -17 22.5t-32 2.5q-20 -10 -51.5 -33.5t-57.5 -36t-53 -12.5q-49 0 -90 31.5t-53 81.5z" />
    <glyph glyph-name="uni1EF9" unicode="&#x1ef9;" horiz-adv-x="999" 
d="M352 -367q-22 0 -43 9q-38 17 -52.5 56.5t3.5 76.5l137 309l-342 739q-19 38 -5 78t52 57q37 18 77 4t57 -51l270 -581l256 577q17 40 56 55t79 -4q37 -17 51.5 -56t-2.5 -79l-502 -1130q-28 -60 -92 -60zM254 1184q-6 23 6 44t35 25q41 8 67 -34q18 -36 48 -27
q19 8 48.5 30.5t57.5 38t57 15.5q55 0 95.5 -33t52.5 -86q9 -52 -37 -65q-51 -16 -76 36q-3 14 -17 22.5t-32 2.5q-20 -10 -51.5 -33.5t-57.5 -36t-53 -12.5q-49 0 -90 31.5t-53 81.5z" />
    <glyph glyph-name="endash" unicode="&#x2013;" horiz-adv-x="1134" 
d="M82 606q0 41 29 71t69 30h772q41 0 71 -30t30 -71t-30 -70.5t-71 -29.5h-772q-40 0 -69 29.5t-29 70.5z" />
    <glyph glyph-name="emdash" unicode="&#x2014;" horiz-adv-x="1423" 
d="M82 727q0 40 29 70t69 30h1061q41 0 70.5 -30t29.5 -70q0 -41 -29.5 -70.5t-70.5 -29.5h-1061q-40 0 -69 29.5t-29 70.5z" />
    <glyph glyph-name="quoteleft" unicode="&#x2018;" horiz-adv-x="362" 
d="M279 1495q22 -10 33.5 -33.5t6.5 -48.5l-34 -223q-6 -44 -38 -69.5t-77 -16.5q-44 5 -70.5 40.5t-13.5 82.5l86 231q12 29 45 40.5t62 -3.5z" />
    <glyph glyph-name="quoteright" unicode="&#x2019;" horiz-adv-x="362" 
d="M125 1110q-22 11 -33.5 34t-7.5 48l35 223q6 44 37.5 68.5t76.5 17.5q44 -5 70.5 -40.5t13.5 -82.5l-86 -231q-12 -31 -44.5 -42.5t-61.5 5.5z" />
    <glyph glyph-name="quotesinglbase" unicode="&#x201a;" horiz-adv-x="1228" 
d="M57 -186q-21 13 -28.5 38.5t0.5 49.5l73 213q13 41 51.5 60t77.5 5q41 -13 62 -52.5t0 -82.5l-127 -215q-17 -26 -50 -31t-59 15z" />
    <glyph glyph-name="quotedblleft" unicode="&#x201c;" horiz-adv-x="624" 
d="M551 1495q23 -10 35.5 -33.5t7.5 -48.5l-37 -223q-6 -42 -40.5 -67t-74.5 -19q-42 5 -68.5 40.5t-15.5 82.5l86 231q14 29 46 40.5t61 -3.5zM86 1227l86 231q12 29 45 40.5t62 -3.5q22 -10 33.5 -33.5t6.5 -48.5l-34 -223q-6 -42 -41 -67t-74 -19q-44 5 -70.5 40.5
t-13.5 82.5z" />
    <glyph glyph-name="quotedblright" unicode="&#x201d;" horiz-adv-x="624" 
d="M125 1110q-22 11 -33.5 34t-7.5 48l35 223q6 42 40.5 67t73.5 19q44 -5 70.5 -40.5t13.5 -82.5l-86 -231q-12 -31 -44.5 -42.5t-61.5 5.5zM358 1192l35 223q6 42 40.5 67t74.5 19q44 -5 70.5 -40.5t13.5 -82.5l-86 -231q-12 -31 -45 -42.5t-62 5.5q-22 11 -33.5 34
t-7.5 48z" />
    <glyph glyph-name="quotedblbase" unicode="&#x201e;" horiz-adv-x="1228" 
d="M57 -186q-21 13 -28.5 38.5t0.5 49.5l73 213q13 41 51.5 60t77.5 5q41 -13 62 -52.5t0 -82.5l-127 -215q-17 -26 -50 -31t-59 15z" />
    <glyph glyph-name="dagger" unicode="&#x2020;" horiz-adv-x="841" 
d="M418 553q-37 0 -63.5 26.5t-26.5 63.5v582h-164q-38 0 -64 26.5t-26 63.5t26 63.5t64 26.5h164v133q0 38 26.5 65t63.5 27q38 0 64 -27t26 -65v-133h172q37 0 63.5 -26.5t26.5 -63.5t-26.5 -63.5t-63.5 -26.5h-172v-582q0 -37 -26 -63.5t-64 -26.5z" />
    <glyph glyph-name="daggerdbl" unicode="&#x2021;" horiz-adv-x="841" 
d="M418 553q-37 0 -63.5 26.5t-26.5 63.5v174h-164q-38 0 -64 26.5t-26 63.5q0 38 26 64t64 26h164v228h-164q-38 0 -64 26.5t-26 63.5t26 63.5t64 26.5h164v133q0 38 26.5 65t63.5 27q38 0 64 -27t26 -65v-133h172q37 0 63.5 -26.5t26.5 -63.5t-26.5 -63.5t-63.5 -26.5
h-172v-228h172q37 0 63.5 -26t26.5 -64q0 -37 -26.5 -63.5t-63.5 -26.5h-172v-174q0 -37 -26 -63.5t-64 -26.5z" />
    <glyph glyph-name="bullet" unicode="&#x2022;" horiz-adv-x="681" 
d="M342 492q-92 0 -155.5 67t-63.5 160q0 91 63.5 154t155.5 63q91 0 154 -63t63 -154q0 -93 -63.5 -160t-153.5 -67z" />
    <glyph glyph-name="ellipsis" unicode="&#x2026;" horiz-adv-x="1009" 
d="M862 0q-46 0 -79 34t-33 81t33 79.5t79 32.5q48 0 81.5 -32.5t33.5 -79.5t-34 -81t-81 -34zM70 115q0 47 33 79.5t79 32.5q48 0 81.5 -32.5t33.5 -79.5t-34 -81t-81 -34q-46 0 -79 34t-33 81zM412 115q0 47 33 79.5t79 32.5q48 0 81.5 -32.5t33.5 -79.5t-34 -81t-81 -34
q-46 0 -79 34t-33 81z" />
    <glyph glyph-name="perthousand" unicode="&#x2030;" horiz-adv-x="1648" 
d="M193 0q-27 0 -48 12q-35 20 -45.5 59t9.5 74l694 1246q20 35 59 45.5t74 -9.5t46.5 -58t-7.5 -73l-696 -1247q-28 -49 -86 -49zM61 1145q0 106 70 181t170 75q98 0 168 -75t70 -181q0 -104 -70 -179t-168 -75q-99 0 -169.5 74.5t-70.5 179.5zM207 1145q0 -44 28 -76.5
t66 -32.5q37 0 63.5 32.5t26.5 76.5q0 45 -26.5 76.5t-63.5 31.5q-39 0 -66.5 -31.5t-27.5 -76.5zM551 281q0 105 70.5 179.5t169.5 74.5q98 0 167.5 -75t69.5 -179q0 -106 -69.5 -180t-167.5 -74q-100 0 -170 74t-70 180zM698 281q0 -46 27.5 -78.5t65.5 -32.5
q37 0 64.5 33t27.5 78q0 44 -27.5 76t-64.5 32q-38 0 -65.5 -32t-27.5 -76zM1090 276q0 105 70 179.5t169 74.5q98 0 168 -75t70 -179q0 -106 -70 -181t-168 -75q-100 0 -169.5 75t-69.5 181zM1235 276q0 -46 28 -78t66 -32q37 0 63.5 32t26.5 78q0 44 -26.5 75.5
t-63.5 31.5q-38 0 -66 -31.5t-28 -75.5z" />
    <glyph glyph-name="guilsinglleft" unicode="&#x2039;" horiz-adv-x="804" 
d="M629 104q-31 0 -56 19l-448 313q-41 24 -41 76q0 49 39 74l450 323q33 23 70 17.5t59 -35.5q25 -32 18.5 -71t-38.5 -62l-344 -244l344 -238q32 -22 39 -60.5t-16 -72.5q-31 -39 -76 -39z" />
    <glyph glyph-name="guilsinglright" unicode="&#x203a;" horiz-adv-x="804" 
d="M178 104q-49 0 -76 39q-23 34 -17 72.5t38 60.5l344 238l-344 244q-32 23 -38 62t17 71q24 30 61 35.5t68 -17.5l451 -323q39 -25 39 -74q0 -52 -41 -76l-449 -313q-25 -19 -53 -19z" />
    <glyph glyph-name="fraction" unicode="&#x2044;" horiz-adv-x="501" 
d="M-201 -4q-26 13 -32.5 42.5t8.5 55.5l827 1311q18 25 45.5 30.5t54.5 -12.5q26 -13 33 -41.5t-8 -54.5l-827 -1311q-15 -24 -44 -29.5t-57 9.5z" />
    <glyph glyph-name="uni2070" unicode="&#x2070;" horiz-adv-x="872" 
d="M436 850q-155 0 -265 109t-110 264t110 264.5t265 109.5t265 -109.5t110 -264.5t-110 -264t-265 -109zM176 1223q0 -107 76.5 -184.5t183.5 -77.5q106 0 184 77.5t78 184.5q0 106 -78 184t-184 78q-107 0 -183.5 -78t-76.5 -184z" />
    <glyph glyph-name="uni2074" unicode="&#x2074;" horiz-adv-x="620" 
d="M412 854q-23 0 -40.5 16.5t-17.5 38.5v95h-266q-30 0 -47 20q-16 25 -6 51l141 484q6 22 27.5 32t46.5 4q21 -8 31.5 -29t3.5 -42l-119 -408h188v180q0 23 17.5 40.5t40.5 17.5t40 -17.5t17 -40.5v-180h53q23 0 40.5 -17t17.5 -40t-17 -39t-41 -16h-53v-95
q0 -22 -17 -38.5t-40 -16.5z" />
    <glyph glyph-name="uni2075" unicode="&#x2075;" horiz-adv-x="587" 
d="M274 846q-78 0 -144 38.5t-101 104.5q-12 20 -6 43t26 35q20 11 44 4t34 -27q24 -37 63.5 -60t83.5 -23q66 0 113 43t47 106q0 66 -47.5 99.5t-118.5 33.5h-135q-26 0 -45 23q-16 23 -10 49l59 237q4 20 19 32.5t34 12.5h222q25 0 41 -16t16 -41q0 -24 -16.5 -40.5
t-40.5 -16.5h-174l-31 -125h61q126 0 202.5 -68.5t76.5 -179.5t-79 -187.5t-194 -76.5z" />
    <glyph glyph-name="uni2076" unicode="&#x2076;" horiz-adv-x="620" 
d="M309 850q-110 0 -189 79t-79 189q0 15 1.5 27t2.5 23t7 26t10.5 26.5t16.5 34t21 38.5t29.5 50t35.5 59.5t45.5 75.5t53.5 89q17 31 50 32t51.5 -23.5t1.5 -55.5l-86 -142q76 12 145.5 -20.5t111.5 -97t42 -142.5q0 -110 -80 -189t-191 -79zM154 1118q0 -63 45.5 -108
t109.5 -45q65 0 111.5 45t46.5 108q0 64 -46.5 110t-111.5 46q-64 0 -109.5 -45.5t-45.5 -110.5z" />
    <glyph glyph-name="uni2077" unicode="&#x2077;" horiz-adv-x="544" 
d="M123 856q-16 0 -27 8q-22 10 -28 33t6 43l297 543h-291q-25 0 -42.5 16t-17.5 39q0 25 17.5 42t42.5 17h389q31 0 49 -28q16 -30 0 -56l-344 -626q-19 -31 -51 -31z" />
    <glyph glyph-name="uni2078" unicode="&#x2078;" horiz-adv-x="593" 
d="M297 858q-105 0 -180.5 72t-75.5 174q0 61 31.5 111.5t85.5 82.5q-52 49 -52 117q0 75 55.5 128.5t133.5 53.5t133 -53.5t55 -128.5q0 -65 -47 -112q53 -31 85 -84t32 -115q0 -102 -75 -174t-181 -72zM154 1104q0 -55 42 -94t101 -39q60 0 102.5 39t42.5 94
q0 54 -42.5 91.5t-102.5 37.5q-59 0 -101 -37.5t-42 -91.5zM217 1415q0 -31 23 -51.5t55 -20.5q34 0 57 20.5t23 51.5q0 30 -23.5 51t-56.5 21q-32 0 -55 -21.5t-23 -50.5z" />
    <glyph glyph-name="uni2079" unicode="&#x2079;" horiz-adv-x="620" 
d="M311 1597q110 0 189.5 -79t79.5 -189q0 -18 -2 -33t-5 -29t-13 -35t-18.5 -38t-29.5 -52.5t-38.5 -64.5t-52.5 -87.5t-65 -108.5q-18 -31 -50.5 -32t-50.5 24t-1 57l86 139q-76 -12 -145.5 20.5t-111.5 97t-42 142.5q0 110 80 189t190 79zM154 1329q0 -64 46 -109.5
t111 -45.5q64 0 109 45t45 110q0 64 -45 110t-109 46t-110.5 -46.5t-46.5 -109.5z" />
    <glyph glyph-name="uni2080" unicode="&#x2080;" horiz-adv-x="872" 
d="M436 -123q-155 0 -265 110t-110 265q0 154 110 264.5t265 110.5t265 -110.5t110 -264.5q0 -155 -110 -265t-265 -110zM176 252q0 -107 76.5 -184.5t183.5 -77.5q106 0 184 77.5t78 184.5q0 106 -78 183t-184 77q-107 0 -183.5 -77t-76.5 -183z" />
    <glyph glyph-name="uni2081" unicode="&#x2081;" horiz-adv-x="288" 
d="M182 -123q-23 0 -40 17.5t-17 42.5v559l-21 -9q-22 -6 -42 4t-29 33q-8 24 2 45.5t33 30.5l94 37q34 10 55 -8q25 -16 25 -47v-645q0 -25 -17.5 -42.5t-42.5 -17.5z" />
    <glyph glyph-name="uni2082" unicode="&#x2082;" horiz-adv-x="581" 
d="M94 -123q-41 0 -53 35q-15 34 8 61q52 56 134 145t139.5 152t62.5 68q20 25 22.5 57.5t-10.5 57.5q-34 62 -112 57q-86 -3 -133 -84q-11 -19 -32.5 -27t-43.5 2q-21 12 -28.5 35t1.5 45q71 130 227 142q72 5 132 -26.5t90 -92.5q30 -59 22 -124t-51 -116
q-29 -35 -246 -272h260q25 0 41.5 -17.5t16.5 -42.5q0 -23 -16.5 -39t-41.5 -16h-389z" />
    <glyph glyph-name="uni2083" unicode="&#x2083;" horiz-adv-x="548" 
d="M254 -127q-68 0 -127 29t-96 80q-12 18 -9 42t21 37q20 12 43.5 8.5t36.5 -20.5q44 -63 131 -63q59 0 101 34t42 80q0 53 -42.5 85t-106.5 32q-66 0 -66 57q0 23 15 39.5t47 16.5q56 0 85 25.5t29 58.5q0 36 -34 60t-82 22q-56 0 -97 -35q-20 -13 -42 -9t-37 23
q-13 18 -9.5 41.5t23.5 36.5q69 54 158 57q97 2 165 -55.5t68 -140.5q0 -78 -68 -133q105 -65 105 -181q0 -94 -74 -160.5t-180 -66.5z" />
    <glyph glyph-name="uni2084" unicode="&#x2084;" horiz-adv-x="616" 
d="M410 -123q-23 0 -39.5 16.5t-16.5 38.5v93h-266q-28 0 -47 22q-15 26 -6 49l141 479q6 21 27 32t43 5q22 -8 33 -29t4 -42l-117 -404h188v178q0 23 16.5 39.5t39.5 16.5t40 -16.5t17 -39.5v-178h51q23 0 40 -17t17 -42q0 -22 -17 -37.5t-40 -15.5h-51v-93
q0 -22 -17 -38.5t-40 -16.5z" />
    <glyph glyph-name="uni2085" unicode="&#x2085;" horiz-adv-x="589" 
d="M276 -127q-78 0 -144 37.5t-103 103.5q-12 20 -6 43t26 35q22 12 45 6t33 -28q24 -37 64 -59.5t85 -22.5q66 0 112 42t46 105q0 67 -47.5 101t-116.5 34h-137q-29 0 -45 23t-10 49l59 240q5 19 20.5 31t35.5 12h219q25 0 41 -16.5t16 -41.5q0 -24 -16.5 -40.5
t-40.5 -16.5h-172l-33 -123h63q125 0 202 -70t77 -182q0 -110 -79 -186t-194 -76z" />
    <glyph glyph-name="uni2086" unicode="&#x2086;" horiz-adv-x="620" 
d="M309 -125q-110 0 -189 79t-79 189q0 15 1.5 27t2.5 23t7 26t10.5 26.5t16.5 34t21 38.5t29.5 50t35.5 59.5t45.5 75.5t53.5 89q18 31 50.5 32t51 -24t1.5 -57l-86 -140q76 12 145.5 -20.5t111.5 -97t42 -142.5q0 -110 -80 -189t-191 -79zM154 143q0 -63 45.5 -109
t109.5 -46t111 46t47 109q0 64 -46.5 110t-111.5 46q-64 0 -109.5 -45.5t-45.5 -110.5z" />
    <glyph glyph-name="uni2087" unicode="&#x2087;" horiz-adv-x="544" 
d="M121 -127q-14 0 -27 8q-20 11 -26 32.5t6 43.5l297 541h-293q-23 0 -40.5 16.5t-17.5 38.5q0 25 17 42t41 17h391q29 0 47 -28q16 -28 2 -56l-344 -624q-19 -31 -53 -31z" />
    <glyph glyph-name="uni2088" unicode="&#x2088;" horiz-adv-x="593" 
d="M297 -123q-105 0 -180.5 72t-75.5 174q0 60 31.5 111.5t85.5 82.5q-52 49 -52 117q0 75 55.5 128.5t133.5 53.5t133 -53.5t55 -128.5q0 -65 -47 -115q54 -32 85.5 -83t31.5 -113q0 -102 -75 -174t-181 -72zM154 123q0 -56 42 -94.5t101 -38.5q61 0 103 38t42 95
q0 53 -42.5 91t-102.5 38q-58 0 -100.5 -38t-42.5 -91zM217 434q0 -31 23 -52.5t55 -21.5q34 0 57 21.5t23 52.5q0 30 -23.5 51t-56.5 21q-32 0 -55 -21.5t-23 -50.5z" />
    <glyph glyph-name="uni2089" unicode="&#x2089;" horiz-adv-x="620" 
d="M311 625q110 0 189.5 -79.5t79.5 -189.5q0 -18 -2 -33t-5 -29t-13 -35t-18.5 -38t-29.5 -52.5t-38.5 -64.5t-52.5 -87.5t-65 -108.5q-17 -31 -50 -32t-51 23.5t-1 55.5l86 141q-76 -12 -145.5 20.5t-111.5 97t-42 142.5q0 110 80 189.5t190 79.5zM154 356
q0 -64 46 -109.5t111 -45.5q64 0 109 45t45 110q0 63 -45 108.5t-109 45.5t-110.5 -45.5t-46.5 -108.5z" />
    <glyph glyph-name="franc" unicode="&#x20a3;" horiz-adv-x="1292" 
d="M356 0q-40 0 -68 28.5t-28 69.5v211h-121q-32 0 -55 22t-23 54q0 33 22.5 55.5t55.5 22.5h121v870q0 41 28 71t68 30h777q41 0 69.5 -29.5t28.5 -71.5q0 -40 -28.5 -69t-69.5 -29h-678v-422h600q40 0 68 -28t28 -68t-28.5 -69.5t-67.5 -29.5h-600v-155h149q34 0 56 -22
t22 -56q0 -32 -22 -54t-56 -22h-149v-211q0 -41 -29 -69.5t-70 -28.5z" />
    <glyph glyph-name="Euro" unicode="&#x20ac;" horiz-adv-x="1275" 
d="M956 0q-229 0 -413 131.5t-260 341.5h-146q-31 0 -53.5 23.5t-22.5 56.5q0 31 22.5 54.5t53.5 23.5h109q-6 44 -6 86q0 41 2 61h-105q-31 0 -53.5 22.5t-22.5 55.5q0 31 22.5 53.5t53.5 22.5h135q70 221 258.5 361.5t425.5 140.5q76 0 160 -19q40 -9 61.5 -43t12.5 -74
q-9 -39 -43.5 -60t-73.5 -13q-59 12 -117 12q-156 0 -284.5 -84t-190.5 -221h330q32 0 55 -22.5t23 -53.5q0 -33 -22.5 -55.5t-55.5 -22.5h-373q-4 -40 -4 -61q0 -43 6 -86h371q32 0 55 -23.5t23 -54.5q0 -34 -23 -57t-55 -23h-317q67 -126 190 -201t272 -75q62 0 117 12
q40 9 75 -12.5t44 -61.5q8 -38 -14 -73t-60 -44q-80 -18 -162 -18z" />
    <glyph glyph-name="uni2116" unicode="&#x2116;" horiz-adv-x="2484" 
d="M221 0q-40 0 -69 29.5t-29 70.5v1239q0 32 18 58.5t49 36.5q29 11 60 2t51 -35l786 -1010v948q0 41 29.5 71t69.5 30q42 0 72 -30t30 -71v-1239q0 -32 -19 -58.5t-48 -35.5q-18 -6 -35 -6q-50 0 -78 39l-786 1010v-949q0 -42 -29 -71t-72 -29zM1409 954q0 131 65 243
t176.5 177.5t243.5 65.5t244.5 -65.5t178 -177.5t65.5 -243q0 -202 -143.5 -344.5t-344.5 -142.5t-343 142.5t-142 344.5zM1608 954q0 -119 84 -203.5t202 -84.5q120 0 204.5 84.5t84.5 203.5t-84.5 203t-204.5 84q-118 0 -202 -84t-84 -203z" />
    <glyph glyph-name="trademark" unicode="&#x2122;" horiz-adv-x="2902" 
d="M1063 1434q40 0 69 -29.5t29 -69.5q0 -41 -29 -70.5t-69 -29.5h-346v-1137q0 -40 -29 -69t-70 -29t-70.5 29t-29.5 69v1137h-342q-41 0 -70.5 29.5t-29.5 70.5q0 40 29.5 69.5t70.5 29.5h887zM1327 98v1239q0 33 19.5 59.5t50.5 37.5q31 9 61.5 -0.5t50.5 -34.5l539 -737
l541 737q20 25 50.5 34.5t61.5 0.5q31 -11 49.5 -37t18.5 -60v-1239q0 -40 -29.5 -69t-70.5 -29q-40 0 -69.5 29t-29.5 69v936l-440 -600q-33 -42 -83.5 -41t-78.5 41l-440 600v-936q0 -40 -30 -69t-71 -29t-70.5 29t-29.5 69z" />
    <glyph glyph-name="oneeighth" unicode="&#x215b;" horiz-adv-x="1382" 
d="M180 672q-23 0 -41 18t-18 41v559l-19 -8q-23 -6 -42.5 4.5t-28.5 32.5q-8 24 2 45.5t33 30.5l94 37q23 10 53 -7q27 -18 27 -49v-645q0 -23 -18 -41t-42 -18zM61 94l828 1311q18 25 45.5 30.5t54.5 -12.5q26 -13 33 -41.5t-8 -54.5l-828 -1311q-15 -24 -43.5 -29.5
t-56.5 9.5q-26 13 -33 42.5t8 55.5zM829 246q0 60 31.5 111.5t85.5 82.5q-51 48 -51 117q0 75 55 128.5t133 53.5t133.5 -53.5t55.5 -128.5q0 -65 -47 -115q54 -31 85 -82.5t31 -113.5q0 -102 -75 -174t-181 -72q-105 0 -180.5 72t-75.5 174zM942 246q0 -56 42 -94.5
t101 -38.5q61 0 103.5 38.5t42.5 94.5q0 53 -43 91t-103 38q-58 0 -100.5 -38t-42.5 -91zM1006 557q0 -31 22.5 -52.5t54.5 -21.5q34 0 57 21.5t23 52.5q0 30 -23.5 51t-56.5 21q-32 0 -54.5 -21.5t-22.5 -50.5z" />
    <glyph glyph-name="threeeighths" unicode="&#x215c;" horiz-adv-x="1671" 
d="M272 694q-69 0 -128.5 29t-96.5 80q-12 19 -8.5 43t20.5 37q22 14 45.5 11t36.5 -22q43 -65 131 -65q61 0 102.5 34.5t41.5 82.5q0 51 -43 82.5t-107 31.5q-65 0 -65 60q0 55 61 55q56 0 86.5 26t30.5 60q0 36 -35 60t-82 22q-49 0 -100 -35q-19 -14 -42 -10.5t-38 22.5
q-12 20 -8.5 43.5t22.5 36.5q79 55 162 58q97 2 165.5 -56t68.5 -141q0 -80 -68 -135q104 -65 104 -180q0 -95 -75 -162.5t-181 -67.5zM350 94l828 1311q18 25 45.5 30.5t54.5 -12.5q26 -13 33 -41.5t-8 -54.5l-828 -1311q-15 -24 -43.5 -29.5t-56.5 9.5q-26 13 -33 42.5
t8 55.5zM1118 246q0 60 31.5 111.5t85.5 82.5q-51 48 -51 117q0 75 55 128.5t133 53.5t133.5 -53.5t55.5 -128.5q0 -64 -48 -115q54 -32 85.5 -83t31.5 -113q0 -102 -75 -174t-181 -72q-105 0 -180.5 72t-75.5 174zM1231 246q0 -56 42 -94.5t101 -38.5q61 0 103.5 38.5
t42.5 94.5q0 53 -43 91t-103 38q-58 0 -100.5 -38t-42.5 -91zM1294 557q0 -31 23 -52.5t55 -21.5q34 0 57 21.5t23 52.5q0 30 -23.5 51t-56.5 21q-32 0 -55 -21.5t-23 -50.5z" />
    <glyph glyph-name="fiveeighths" unicode="&#x215d;" horiz-adv-x="1695" 
d="M287 682q-78 0 -144.5 38.5t-103.5 104.5q-12 21 -5.5 43.5t25.5 34.5q22 11 45 4.5t35 -26.5q22 -37 62.5 -60.5t85.5 -23.5q66 0 111.5 43t45.5 106q0 67 -46.5 100t-118.5 33h-134q-26 0 -45 23q-19 22 -12 49l59 238q6 20 21.5 32.5t34.5 12.5h219q25 0 41 -16.5
t16 -41.5q0 -24 -16.5 -40.5t-40.5 -16.5h-172l-31 -125h60q126 0 203 -68.5t77 -179.5t-78.5 -187.5t-193.5 -76.5zM375 94l827 1311q18 25 46 30.5t55 -12.5q26 -13 32.5 -41.5t-8.5 -54.5l-827 -1311q-15 -24 -44 -29.5t-57 9.5q-26 13 -32.5 42.5t8.5 55.5zM1143 246
q0 60 31.5 111.5t85.5 82.5q-52 49 -52 117q0 75 55.5 128.5t133.5 53.5t133 -53.5t55 -128.5q0 -65 -47 -115q54 -32 85.5 -83t31.5 -113q0 -102 -75 -174t-181 -72q-105 0 -180.5 72t-75.5 174zM1255 246q0 -56 42.5 -94.5t101.5 -38.5q61 0 103 38t42 95q0 53 -42.5 91
t-102.5 38q-59 0 -101.5 -38.5t-42.5 -90.5zM1319 557q0 -31 23 -52.5t55 -21.5q34 0 57 21.5t23 52.5q0 30 -23.5 51t-56.5 21q-32 0 -55 -21.5t-23 -50.5z" />
    <glyph glyph-name="seveneighths" unicode="&#x215e;" horiz-adv-x="1652" 
d="M123 692q-14 0 -29 6q-20 12 -26 34t6 44l297 543h-291q-25 0 -42.5 16.5t-17.5 38.5q0 25 17.5 42.5t42.5 17.5h389q31 0 49 -29q13 -29 0 -57l-344 -625q-19 -31 -51 -31zM332 94l827 1311q18 25 46 30.5t55 -12.5q26 -13 32.5 -41.5t-8.5 -54.5l-827 -1311
q-15 -24 -44 -29.5t-57 9.5q-26 13 -32.5 42.5t8.5 55.5zM1100 246q0 60 31.5 111.5t85.5 82.5q-52 49 -52 117q0 75 55.5 128.5t133.5 53.5t133 -53.5t55 -128.5q0 -65 -47 -115q54 -32 85.5 -83t31.5 -113q0 -102 -75 -174t-181 -72q-105 0 -180.5 72t-75.5 174zM1212 246
q0 -56 42.5 -94.5t101.5 -38.5q60 0 102.5 38t42.5 95q0 53 -42.5 91t-102.5 38q-59 0 -101.5 -38.5t-42.5 -90.5zM1276 557q0 -31 23 -52.5t55 -21.5q34 0 57 21.5t23 52.5q0 30 -23.5 51t-56.5 21q-32 0 -55 -21.5t-23 -50.5z" />
    <glyph glyph-name="arrowleft" unicode="&#x2190;" horiz-adv-x="1556" 
d="M90 647q-28 28 -28 68.5t28 68.5l283 285q29 29 70 29t69 -29q29 -29 29 -69.5t-29 -69.5l-119 -117h1004q41 0 70 -28t28 -68q2 -41 -26.5 -70t-71.5 -29h-1002l117 -118q28 -26 28 -68t-28 -70q-29 -28 -69.5 -28t-69.5 28z" />
    <glyph glyph-name="arrowup" unicode="&#x2191;" horiz-adv-x="886" 
d="M88 983q-28 29 -28 69.5t28 69.5l287 283q28 29 68.5 29t68.5 -29l283 -283q29 -29 29 -69.5t-29 -69.5q-28 -28 -69 -28t-69 28l-116 117v-1002q0 -41 -29 -69.5t-70 -28.5q-40 0 -68 28.5t-28 69.5v1004l-119 -119q-28 -29 -69 -29t-70 29z" />
    <glyph glyph-name="arrowright" unicode="&#x2192;" horiz-adv-x="1556" 
d="M1044 1071q28 28 69.5 28t70.5 -28l282 -285q28 -29 28 -69.5t-28 -69.5l-282 -282q-29 -29 -70 -29t-70 29q-28 28 -28 68.5t28 68.5l119 119h-1003q-43 0 -71.5 28.5t-27.5 69.5q-2 38 28 67t71 29h1001l-117 117q-29 29 -29 69.5t29 69.5z" />
    <glyph glyph-name="arrowdown" unicode="&#x2193;" horiz-adv-x="884" 
d="M88 311q-28 29 -28 70t28 70q29 28 70 28t69 -28l117 -117v1001q0 43 28.5 71.5t69.5 27.5q40 1 68.5 -28.5t28.5 -70.5v-1001l118 117q28 29 69 29t69 -29q29 -28 29 -69.5t-29 -70.5l-283 -282q-29 -28 -69.5 -28t-69.5 28z" />
    <glyph glyph-name="arrowboth" unicode="&#x2194;" horiz-adv-x="1769" 
d="M90 631q-28 28 -28.5 67.5t28.5 69.5l283 285q29 28 70 28t69 -28q29 -31 29 -71t-29 -69l-117 -118l979 2l-114 116q-29 29 -29 70t29 70q28 28 68.5 28t68.5 -28l284 -285q28 -29 28 -69t-28 -68l-284 -285q-29 -29 -69 -29t-68 29q-29 28 -29 68.5t29 68.5l116 119
l-981 -2l117 -117q28 -28 28 -68.5t-28 -68.5q-29 -29 -69.5 -29t-69.5 29z" />
    <glyph glyph-name="arrowupdn" unicode="&#x2195;" horiz-adv-x="886" 
d="M375 1489q28 28 68.5 28.5t68.5 -28.5l285 -283q29 -29 29 -70t-29 -69q-29 -29 -70 -29t-70 29l-116 117v-957l118 115q28 29 68.5 29t69.5 -29q29 -28 29 -69t-29 -70l-285 -283q-28 -28 -68.5 -28t-68.5 28l-285 283q-29 31 -28.5 70t28.5 69q29 29 69.5 29t69.5 -29
l117 -117v957l-119 -115q-28 -28 -68.5 -28t-68.5 28q-28 30 -28.5 69t28.5 70z" />
    <glyph glyph-name="uni2196" unicode="&#x2196;" horiz-adv-x="1196" 
d="M659 1151q0 -40 -29 -69t-67 -29h-168l709 -709q30 -29 30 -70t-28 -69q-29 -29 -68.5 -29t-70.5 29l-709 708v-165q0 -40 -29 -68.5t-69 -28.5t-68.5 29t-28.5 70l-2 399q0 40 29.5 69t69.5 29l403 2q39 -2 67.5 -30.5t28.5 -67.5z" />
    <glyph glyph-name="uni2197" unicode="&#x2197;" horiz-adv-x="1196" 
d="M535 1151q1 40 29.5 68.5t68.5 29.5l401 -2q41 0 70 -29t29 -69v-399q0 -41 -29 -70t-70 -29q-40 0 -68 28.5t-28 68.5v167l-711 -710q-29 -29 -69.5 -29t-69.5 29q-28 28 -27.5 69t29.5 70l709 709h-166q-40 0 -69 29t-29 69z" />
    <glyph glyph-name="uni2198" unicode="&#x2198;" horiz-adv-x="1196" 
d="M535 274q0 40 29 69.5t69 29.5h166l-709 708q-29 29 -29.5 70.5t27.5 67.5q29 31 69.5 31t69.5 -31l711 -711v168q0 40 28 69t68 29q41 0 70 -28.5t29 -69.5v-400q0 -41 -29 -69.5t-70 -28.5l-401 -2q-39 0 -67.5 29t-30.5 69z" />
    <glyph glyph-name="uni2199" unicode="&#x2199;" horiz-adv-x="1196" 
d="M659 274q0 -40 -29 -69t-67 -29l-403 2q-40 0 -69.5 28.5t-29.5 69.5l2 400q0 41 28.5 69.5t68.5 28.5t69 -29t29 -69v-166l709 709q31 31 70.5 31t68.5 -31q28 -27 28 -68t-30 -70l-709 -708h168q38 0 67 -29.5t29 -69.5z" />
    <glyph glyph-name="minus" unicode="&#x2212;" horiz-adv-x="944" 
d="M180 618q-31 0 -54.5 23t-23.5 55t23.5 55t54.5 23h584q32 0 55 -23t23 -55t-23 -55t-55 -23h-584z" />
    <glyph glyph-name="approxequal" unicode="&#x2248;" horiz-adv-x="1224" 
d="M420 651q-105 0 -192 61.5t-130 166.5q-14 34 -0.5 66.5t47.5 45.5q33 12 66 -1.5t45 -45.5q23 -50 65 -84.5t99 -34.5q23 0 47.5 9.5t41.5 21t50 35.5q30 24 49.5 37.5t53 32t71.5 27.5t80 9h2q105 0 189 -59t122 -160q12 -34 -2.5 -67t-48.5 -45q-33 -12 -65.5 2
t-44.5 47q-16 47 -56 78.5t-94 31.5q-29 0 -56.5 -11t-43.5 -22t-51 -38q-39 -31 -66.5 -49t-76.5 -36t-101 -18zM98 432q-14 34 0 67.5t47 45.5q32 14 65.5 0t45.5 -47q23 -50 65 -84.5t99 -34.5q34 0 63.5 15.5t75.5 51.5q41 33 67.5 51t79 37t107.5 19h2q104 0 188.5 -60
t122.5 -161q12 -33 -3 -66.5t-48 -46.5q-33 -11 -65.5 3.5t-44.5 47.5q-16 46 -56 77.5t-94 31.5q-29 0 -56 -10.5t-44 -22t-51 -37.5q-38 -31 -66 -49t-77 -35.5t-101 -17.5q-106 0 -192.5 60.5t-129.5 164.5z" />
    <glyph glyph-name="lessequal" unicode="&#x2264;" horiz-adv-x="858" 
d="M676 373q-29 0 -53 18l-467 311q-41 27 -41 78q0 49 39 74l469 324q31 23 68 16.5t61 -37.5q23 -31 17 -69.5t-38 -61.5l-362 -244l362 -237q32 -22 38 -61.5t-17 -71.5q-27 -39 -76 -39zM76 186q0 32 22 55t54 23h559q31 0 53 -23t22 -55t-22 -54.5t-53 -22.5h-559
q-32 0 -54 22.5t-22 54.5z" />
    <glyph glyph-name="greaterequal" unicode="&#x2265;" horiz-adv-x="858" 
d="M184 373q-48 0 -75 39q-23 32 -17 71.5t37 61.5l363 237l-363 244q-32 23 -37.5 61.5t17.5 69.5q24 31 61 37.5t70 -16.5l469 -324q36 -25 36 -74q0 -51 -38 -78l-467 -311q-27 -18 -56 -18zM76 186q0 32 22.5 55t53.5 23h557q32 0 54.5 -23t22.5 -55t-22.5 -54.5
t-54.5 -22.5h-557q-31 0 -53.5 22.5t-22.5 54.5z" />
    <glyph glyph-name="lozenge" unicode="&#x25ca;" horiz-adv-x="1050" 
d="M115 727q0 32 16 53l313 451q25 39 76 39q47 0 76 -37l309 -436q31 -28 31 -70q0 -37 -25 -65l-315 -441q-31 -39 -76 -39q-50 0 -76 41l-313 447q-16 24 -16 55v2zM322 725l200 -287l205 289l-205 289z" />
    <glyph glyph-name="A.ss01" horiz-adv-x="1396" 
d="M233 59q-26 -56 -81.5 -59t-90.5 40t-10 99l555 1239q18 39 55 52.5t73.5 -1.5t53.5 -51l560 -1239q14 -34 6 -65t-33.5 -48.5t-54.5 -24t-58 8.5t-43 49l-469 1035z" />
    <glyph glyph-name="B.ss01" horiz-adv-x="1271" 
d="M219 0q-40 0 -69 29t-29 69v1237q0 40 29 69.5t69 29.5h440q172 0 290 -106.5t118 -262.5q0 -109 -61 -193q-41 -64 -54 -104q9 -11 22 -22.5t22.5 -19t25 -19.5t22.5 -17q160 -109 160 -282q0 -169 -119 -288.5t-288 -119.5h-578zM319 199h478q87 0 148 61t61 148
q0 108 -138 167q-63 27 -95.5 66.5t-39.5 79.5q-23 103 78 209q57 60 57 135q0 74 -61.5 123t-147.5 49h-340v-1038z" />
    <glyph glyph-name="D.ss01" horiz-adv-x="1456" 
d="M594 965q0 12 -10 21t-23 9q-12 0 -21.5 -9t-9.5 -21t9.5 -21.5t21.5 -9.5q13 0 23 9.5t10 21.5zM143 168v14q15 -8 15 -26q0 -9 -8 -21q-3 6 -3 10l-2 9q-2 9 -2 14zM143 254v53q15 -11 15 -26q0 -16 -15 -27zM143 379v53q15 -11 15 -26q0 -16 -15 -27zM143 504v51
q15 -7 15 -25t-15 -26zM143 627v53q15 -11 15 -27q0 -15 -15 -26zM143 752v53q15 -11 15 -27q0 -15 -15 -26zM143 877v53q15 -11 15 -27q0 -15 -15 -26zM143 1001v52q15 -7 15 -27q0 -18 -15 -25zM143 1124v54q15 -11 15 -27t-15 -27zM143 1249v19q0 12 4 32q11 -11 11 -24
q0 -16 -15 -27zM158 219q0 12 9 21.5t21 9.5q13 0 22 -9.5t9 -21.5q0 -13 -8.5 -22t-22.5 -9q-12 0 -21 9t-9 22zM158 344q0 12 9 21.5t21 9.5q13 0 22 -9.5t9 -21.5q0 -14 -9 -23.5t-22 -9.5q-12 0 -21 10t-9 23zM158 467q0 13 9 22t21 9q14 0 22.5 -9t8.5 -22
q0 -12 -9 -21.5t-22 -9.5q-12 0 -21 9.5t-9 21.5zM158 592q0 12 9 21.5t21 9.5q13 0 22 -9.5t9 -21.5t-9 -21.5t-22 -9.5q-12 0 -21 9.5t-9 21.5zM158 717q0 12 9 21.5t21 9.5q13 0 22 -9.5t9 -21.5q0 -14 -9 -23.5t-22 -9.5q-12 0 -21 10t-9 23zM158 840q0 13 9 22.5
t21 9.5q13 0 22 -9t9 -23q0 -12 -9 -21.5t-22 -9.5q-12 0 -21 9.5t-9 21.5zM158 965q0 12 9 21t21 9q13 0 22 -9t9 -21t-9 -21.5t-22 -9.5q-12 0 -21 9.5t-9 21.5zM158 1090q0 12 9 21t21 9q13 0 22 -9t9 -21q0 -14 -8.5 -22.5t-22.5 -8.5q-12 0 -21 9t-9 22zM158 1212
q0 13 9 23t21 10q13 0 22 -9.5t9 -23.5q0 -12 -9 -21t-22 -9q-12 0 -21 9t-9 21zM158 1335q7 17 18 31q4 2 12 2q14 0 22.5 -9t8.5 -22q0 -12 -9 -21t-22 -9q-26 0 -30 28zM160 102q2 9 10 16t18 7q14 0 22.5 -8.5t8.5 -22.5q0 -12 -9 -21.5t-22 -9.5h-6q-15 22 -22 39z
M219 33q0 12 10 21t23 9q12 0 21.5 -9t9.5 -21q0 -14 -13 -27q-26 9 -49 25zM219 156q0 13 9.5 22.5t23.5 9.5q12 0 21.5 -9.5t9.5 -22.5q0 -12 -9.5 -21.5t-21.5 -9.5q-13 0 -23 9.5t-10 21.5zM219 281q0 13 9.5 21.5t23.5 8.5q12 0 21.5 -8.5t9.5 -21.5q0 -12 -9.5 -21.5
t-21.5 -9.5q-13 0 -23 9.5t-10 21.5zM219 406q0 12 10 21t23 9q12 0 21.5 -9t9.5 -21t-9.5 -21.5t-21.5 -9.5q-13 0 -23 9.5t-10 21.5zM219 530q0 12 10 21.5t23 9.5q12 0 21.5 -9.5t9.5 -21.5q0 -13 -9.5 -22.5t-21.5 -9.5q-14 0 -23.5 9.5t-9.5 22.5zM219 653q0 13 9.5 22
t23.5 9q12 0 21.5 -9t9.5 -22q0 -12 -9.5 -21t-21.5 -9q-13 0 -23 9t-10 21zM219 778q0 12 10 21.5t23 9.5q12 0 21.5 -9.5t9.5 -21.5t-9.5 -21t-21.5 -9q-13 0 -23 9t-10 21zM219 903q0 12 10 21.5t23 9.5q12 0 21.5 -9.5t9.5 -21.5q0 -13 -9.5 -22t-21.5 -9q-14 0 -23.5 9
t-9.5 22zM219 1026q0 14 9.5 23.5t23.5 9.5q12 0 21.5 -10t9.5 -23q0 -12 -9.5 -21.5t-21.5 -9.5q-13 0 -23 9.5t-10 21.5zM219 1151q0 12 10 21.5t23 9.5q12 0 21.5 -9.5t9.5 -21.5t-9.5 -21.5t-21.5 -9.5q-13 0 -23 9.5t-10 21.5zM219 1276q0 12 10 21.5t23 9.5
q12 0 21.5 -9.5t9.5 -21.5q0 -13 -9.5 -22t-21.5 -9q-14 0 -23.5 9t-9.5 22zM219 1401q0 1 1 3.5t1 4.5q21 12 45 18q17 -10 17 -26q0 -13 -9.5 -23t-21.5 -10q-14 0 -23.5 10t-9.5 23zM283 94q0 13 9 22t21 9t21.5 -9t9.5 -22q0 -12 -9.5 -21.5t-21.5 -9.5t-21 9.5t-9 21.5
zM283 219q0 12 9 21.5t21 9.5t21.5 -9.5t9.5 -21.5q0 -13 -9.5 -22t-21.5 -9t-21 9t-9 22zM283 344q0 12 9 21.5t21 9.5t21.5 -9.5t9.5 -21.5q0 -13 -9.5 -23t-21.5 -10t-21 10t-9 23zM283 467q0 13 9 22t21 9t21.5 -9t9.5 -22q0 -12 -9.5 -21.5t-21.5 -9.5t-21 9.5t-9 21.5
zM283 592q0 12 9 21.5t21 9.5t21.5 -9.5t9.5 -21.5t-9.5 -21.5t-21.5 -9.5t-21 9.5t-9 21.5zM283 717q0 12 9 21.5t21 9.5t21.5 -9.5t9.5 -21.5q0 -13 -9.5 -23t-21.5 -10t-21 10t-9 23zM283 840q0 13 9 22.5t21 9.5t21.5 -9.5t9.5 -22.5q0 -12 -9.5 -21.5t-21.5 -9.5
t-21 9.5t-9 21.5zM283 965q0 12 9 21t21 9t21.5 -9t9.5 -21t-9.5 -21.5t-21.5 -9.5t-21 9.5t-9 21.5zM283 1090q0 12 9 21t21 9t21.5 -9t9.5 -21q0 -13 -9.5 -22t-21.5 -9t-21 9t-9 22zM283 1212q0 13 9 23t21 10t21.5 -10t9.5 -23q0 -12 -9.5 -21t-21.5 -9t-21 9t-9 21z
M283 1337q0 13 9 22t21 9t21.5 -9t9.5 -22q0 -12 -9.5 -21t-21.5 -9t-21 9t-9 21zM301 1434h10h15q-4 -2 -13 -2q-8 0 -12 2zM305 0q2 0 4.5 1t3.5 1l9 -2h-13h-4zM344 33q0 12 9.5 21t21.5 9q13 0 23 -9t10 -21q0 -13 -9.5 -22t-23.5 -9q-12 0 -21.5 9t-9.5 22zM344 156
q0 13 9.5 22.5t21.5 9.5q14 0 23.5 -9.5t9.5 -22.5q0 -12 -10 -21.5t-23 -9.5q-12 0 -21.5 9.5t-9.5 21.5zM344 281q0 13 9.5 21.5t21.5 8.5q14 0 23.5 -8.5t9.5 -21.5q0 -12 -10 -21.5t-23 -9.5q-12 0 -21.5 9.5t-9.5 21.5zM344 406q0 12 9.5 21t21.5 9q13 0 23 -9t10 -21
t-10 -21.5t-23 -9.5q-12 0 -21.5 9.5t-9.5 21.5zM344 530q0 12 9.5 21.5t21.5 9.5q13 0 23 -9.5t10 -21.5q0 -13 -9.5 -22.5t-23.5 -9.5q-12 0 -21.5 9.5t-9.5 22.5zM344 653q0 13 9.5 22t21.5 9q14 0 23.5 -9t9.5 -22q0 -12 -10 -21t-23 -9q-12 0 -21.5 9t-9.5 21zM344 778
q0 12 9.5 21.5t21.5 9.5q13 0 23 -9.5t10 -21.5t-10 -21t-23 -9q-12 0 -21.5 9t-9.5 21zM344 903q0 12 9.5 21.5t21.5 9.5q13 0 23 -9.5t10 -21.5q0 -13 -9.5 -22t-23.5 -9q-12 0 -21.5 9t-9.5 22zM344 1026q0 13 9.5 23t21.5 10q13 0 23 -9.5t10 -23.5q0 -12 -10 -21.5
t-23 -9.5q-12 0 -21.5 9.5t-9.5 21.5zM344 1151q0 12 9.5 21.5t21.5 9.5q13 0 23 -9.5t10 -21.5t-10 -21.5t-23 -9.5q-12 0 -21.5 9.5t-9.5 21.5zM344 1276q0 12 9.5 21.5t21.5 9.5q13 0 23 -9.5t10 -21.5q0 -13 -9.5 -22t-23.5 -9q-12 0 -21.5 9t-9.5 22zM344 1401
q0 12 9.5 21.5t21.5 9.5q13 0 23 -9.5t10 -21.5q0 -13 -10 -23t-23 -10q-12 0 -21.5 10t-9.5 23zM408 94q0 14 8.5 22.5t21.5 8.5q12 0 21.5 -9t9.5 -22q0 -12 -9.5 -21.5t-21.5 -9.5q-13 0 -21.5 9.5t-8.5 21.5zM408 219q0 12 8.5 21.5t21.5 9.5q12 0 21.5 -9.5t9.5 -21.5
q0 -13 -9.5 -22t-21.5 -9q-13 0 -21.5 8.5t-8.5 22.5zM408 344q0 12 8.5 21.5t21.5 9.5q12 0 21.5 -9.5t9.5 -21.5q0 -13 -9.5 -23t-21.5 -10q-13 0 -21.5 9.5t-8.5 23.5zM408 467q0 14 8.5 22.5t21.5 8.5q12 0 21.5 -9t9.5 -22q0 -12 -9.5 -21.5t-21.5 -9.5
q-13 0 -21.5 9.5t-8.5 21.5zM408 592q0 12 8.5 21.5t21.5 9.5q12 0 21.5 -9.5t9.5 -21.5t-9.5 -21.5t-21.5 -9.5q-13 0 -21.5 9.5t-8.5 21.5zM408 717q0 12 8.5 21.5t21.5 9.5q12 0 21.5 -9.5t9.5 -21.5q0 -13 -9.5 -23t-21.5 -10q-13 0 -21.5 9.5t-8.5 23.5zM408 840
q0 14 8.5 23t21.5 9q12 0 21.5 -9.5t9.5 -22.5q0 -12 -9.5 -21.5t-21.5 -9.5q-13 0 -21.5 9.5t-8.5 21.5zM408 965q0 12 8.5 21t21.5 9q12 0 21.5 -9t9.5 -21t-9.5 -21.5t-21.5 -9.5q-13 0 -21.5 9.5t-8.5 21.5zM408 1090q0 12 8.5 21t21.5 9q12 0 21.5 -9t9.5 -21
q0 -13 -9.5 -22t-21.5 -9q-13 0 -21.5 8.5t-8.5 22.5zM408 1212q0 14 8.5 23.5t21.5 9.5q12 0 21.5 -10t9.5 -23q0 -12 -9.5 -21t-21.5 -9q-13 0 -21.5 9t-8.5 21zM408 1337q0 14 8.5 22.5t21.5 8.5q12 0 21.5 -9t9.5 -22q0 -12 -9.5 -21t-21.5 -9q-13 0 -21.5 9t-8.5 21z
M426 1434h25q-4 -2 -13 -2q-10 0 -12 2zM430 0q1 0 3.5 1t4.5 1l8 -2h-16zM469 33q0 12 9.5 21t21.5 9t21 -9t9 -21q0 -13 -9 -22t-21 -9t-21.5 9t-9.5 22zM469 156q0 13 9.5 22.5t21.5 9.5t21 -9.5t9 -22.5q0 -12 -9 -21.5t-21 -9.5t-21.5 9.5t-9.5 21.5zM469 281
q0 13 9.5 21.5t21.5 8.5t21 -8.5t9 -21.5q0 -12 -9 -21.5t-21 -9.5t-21.5 9.5t-9.5 21.5zM469 406q0 12 9.5 21t21.5 9t21 -9t9 -21t-9 -21.5t-21 -9.5t-21.5 9.5t-9.5 21.5zM469 530q0 12 9.5 21.5t21.5 9.5t21 -9.5t9 -21.5q0 -13 -9 -22.5t-21 -9.5t-21.5 9.5t-9.5 22.5z
M469 653q0 13 9.5 22t21.5 9t21 -9t9 -22q0 -12 -9 -21t-21 -9t-21.5 9t-9.5 21zM469 778q0 12 9.5 21.5t21.5 9.5t21 -9.5t9 -21.5t-9 -21t-21 -9t-21.5 9t-9.5 21zM469 903q0 12 9.5 21.5t21.5 9.5t21 -9.5t9 -21.5q0 -13 -9 -22t-21 -9t-21.5 9t-9.5 22zM469 1026
q0 13 9.5 23t21.5 10t21 -10t9 -23q0 -12 -9 -21.5t-21 -9.5t-21.5 9.5t-9.5 21.5zM469 1151q0 12 9.5 21.5t21.5 9.5t21 -9.5t9 -21.5t-9 -21.5t-21 -9.5t-21.5 9.5t-9.5 21.5zM469 1276q0 12 9.5 21.5t21.5 9.5t21 -9.5t9 -21.5q0 -13 -9 -22t-21 -9t-21.5 9t-9.5 22z
M469 1401q0 12 9.5 21.5t21.5 9.5t21 -9.5t9 -21.5q0 -13 -9 -23t-21 -10t-21.5 10t-9.5 23zM530 94q0 13 9.5 22t21.5 9q14 0 23.5 -9t9.5 -22q0 -12 -10 -21.5t-23 -9.5q-12 0 -21.5 9.5t-9.5 21.5zM530 219q0 12 9.5 21.5t21.5 9.5q13 0 23 -9.5t10 -21.5q0 -13 -9.5 -22
t-23.5 -9q-12 0 -21.5 9t-9.5 22zM530 344q0 12 9.5 21.5t21.5 9.5q13 0 23 -9.5t10 -21.5q0 -14 -10 -23.5t-23 -9.5q-12 0 -21.5 10t-9.5 23zM530 467q0 13 9.5 22t21.5 9q14 0 23.5 -9t9.5 -22q0 -12 -10 -21.5t-23 -9.5q-12 0 -21.5 9.5t-9.5 21.5zM530 592
q0 12 9.5 21.5t21.5 9.5q13 0 23 -9.5t10 -21.5t-10 -21.5t-23 -9.5q-12 0 -21.5 9.5t-9.5 21.5zM530 717q0 12 9.5 21.5t21.5 9.5q13 0 23 -9.5t10 -21.5q0 -13 -10 -23t-23 -10q-12 0 -21.5 10t-9.5 23zM530 840q0 13 9.5 22.5t21.5 9.5q14 0 23.5 -9.5t9.5 -22.5
q0 -12 -10 -21.5t-23 -9.5q-12 0 -21.5 9.5t-9.5 21.5zM530 1090q0 12 9.5 21t21.5 9q13 0 23 -9t10 -21q0 -13 -9.5 -22t-23.5 -9q-12 0 -21.5 9t-9.5 22zM530 1212q0 13 9.5 23t21.5 10q13 0 23 -9.5t10 -23.5q0 -12 -10 -21t-23 -9q-12 0 -21.5 9t-9.5 21zM530 1337
q0 13 9.5 22t21.5 9q14 0 23.5 -9t9.5 -22q0 -12 -10 -21t-23 -9q-12 0 -21.5 9t-9.5 21zM549 1434h26q-4 -2 -14 -2q-8 0 -12 2zM553 0q2 0 4.5 1t3.5 1q2 0 5 -1t5 -1h-18zM594 33q0 12 9 21t22 9q12 0 21 -9t9 -21q0 -13 -9 -22t-21 -9q-13 0 -22 9t-9 22zM594 156
q0 14 9 23t22 9q12 0 21 -9.5t9 -22.5q0 -12 -9 -21.5t-21 -9.5q-13 0 -22 9.5t-9 21.5zM594 281q0 13 8.5 21.5t22.5 8.5q12 0 21 -8.5t9 -21.5q0 -12 -9 -21.5t-21 -9.5q-13 0 -22 9.5t-9 21.5zM594 406q0 12 9 21t22 9q12 0 21 -9t9 -21t-9 -21.5t-21 -9.5q-13 0 -22 9.5
t-9 21.5zM594 530q0 12 9 21.5t22 9.5q12 0 21 -9.5t9 -21.5q0 -13 -9 -22.5t-21 -9.5q-13 0 -22 9t-9 23zM594 653q0 13 9 22t22 9q12 0 21 -9t9 -22q0 -12 -9 -21t-21 -9q-13 0 -22 9t-9 21zM594 778q0 12 9 21.5t22 9.5q12 0 21 -9.5t9 -21.5t-9 -21t-21 -9q-13 0 -22 9
t-9 21zM594 903q0 12 9 21.5t22 9.5q12 0 21 -9.5t9 -21.5q0 -13 -9 -22t-21 -9q-13 0 -22 9t-9 22zM594 1026q0 14 9 23.5t22 9.5q12 0 21 -10t9 -23q0 -12 -9 -21.5t-21 -9.5q-13 0 -22 9.5t-9 21.5zM594 1151q0 12 9 21.5t22 9.5q12 0 21 -9.5t9 -21.5t-9 -21.5t-21 -9.5
q-13 0 -22 9.5t-9 21.5zM594 1276q0 12 9 21.5t22 9.5q12 0 21 -9.5t9 -21.5q0 -13 -9 -22t-21 -9q-13 0 -22 8.5t-9 22.5zM594 1401q0 12 9 21.5t22 9.5q12 0 21 -9.5t9 -21.5q0 -13 -9 -23t-21 -10q-13 0 -22 9.5t-9 23.5zM655 94q0 13 9.5 22t21.5 9t21.5 -9t9.5 -22
q0 -12 -9.5 -21.5t-21.5 -9.5t-21.5 9.5t-9.5 21.5zM655 219q0 12 9.5 21.5t21.5 9.5t21.5 -9.5t9.5 -21.5q0 -13 -9.5 -22t-21.5 -9t-21.5 9t-9.5 22zM655 344q0 12 9.5 21.5t21.5 9.5t21.5 -9.5t9.5 -21.5q0 -13 -9.5 -23t-21.5 -10t-21.5 10t-9.5 23zM655 467
q0 13 9.5 22t21.5 9t21.5 -9t9.5 -22q0 -12 -9.5 -21.5t-21.5 -9.5t-21.5 9.5t-9.5 21.5zM655 592q0 12 9.5 21.5t21.5 9.5t21.5 -9.5t9.5 -21.5t-9.5 -21.5t-21.5 -9.5t-21.5 9.5t-9.5 21.5zM655 717q0 12 9.5 21.5t21.5 9.5t21.5 -9.5t9.5 -21.5q0 -13 -9.5 -23t-21.5 -10
t-21.5 10t-9.5 23zM655 840q0 13 9.5 22.5t21.5 9.5t21.5 -9.5t9.5 -22.5q0 -12 -9.5 -21.5t-21.5 -9.5t-21.5 9.5t-9.5 21.5zM655 965q0 12 9.5 21t21.5 9t21.5 -9t9.5 -21t-9.5 -21.5t-21.5 -9.5t-21.5 9.5t-9.5 21.5zM655 1090q0 12 9.5 21t21.5 9t21.5 -9t9.5 -21
q0 -13 -9.5 -22t-21.5 -9t-21.5 9t-9.5 22zM655 1212q0 13 9.5 23t21.5 10t21.5 -10t9.5 -23q0 -12 -9.5 -21t-21.5 -9t-21.5 9t-9.5 21zM655 1337q0 13 9.5 22t21.5 9t21.5 -9t9.5 -22q0 -12 -9.5 -21t-21.5 -9t-21.5 9t-9.5 21zM674 1434q14 0 22 -2h-10q-8 0 -12 2z
M680 0q1 0 3 1t3 1q2 0 4 -2h-10zM717 33q0 12 9.5 21t21.5 9q13 0 22.5 -9t9.5 -21q0 -15 -10 -25q-15 0 -35 -4q-18 11 -18 29zM717 156q0 13 9.5 22.5t21.5 9.5q14 0 23 -9t9 -23q0 -12 -9.5 -21.5t-22.5 -9.5q-12 0 -21.5 9.5t-9.5 21.5zM717 281q0 13 9.5 21.5
t21.5 8.5q14 0 23 -8.5t9 -21.5q0 -12 -9.5 -21.5t-22.5 -9.5q-12 0 -21.5 9.5t-9.5 21.5zM717 406q0 12 9.5 21t21.5 9q13 0 22.5 -9t9.5 -21t-9.5 -21.5t-22.5 -9.5q-12 0 -21.5 9.5t-9.5 21.5zM717 530q0 12 9.5 21.5t21.5 9.5q13 0 22.5 -9.5t9.5 -21.5q0 -14 -9 -23
t-23 -9q-12 0 -21.5 9.5t-9.5 22.5zM717 653q0 13 9.5 22t21.5 9q14 0 23 -9t9 -22q0 -12 -9.5 -21t-22.5 -9q-12 0 -21.5 9t-9.5 21zM717 778q0 12 9.5 21.5t21.5 9.5q13 0 22.5 -9.5t9.5 -21.5t-9.5 -21t-22.5 -9q-12 0 -21.5 9t-9.5 21zM717 903q0 12 9.5 21.5t21.5 9.5
q13 0 22.5 -9.5t9.5 -21.5q0 -13 -9 -22t-23 -9q-12 0 -21.5 9t-9.5 22zM717 1026q0 13 9.5 23t21.5 10q13 0 22.5 -9.5t9.5 -23.5q0 -12 -9.5 -21.5t-22.5 -9.5q-12 0 -21.5 9.5t-9.5 21.5zM717 1151q0 12 9.5 21.5t21.5 9.5q13 0 22.5 -9.5t9.5 -21.5t-9.5 -21.5
t-22.5 -9.5q-12 0 -21.5 9.5t-9.5 21.5zM717 1276q0 12 9.5 21.5t21.5 9.5q13 0 22.5 -9.5t9.5 -21.5q0 -13 -9 -22t-23 -9q-12 0 -21.5 9t-9.5 22zM717 1401q0 19 20 29q25 -5 29 -5q14 -11 14 -24q0 -14 -9.5 -23.5t-22.5 -9.5q-12 0 -21.5 10t-9.5 23zM780 94
q0 14 9 22.5t22 8.5q12 0 21.5 -9t9.5 -22q0 -12 -9.5 -21.5t-21.5 -9.5q-13 0 -22 9.5t-9 21.5zM780 219q0 12 9 21.5t22 9.5q12 0 21.5 -9.5t9.5 -21.5q0 -13 -9.5 -22t-21.5 -9q-13 0 -22 9t-9 22zM780 344q0 12 9 21.5t22 9.5q12 0 21.5 -9.5t9.5 -21.5q0 -13 -9.5 -23
t-21.5 -10q-13 0 -22 9.5t-9 23.5zM780 467q0 13 9 22t22 9q12 0 21.5 -9t9.5 -22q0 -12 -9.5 -21.5t-21.5 -9.5q-13 0 -22 9.5t-9 21.5zM780 592q0 12 9 21.5t22 9.5q12 0 21.5 -9.5t9.5 -21.5t-9.5 -21.5t-21.5 -9.5q-13 0 -22 9.5t-9 21.5zM780 717q0 12 9 21.5t22 9.5
q12 0 21.5 -9.5t9.5 -21.5q0 -13 -9.5 -23t-21.5 -10q-13 0 -22 9.5t-9 23.5zM780 840q0 14 9 23t22 9q12 0 21.5 -9.5t9.5 -22.5q0 -12 -9.5 -21.5t-21.5 -9.5q-13 0 -22 9.5t-9 21.5zM780 965q0 12 9 21t22 9q12 0 21.5 -9t9.5 -21t-9.5 -21.5t-21.5 -9.5q-13 0 -22 9.5
t-9 21.5zM780 1090q0 12 9 21t22 9q12 0 21.5 -9t9.5 -21q0 -13 -9.5 -22t-21.5 -9q-13 0 -22 8.5t-9 22.5zM780 1212q0 14 9 23.5t22 9.5q12 0 21.5 -10t9.5 -23q0 -12 -9.5 -21t-21.5 -9q-13 0 -22 9t-9 21zM780 1337q0 13 9 22t22 9q12 0 21.5 -9t9.5 -22q0 -12 -9.5 -21
t-21.5 -9q-13 0 -22 9t-9 21zM842 25v8q0 12 9 21t21 9q22 0 29 -20zM842 156q0 13 9 22.5t21 9.5q13 0 22 -9t9 -23q0 -12 -9 -21.5t-22 -9.5q-12 0 -21 9.5t-9 21.5zM842 281q0 13 9 21.5t21 8.5q14 0 22.5 -8.5t8.5 -21.5q0 -12 -9 -21.5t-22 -9.5q-12 0 -21 9.5t-9 21.5
zM842 406q0 12 9 21t21 9q13 0 22 -9t9 -21t-9 -21.5t-22 -9.5q-12 0 -21 9.5t-9 21.5zM842 530q0 12 9 21.5t21 9.5q13 0 22 -9.5t9 -21.5q0 -14 -9 -23t-22 -9q-12 0 -21 9.5t-9 22.5zM842 653q0 13 9 22t21 9q14 0 22.5 -9t8.5 -22q0 -12 -9 -21t-22 -9q-12 0 -21 9
t-9 21zM842 778q0 12 9 21.5t21 9.5q13 0 22 -9.5t9 -21.5t-9 -21t-22 -9q-12 0 -21 9t-9 21zM842 903q0 12 9 21.5t21 9.5q13 0 22 -9.5t9 -21.5q0 -13 -8.5 -22t-22.5 -9q-12 0 -21 9t-9 22zM842 1026q0 13 9 23t21 10q13 0 22 -9.5t9 -23.5q0 -12 -9 -21.5t-22 -9.5
q-12 0 -21 9.5t-9 21.5zM842 1151q0 12 9 21.5t21 9.5q13 0 22 -9.5t9 -21.5t-9 -21.5t-22 -9.5q-12 0 -21 9.5t-9 21.5zM842 1276q0 12 9 21.5t21 9.5q13 0 22 -9.5t9 -21.5q0 -14 -8.5 -22.5t-22.5 -8.5q-12 0 -21 9t-9 22zM842 1401q0 4 2 8l59 -18q-8 -23 -31 -23
q-12 0 -21 10t-9 23zM903 94q0 13 9.5 22t23.5 9q12 0 21.5 -9t9.5 -22q0 -12 -9.5 -21.5t-21.5 -9.5q-13 0 -23 9.5t-10 21.5zM903 219q0 12 10 21.5t23 9.5q12 0 21.5 -9.5t9.5 -21.5q0 -13 -9.5 -22t-21.5 -9q-14 0 -23.5 9t-9.5 22zM903 344q0 12 10 21.5t23 9.5
q12 0 21.5 -9.5t9.5 -21.5q0 -13 -9.5 -23t-21.5 -10q-14 0 -23.5 9.5t-9.5 23.5zM903 467q0 13 9.5 22t23.5 9q12 0 21.5 -9t9.5 -22q0 -12 -9.5 -21.5t-21.5 -9.5q-13 0 -23 9.5t-10 21.5zM903 592q0 12 10 21.5t23 9.5q12 0 21.5 -9.5t9.5 -21.5t-9.5 -21.5t-21.5 -9.5
q-13 0 -23 9.5t-10 21.5zM903 717q0 12 10 21.5t23 9.5q12 0 21.5 -9.5t9.5 -21.5q0 -13 -9.5 -23t-21.5 -10q-14 0 -23.5 10t-9.5 23zM903 840q0 13 9.5 22.5t23.5 9.5q12 0 21.5 -9.5t9.5 -22.5q0 -12 -9.5 -21.5t-21.5 -9.5q-13 0 -23 9.5t-10 21.5zM903 965q0 12 10 21
t23 9q12 0 21.5 -9t9.5 -21t-9.5 -21.5t-21.5 -9.5q-13 0 -23 9.5t-10 21.5zM903 1090q0 12 10 21t23 9q12 0 21.5 -9t9.5 -21q0 -13 -9.5 -22t-21.5 -9q-14 0 -23.5 9t-9.5 22zM903 1212q0 14 9.5 23.5t23.5 9.5q12 0 21.5 -10t9.5 -23q0 -12 -9.5 -21t-21.5 -9
q-13 0 -23 9t-10 21zM903 1337q0 13 9.5 22t23.5 9q12 0 21.5 -9t9.5 -22q0 -12 -9.5 -21t-21.5 -9q-13 0 -23 9t-10 21zM967 156q0 14 8.5 23t21.5 9q12 0 21.5 -9.5t9.5 -22.5q0 -12 -9.5 -21.5t-21.5 -9.5q-13 0 -21.5 9.5t-8.5 21.5zM967 281q0 13 8.5 21.5t21.5 8.5
q12 0 21.5 -8.5t9.5 -21.5q0 -12 -9.5 -21.5t-21.5 -9.5q-13 0 -21.5 9.5t-8.5 21.5zM967 406q0 12 8.5 21t21.5 9q12 0 21.5 -9t9.5 -21t-9.5 -21.5t-21.5 -9.5q-13 0 -21.5 9.5t-8.5 21.5zM967 530q0 12 8.5 21.5t21.5 9.5q12 0 21.5 -9.5t9.5 -21.5q0 -13 -9.5 -22.5
t-21.5 -9.5q-13 0 -21.5 9t-8.5 23zM967 653q0 14 8.5 22.5t21.5 8.5q12 0 21.5 -9t9.5 -22q0 -12 -9.5 -21t-21.5 -9q-13 0 -21.5 9t-8.5 21zM967 778q0 12 8.5 21.5t21.5 9.5q12 0 21.5 -9.5t9.5 -21.5t-9.5 -21t-21.5 -9q-13 0 -21.5 9t-8.5 21zM967 903q0 12 8.5 21.5
t21.5 9.5q12 0 21.5 -9.5t9.5 -21.5q0 -13 -9.5 -22t-21.5 -9q-13 0 -21.5 8.5t-8.5 22.5zM967 1026q0 14 8.5 23.5t21.5 9.5q12 0 21.5 -10t9.5 -23q0 -12 -9.5 -21.5t-21.5 -9.5q-13 0 -21.5 9.5t-8.5 21.5zM967 1151q0 12 8.5 21.5t21.5 9.5q12 0 21.5 -9.5t9.5 -21.5
t-9.5 -21.5t-21.5 -9.5q-13 0 -21.5 9.5t-8.5 21.5zM967 1276q0 12 8.5 21.5t21.5 9.5q12 0 21.5 -9.5t9.5 -21.5q0 -13 -9.5 -22t-21.5 -9q-13 0 -21.5 8.5t-8.5 22.5zM1028 219q0 12 9.5 21.5t21.5 9.5q13 0 22 -9.5t9 -21.5q0 -13 -9 -22t-22 -9q-12 0 -21.5 9t-9.5 22z
M1028 344q0 12 9.5 21.5t21.5 9.5q13 0 22 -9.5t9 -21.5q0 -14 -9 -23.5t-22 -9.5q-12 0 -21.5 10t-9.5 23zM1028 467q0 13 9.5 22t21.5 9q13 0 22 -9t9 -22q0 -12 -9 -21.5t-22 -9.5q-12 0 -21.5 9.5t-9.5 21.5zM1028 592q0 12 9.5 21.5t21.5 9.5q13 0 22 -9.5t9 -21.5
t-9 -21.5t-22 -9.5q-12 0 -21.5 9.5t-9.5 21.5zM1028 717q0 12 9.5 21.5t21.5 9.5q13 0 22 -9.5t9 -21.5q0 -14 -9 -23.5t-22 -9.5q-12 0 -21.5 10t-9.5 23zM1028 840q0 13 9.5 22.5t21.5 9.5q13 0 22 -9t9 -23q0 -12 -9 -21.5t-22 -9.5q-12 0 -21.5 9.5t-9.5 21.5z
M1028 965q0 12 9.5 21t21.5 9q13 0 22 -9t9 -21t-9 -21.5t-22 -9.5q-12 0 -21.5 9.5t-9.5 21.5zM1028 1090q0 12 9.5 21t21.5 9q13 0 22 -9t9 -21q0 -14 -9 -22.5t-22 -8.5q-12 0 -21.5 9t-9.5 22zM1028 1212q0 13 9.5 23t21.5 10q13 0 22 -9.5t9 -23.5q0 -12 -9 -21t-22 -9
q-12 0 -21.5 9t-9.5 21zM1030 106q8 19 29 19h2q-5 -3 -15.5 -9.5t-15.5 -9.5zM1030 1329q5 -4 16.5 -11t16.5 -11h-4q-23 0 -29 22zM1090 156q0 14 9 23t23 9q3 0 15 -4l-45 -37q0 2 -1 5t-1 4zM1090 281q0 13 9 21.5t23 8.5q12 0 21.5 -8.5t9.5 -21.5q0 -12 -9.5 -21.5
t-21.5 -9.5q-13 0 -22.5 9.5t-9.5 21.5zM1090 406q0 12 9.5 21t22.5 9q12 0 21.5 -9t9.5 -21t-9.5 -21.5t-21.5 -9.5q-13 0 -22.5 9.5t-9.5 21.5zM1090 530q0 12 9.5 21.5t22.5 9.5q12 0 21.5 -9.5t9.5 -21.5q0 -13 -9.5 -22.5t-21.5 -9.5q-14 0 -23 9t-9 23zM1090 653
q0 13 9 22t23 9q12 0 21.5 -9t9.5 -22q0 -12 -9.5 -21t-21.5 -9q-13 0 -22.5 9t-9.5 21zM1090 778q0 12 9.5 21.5t22.5 9.5q12 0 21.5 -9.5t9.5 -21.5t-9.5 -21t-21.5 -9q-13 0 -22.5 9t-9.5 21zM1090 903q0 12 9.5 21.5t22.5 9.5q12 0 21.5 -9.5t9.5 -21.5q0 -13 -9.5 -22
t-21.5 -9q-14 0 -23 9t-9 22zM1090 1026q0 14 9.5 23.5t22.5 9.5q12 0 21.5 -10t9.5 -23q0 -12 -9.5 -21.5t-21.5 -9.5q-13 0 -22.5 9.5t-9.5 21.5zM1090 1151q0 12 9.5 21.5t22.5 9.5q12 0 21.5 -9.5t9.5 -21.5t-9.5 -21.5t-21.5 -9.5q-13 0 -22.5 9.5t-9.5 21.5z
M1090 1276q0 2 1 5t1 5q15 -11 45 -37q-4 -4 -15 -4q-14 0 -23 9t-9 22zM1153 219q0 12 9.5 21.5t21.5 9.5q6 0 14 -4l-41 -43q-4 6 -4 16zM1153 344q0 12 9.5 21.5t21.5 9.5t21 -9.5t9 -21.5q0 -13 -9 -23t-21 -10t-21.5 10t-9.5 23zM1153 467q0 13 9.5 22t21.5 9t21 -9
t9 -22q0 -12 -9 -21.5t-21 -9.5t-21.5 9.5t-9.5 21.5zM1153 592q0 12 9.5 21.5t21.5 9.5t21 -9.5t9 -21.5t-9 -21.5t-21 -9.5t-21.5 9.5t-9.5 21.5zM1153 717q0 12 9.5 21.5t21.5 9.5t21 -9.5t9 -21.5q0 -13 -9 -23t-21 -10t-21.5 10t-9.5 23zM1153 840q0 13 9.5 22.5
t21.5 9.5t21 -9.5t9 -22.5q0 -12 -9 -21.5t-21 -9.5t-21.5 9.5t-9.5 21.5zM1153 965q0 12 9.5 21t21.5 9t21 -9t9 -21t-9 -21.5t-21 -9.5t-21.5 9.5t-9.5 21.5zM1153 1090q0 12 9.5 21t21.5 9t21 -9t9 -21q0 -13 -9 -22t-21 -9t-21.5 9t-9.5 22zM1153 1212q0 9 4 17
q24 -21 41 -43q-8 -4 -14 -4q-12 0 -21.5 9t-9.5 21zM1214 281q0 13 9.5 21.5t21.5 8.5h2q-25 -35 -30 -41q-3 6 -3 11zM1214 406q0 12 9.5 21t21.5 9q13 0 22 -9t9 -21t-9 -21.5t-22 -9.5q-12 0 -21.5 9.5t-9.5 21.5zM1214 530q0 12 9.5 21.5t21.5 9.5q13 0 22 -9.5
t9 -21.5q0 -14 -9 -23t-22 -9q-12 0 -21.5 9.5t-9.5 22.5zM1214 653q0 13 9.5 22t21.5 9q13 0 22 -9t9 -22q0 -12 -9 -21t-22 -9q-12 0 -21.5 9t-9.5 21zM1214 778q0 12 9.5 21.5t21.5 9.5q13 0 22 -9.5t9 -21.5t-9 -21t-22 -9q-12 0 -21.5 9t-9.5 21zM1214 903
q0 12 9.5 21.5t21.5 9.5q13 0 22 -9.5t9 -21.5q0 -13 -9 -22t-22 -9q-12 0 -21.5 9t-9.5 22zM1214 1026q0 13 9.5 23t21.5 10q13 0 22 -9.5t9 -23.5q0 -12 -9 -21.5t-22 -9.5q-12 0 -21.5 9.5t-9.5 21.5zM1214 1151q0 2 1.5 6t1.5 6q8 -9 32 -43h-4q-12 0 -21.5 9.5
t-9.5 21.5zM1276 467q0 13 9.5 22t23.5 9q15 0 26 -15l-18 -45q-2 -2 -8 -2q-13 0 -23 9.5t-10 21.5zM1276 592q0 12 10 21.5t23 9.5q12 0 21 -9.5t9 -21.5t-9 -21.5t-21 -9.5q-13 0 -23 9.5t-10 21.5zM1276 717q0 12 10 21.5t23 9.5q12 0 21 -9.5t9 -21.5q0 -13 -9 -23
t-21 -10q-13 0 -23 10t-10 23zM1276 840q0 13 9.5 22.5t23.5 9.5q12 0 21 -9.5t9 -22.5q0 -12 -9 -21.5t-21 -9.5q-13 0 -23 9.5t-10 21.5zM1276 965q0 12 10 21t23 9q6 0 10 -2q11 -26 16 -43q-10 -16 -26 -16q-13 0 -23 9.5t-10 21.5zM1339 530q0 20 17 27l-13 -45
q-4 12 -4 18zM1339 653q0 13 9.5 22t21.5 9h4q-1 -10 -3 -30.5t-3 -30.5q-12 2 -20.5 10t-8.5 20zM1339 778q0 12 8.5 21.5t20.5 9.5l6 -61h-4q-12 0 -21.5 9t-9.5 21zM1339 903q0 10 7 17q8 -26 10 -46q-17 7 -17 29z" />
    <glyph glyph-name="E.ss01" horiz-adv-x="1165" 
d="M231 0q-41 0 -70.5 29t-29.5 69v340q0 102 51 191t139.5 140.5t190.5 45.5h401q42 0 71.5 -28.5t29.5 -69.5t-30 -70t-71 -29h-401q-75 0 -127.5 -53t-52.5 -127v-239h663q42 0 71.5 -29.5t29.5 -71.5q0 -40 -29.5 -69t-71.5 -29h-764zM131 926v409q0 40 29.5 69.5
t70.5 29.5h764q42 0 71.5 -29.5t29.5 -69.5q0 -41 -29 -70.5t-72 -29.5h-663v-309q0 -40 -30 -69.5t-71 -29.5t-70.5 29.5t-29.5 69.5z" />
    <glyph glyph-name="H.ss01" horiz-adv-x="1341" 
d="M131 924q0 -41 29.5 -71t70.5 -30t71 30t30 71v411q0 40 -30 69.5t-71 29.5t-70.5 -29.5t-29.5 -69.5v-411zM131 98v367q0 148 103 252t247 98h379q63 0 107.5 45.5t44.5 108.5v366q0 40 29 69.5t69 29.5q41 0 70.5 -29.5t29.5 -69.5v-1237q0 -40 -29.5 -69t-70.5 -29
q-40 0 -69 29t-29 69v586q-61 -68 -152 -68h-379q-63 0 -106 -44t-43 -107v-367q0 -40 -30 -69t-71 -29t-70.5 29t-29.5 69z" />
    <glyph glyph-name="J.ss01" horiz-adv-x="1320" 
d="M635 0q-206 0 -368.5 132.5t-203.5 334.5q-9 41 14.5 76.5t65.5 44.5q43 9 78.5 -14t44.5 -66q28 -131 132 -216t237 -85q156 0 266.5 110.5t110.5 266.5v747q0 43 30.5 74t71.5 31q43 0 74 -31t31 -74v-747q0 -158 -78.5 -292.5t-213 -213t-292.5 -78.5z" />
    <glyph glyph-name="K.ss01" horiz-adv-x="1243" 
d="M1059 0q-42 0 -70 31l-444 442q-100 103 -100 245t100 243l444 446q28 28 69 28t70 -28q29 -29 30 -70.5t-28 -70.5l-442 -443q-44 -43 -44 -105t44 -106l442 -442q29 -31 28 -72.5t-30 -70.5q-30 -27 -69 -27zM121 98v1237q0 41 29.5 71t70.5 30t71 -30t30 -71v-1237
q0 -40 -30 -69t-71 -29t-70.5 29t-29.5 69z" />
    </font>
</defs>
</svg>
