<?xml version="1.0" standalone="no"?>
<!DOCTYPE svg PUBLIC "-//W3C//DTD SVG 1.1//EN" "http://www.w3.org/Graphics/SVG/1.1/DTD/svg11.dtd" >
<svg xmlns="http://www.w3.org/2000/svg" xmlns:xlink="http://www.w3.org/1999/xlink" version="1.1">
<metadata>
Created by FontForge 20170731 at Thu Jan 26 18:25:51 2023
 By Aleksey,,,
Copyright (c) 2019 by Andrew Footit. All rights reserved.
</metadata>
<defs>
<font id="ModulusProEDO-Regular" horiz-adv-x="1015" >
  <font-face 
    font-family="Modulus Pro EDO"
    font-weight="400"
    font-stretch="normal"
    units-per-em="2048"
    panose-1="0 0 0 0 0 0 0 0 0 0"
    ascent="1638"
    descent="-410"
    x-height="959"
    cap-height="1438"
    bbox="-234.786 -471 2757 1845"
    underline-thickness="102"
    underline-position="-358"
    unicode-range="U+0020-25CA"
  />
<missing-glyph horiz-adv-x="1034" 
d="M848 1659v-2069h-655v2069h655zM346 -266h342v67h-211l146 97h65v69h-342v-69h143l-143 -97v-67zM346 14h342v234h-342v-234zM346 373h342v233h-207v-117h72v50h68v-99h-207v166h-68v-233zM346 651h342v207h-67v-137h-275v-70zM346 770h207v143h135v70h-342v-70h135v-75
h-135v-68zM346 1038h342v70h-135v145h-207v-215zM346 1307h342v69h-135v76h135v68h-340v-68h133v-76h-135v-69zM414 82v98h207v-98h-207zM414 1108v76h67v-76h-67z" />
    <glyph glyph-name=".notdef" horiz-adv-x="1034" 
d="M848 1659v-2069h-655v2069h655zM346 -266h342v67h-211l146 97h65v69h-342v-69h143l-143 -97v-67zM346 14h342v234h-342v-234zM346 373h342v233h-207v-117h72v50h68v-99h-207v166h-68v-233zM346 651h342v207h-67v-137h-275v-70zM346 770h207v143h135v70h-342v-70h135v-75
h-135v-68zM346 1038h342v70h-135v145h-207v-215zM346 1307h342v69h-135v76h135v68h-340v-68h133v-76h-135v-69zM414 82v98h207v-98h-207zM414 1108v76h67v-76h-67z" />
    <glyph glyph-name=".null" horiz-adv-x="0" 
 />
    <glyph glyph-name="nonmarkingreturn" horiz-adv-x="682" 
 />
    <glyph glyph-name="space" unicode=" " horiz-adv-x="681" 
 />
    <glyph glyph-name="space" unicode="&#xa0;" horiz-adv-x="681" 
 />
    <glyph glyph-name="exclam" unicode="!" horiz-adv-x="333" 
d="M168 0q-32 0 -54 23t-22 55q0 31 22 52.5t54 21.5q31 0 52.5 -21.5t21.5 -52.5q0 -32 -21.5 -55t-52.5 -23zM113 283v1095q0 23 15.5 39.5t37.5 16.5q23 0 40 -16.5t17 -39.5v-1095q0 -23 -16.5 -38.5t-40.5 -15.5q-22 0 -37.5 15.5t-15.5 38.5z" />
    <glyph glyph-name="quotedbl" unicode="&#x22;" horiz-adv-x="487" 
d="M109 1180q-12 5 -20 19.5t-5 29.5l39 209q6 27 28 40.5t46 10.5q27 -3 43.5 -25.5t7.5 -54.5l-72 -207q-8 -19 -28 -25.5t-39 3.5zM285 1229l39 209q6 28 27 41t46 10q27 -3 43.5 -25.5t8.5 -54.5l-74 -207q-8 -19 -27.5 -25.5t-38.5 3.5q-14 5 -21 19.5t-3 29.5z" />
    <glyph glyph-name="numbersign" unicode="#" horiz-adv-x="1357" 
d="M41 479q0 22 15.5 37.5t35.5 15.5h240l76 365h-232q-20 0 -35.5 15.5t-15.5 37.5q0 21 15 36.5t36 17.5h252l80 389q4 23 23 35.5t42 7.5q22 -4 34 -23.5t7 -42.5l-73 -366h411l80 389q3 23 22.5 35.5t41.5 7.5q23 -4 35.5 -23.5t7.5 -42.5l-74 -366h201q21 0 36 -16
t15 -38t-14 -37.5t-37 -15.5h-224l-73 -365h213q21 0 36 -15t15 -36q0 -22 -14.5 -37.5t-36.5 -15.5h-234l-80 -389q-3 -20 -18 -31.5t-35 -11.5q-27 0 -42.5 19t-12.5 46l76 367h-412l-80 -389q-3 -20 -17.5 -31.5t-35.5 -11.5q-27 0 -42.5 19t-10.5 46l73 367h-219
q-19 0 -35 15t-16 36zM444 532h412l74 365h-412z" />
    <glyph glyph-name="dollar" unicode="$" horiz-adv-x="1230" 
d="M604 -121q-19 0 -32 12.5t-13 32.5v66q-87 6 -164 31.5t-134 64t-96 74.5t-69 76q-15 14 -16 36t14 39q15 15 38 16t38 -14q56 -77 153.5 -139.5t235.5 -73.5v596q-282 52 -387 197q-73 101 -51 240q25 127 141 216.5t297 96.5v57q0 20 13 32.5t32 12.5q20 0 33.5 -12.5
t13.5 -32.5v-59q218 -22 357 -207q17 -15 18 -38t-14 -40q-15 -15 -38 -15t-38 15q-115 151 -285 172v-538q117 -20 204.5 -57.5t137 -80t79 -95t37.5 -97.5t5 -92q-4 -67 -33 -130.5t-82.5 -119t-143.5 -91.5t-204 -42v-64q0 -20 -13.5 -32.5t-33.5 -12.5zM229 1114
q-11 -64 8.5 -115.5t66.5 -88t109.5 -61.5t145.5 -42v528q-141 -6 -228 -71.5t-102 -149.5zM651 100q88 4 156.5 29.5t109 65.5t62.5 86.5t25 97.5q7 117 -81.5 192t-271.5 109v-580z" />
    <glyph glyph-name="percent" unicode="%" horiz-adv-x="1032" 
d="M139 0q-14 0 -26 6q-20 12 -26.5 33.5t5.5 40.5l735 1331q10 20 32 26t42 -5q20 -10 26 -31t-3 -41l-738 -1333q-17 -27 -47 -27zM70 1135q0 99 64.5 170t154.5 71q89 0 152 -71t63 -170q0 -100 -63 -171t-152 -71q-91 0 -155 71t-64 171zM160 1135q0 -64 37.5 -109
t91.5 -45q52 0 89.5 45t37.5 109q0 62 -38 106.5t-89 44.5q-54 0 -91.5 -44t-37.5 -107zM512 281q0 99 64.5 170t154.5 71q89 0 152 -71t63 -170q0 -100 -63 -171t-152 -71q-91 0 -155 71t-64 171zM602 281q0 -64 37.5 -109t91.5 -45q53 0 90 45t37 109q0 63 -37 107t-90 44
q-54 0 -91.5 -44t-37.5 -107z" />
    <glyph glyph-name="ampersand" unicode="&#x26;" horiz-adv-x="1290" 
d="M584 -14q-130 0 -241.5 57.5t-178.5 158t-72 222.5q-6 150 59 266t211 223q-126 197 -61 344q32 73 97 123t145 62q108 17 215 -34t178 -151q12 -18 10.5 -40t-18.5 -35q-19 -15 -40.5 -12.5t-33.5 22.5q-57 80 -136.5 116.5t-158.5 24.5q-50 -6 -94 -38t-66 -78
q-13 -32 -15.5 -63.5t15.5 -83t60 -112.5q43 -58 125 -160t197.5 -242.5t174.5 -213.5q28 42 52 91t38.5 90.5t24.5 75.5t15.5 57t5.5 24q6 22 24.5 32.5t38.5 4.5q25 -6 36 -25.5t5 -42.5q-59 -235 -166 -391q152 -169 152 -172q17 -15 15.5 -37t-19.5 -37q-18 -12 -39 -12
q-24 0 -39 18l-135 154q-161 -186 -381 -186zM201 428q5 -140 115.5 -238t267.5 -98q176 0 309 162q-76 90 -243 295t-226 274q-124 -93 -177 -184.5t-46 -210.5z" />
    <glyph glyph-name="quotesingle" unicode="'" horiz-adv-x="241" 
d="M63 1217q-13 3 -21 18t-3 29l39 211q6 27 27.5 40.5t46.5 10.5q27 -3 43.5 -25.5t7.5 -54.5l-72 -207q-9 -19 -29 -25.5t-39 3.5z" />
    <glyph glyph-name="parenleft" unicode="(" horiz-adv-x="442" 
d="M336 -35q-17 0 -29 12q-115 110 -180.5 312t-65.5 428q0 218 61.5 415t168.5 308q12 13 31 13.5t32 -11.5q14 -12 14 -31t-14 -33q-90 -96 -145 -276t-55 -385q0 -213 59.5 -396.5t155.5 -275.5q12 -13 12.5 -32.5t-10.5 -32.5q-19 -15 -35 -15z" />
    <glyph glyph-name="parenright" unicode=")" horiz-adv-x="442" 
d="M106 -35q-17 0 -32 15q-26 30 2 65q94 95 154.5 278.5t60.5 393.5q0 205 -55 382.5t-148 278.5q-12 14 -12 33t12 31q13 12 33.5 11.5t32.5 -13.5q107 -110 167 -307t60 -416q0 -225 -65 -427t-179 -313q-12 -12 -31 -12z" />
    <glyph glyph-name="asterisk" unicode="*" horiz-adv-x="550" 
d="M238 1053v104l-113 -72q-20 -13 -40.5 -2.5t-21.5 30t21 36.5l123 82l-121 72q-22 13 -20.5 33t19 28t38.5 -2l115 -66v105q0 22 18 31.5t35.5 0.5t17.5 -32v-105l117 66q21 15 39.5 5.5t18 -28.5t-20.5 -36l-119 -72l125 -82q22 -15 19 -38t-22.5 -31t-43.5 5l-113 72
v-104q0 -26 -17.5 -36.5t-35.5 0t-18 36.5z" />
    <glyph glyph-name="plus" unicode="+" horiz-adv-x="907" 
d="M147 655q-17 0 -31 15t-14 35q0 18 13.5 31.5t31.5 13.5h263v260q0 18 12.5 30.5t32.5 12.5q19 0 32 -13t13 -30v-260h260q19 0 32 -13t13 -32q0 -20 -13 -35t-32 -15h-260v-260q0 -19 -13 -31t-32 -12q-20 0 -32.5 12t-12.5 31v260h-263z" />
    <glyph glyph-name="comma" unicode="," horiz-adv-x="282" 
d="M49 -156q-13 7 -18.5 24t0.5 30l75 200q10 25 34.5 35t47.5 2q26 -8 38 -31.5t-1 -56.5l-108 -190q-10 -17 -31.5 -21t-36.5 8z" />
    <glyph glyph-name="hyphen" unicode="-" horiz-adv-x="843" 
d="M82 604q0 23 16 39t39 16h570q23 0 39 -16t16 -39t-16 -39t-39 -16h-570q-23 0 -39 16t-16 39z" />
    <glyph glyph-name="period" unicode="." horiz-adv-x="321" 
d="M160 -2q-32 0 -55 24t-23 58q0 32 23 55t55 23q34 0 57 -23t23 -55q0 -34 -23 -58t-57 -24z" />
    <glyph glyph-name="slash" unicode="/" horiz-adv-x="524" 
d="M350 1419q6 23 25.5 35.5t42.5 7.5q22 -5 33.5 -23.5t7.5 -41.5l-281 -1377q-3 -20 -17.5 -31.5t-35.5 -11.5q-26 0 -42 20t-11 46z" />
    <glyph glyph-name="zero" unicode="0" horiz-adv-x="1435" 
d="M717 -8q-175 0 -321 96.5t-230 263t-84 365.5t84 365.5t230 263t321 96.5q176 0 322 -96.5t229.5 -263t83.5 -365.5t-83.5 -365.5t-229.5 -263t-322 -96.5zM190 717q0 -169 69 -310.5t190.5 -224t267.5 -82.5t267 82.5t190 224t69 310.5t-69 310.5t-190 223.5t-267 82
q-109 0 -207 -48.5t-168 -131t-111 -196.5t-41 -240z" />
    <glyph glyph-name="one" unicode="1" horiz-adv-x="450" 
d="M293 0q-24 0 -39.5 15.5t-15.5 39.5v1243l-99 -43q-20 -7 -39 2t-28 31q-8 22 1 42.5t31 29.5l168 70q24 9 52 -5q24 -21 24 -47v-1323q0 -23 -16 -39t-39 -16z" />
    <glyph glyph-name="two" unicode="2" horiz-adv-x="1159" 
d="M168 0q-36 0 -49 33q-17 30 8 59q16 18 190.5 209.5t335 369t174.5 193.5q57 68 66.5 154t-29.5 162q-41 77 -118.5 118t-178.5 35q-238 -15 -350 -231q-10 -20 -32 -28t-42 1q-20 10 -26.5 32t2.5 44q135 269 442 293q129 9 237 -48.5t163 -166.5q55 -106 41 -224.5
t-91 -209.5q-11 -14 -130.5 -146t-276 -304t-211.5 -234h698q22 0 39 -16.5t17 -39.5t-17 -39t-39 -16h-823z" />
    <glyph glyph-name="three" unicode="3" horiz-adv-x="1036" 
d="M457 -6q-129 0 -241.5 55t-180.5 150q-13 19 -9.5 41t21.5 36q21 13 42.5 9.5t35.5 -21.5q53 -76 143 -118t189 -42q157 0 267 91.5t110 222.5q0 86 -52.5 158t-139.5 112.5t-189 40.5q-34 0 -49 16.5t-15 40.5q0 23 14.5 38.5t47.5 15.5q131 6 215 77.5t84 167.5
q0 102 -93.5 174t-224.5 72q-141 -3 -246 -88q-19 -14 -40.5 -10.5t-34.5 22.5q-14 18 -11 41t23 35q128 109 307 109q178 3 304 -101t126 -254q0 -92 -57.5 -170t-151.5 -122q130 -45 210.5 -147t80.5 -228q0 -116 -65 -213.5t-176.5 -154t-243.5 -56.5z" />
    <glyph glyph-name="four" unicode="4" horiz-adv-x="1155" 
d="M113 307q-31 0 -47 23q-15 27 -7 49l258 1022q8 20 28 30.5t42 4.5q22 -8 32.5 -27.5t4.5 -42.5l-238 -948h559v461q0 22 17.5 37.5t40.5 15.5q22 0 37.5 -15.5t15.5 -37.5v-461h178q23 0 39.5 -16.5t16.5 -39.5q0 -22 -16.5 -38.5t-39.5 -16.5h-178v-252
q0 -23 -15.5 -39t-37.5 -16q-24 0 -41 16t-17 39v252h-632z" />
    <glyph glyph-name="five" unicode="5" horiz-adv-x="1105" 
d="M514 -6q-146 0 -270 70t-193 190q-11 20 -4 43t27 33q19 12 40.5 5.5t32.5 -26.5q54 -95 152.5 -150t214.5 -55q167 0 282 108t115 263q0 164 -113 257t-296 93h-287q-27 0 -43 23t-10 47l125 498q3 20 17.5 31.5t35.5 11.5h461q23 0 38 -16t15 -40q0 -23 -15 -39
t-38 -16h-416l-98 -389h215q235 0 378.5 -126t143.5 -335q0 -202 -148 -341.5t-362 -139.5z" />
    <glyph glyph-name="six" unicode="6" horiz-adv-x="1142" 
d="M569 -6q-139 0 -257 69t-186.5 187.5t-68.5 257.5q0 160 90 289l385 616q12 19 34 24.5t42 -5.5q19 -11 25 -33t-4 -41l-232 -369q82 31 172 31q140 0 258 -69t186 -187t68 -256q0 -139 -68 -257.5t-186 -187.5t-258 -69zM168 508q0 -168 117 -286t284 -118t285.5 118.5
t118.5 285.5q0 166 -118.5 284.5t-285.5 118.5t-284 -118.5t-117 -284.5z" />
    <glyph glyph-name="seven" unicode="7" horiz-adv-x="1058" 
d="M197 -2q-16 0 -27 8q-20 10 -27 32t4 42l687 1245h-738q-24 0 -39.5 14.5t-15.5 38.5q0 23 16 39.5t39 16.5h832q30 0 47 -27q15 -27 0 -55l-731 -1325q-16 -29 -47 -29z" />
    <glyph glyph-name="eight" unicode="8" horiz-adv-x="1116" 
d="M557 -8q-134 0 -248 61.5t-181 167t-67 230.5q0 136 79.5 247t209.5 166q-63 44 -100 111.5t-37 144.5q0 133 100.5 227.5t241.5 94.5q142 0 242 -94t100 -228q0 -77 -36 -144t-99 -112q131 -53 212 -165t81 -248q0 -125 -67 -230.5t-181.5 -167t-249.5 -61.5zM172 451
q0 -144 113 -246.5t272 -102.5q160 0 273.5 102t113.5 247q0 144 -113.5 246t-273.5 102q-159 0 -272 -102t-113 -246zM322 1120q0 -88 68.5 -151.5t164.5 -63.5q98 0 168 63.5t70 151.5t-70 151.5t-168 63.5q-96 0 -164.5 -63.5t-68.5 -151.5z" />
    <glyph glyph-name="nine" unicode="9" horiz-adv-x="1126" 
d="M563 438q-136 0 -251.5 67t-183 182.5t-67.5 252.5q0 135 67.5 250.5t183 183.5t251.5 68t251.5 -68t183 -183.5t67.5 -250.5t-68 -252q0 -2 -4 -10l-403 -653q-28 -44 -76 -21q-20 10 -25 32.5t7 41.5l239 391q-82 -31 -172 -31zM172 940q0 -163 115 -278t276 -115
q163 0 277 115t114 278q0 162 -114.5 276.5t-276.5 114.5q-161 0 -276 -115t-115 -276z" />
    <glyph glyph-name="colon" unicode=":" horiz-adv-x="323" 
d="M162 -2q-32 0 -55 24t-23 58q0 32 23 55t55 23t56 -23t24 -55q0 -34 -24 -58t-56 -24zM84 774q0 32 23 56t55 24t56 -24t24 -56t-24 -56t-56 -24t-55 24t-23 56z" />
    <glyph glyph-name="semicolon" unicode=";" horiz-adv-x="307" 
d="M33 -156q-13 8 -18.5 24t1.5 30l74 200q10 25 34.5 35t47.5 2q27 -8 38.5 -31.5t-1.5 -56.5l-109 -190q-10 -17 -31 -21t-36 8zM88 774q0 32 23 56t55 24q33 0 56.5 -23.5t23.5 -56.5t-23.5 -56.5t-56.5 -23.5q-32 0 -55 24t-23 56z" />
    <glyph glyph-name="less" unicode="&#x3c;" horiz-adv-x="718" 
d="M594 266q-18 0 -31 10l-467 318q-26 16 -26 47q0 27 24 41l469 332q19 13 40 9.5t34 -19.5q14 -18 11 -41.5t-23 -36.5l-406 -285l406 -276q19 -10 22.5 -34t-10.5 -44q-21 -21 -43 -21z" />
    <glyph glyph-name="equal" unicode="=" horiz-adv-x="905" 
d="M147 487q-19 0 -32 14t-13 34q0 19 13 33t32 14h613q18 0 30.5 -14t12.5 -33q0 -20 -12 -34t-31 -14h-613zM102 831q0 19 13 32.5t32 13.5h613q18 0 30.5 -13.5t12.5 -32.5q0 -20 -12 -32.5t-31 -12.5h-613q-19 0 -32 12.5t-13 32.5z" />
    <glyph glyph-name="greater" unicode="&#x3e;" horiz-adv-x="718" 
d="M125 266q-26 0 -43 21q-14 20 -10.5 44t22.5 34l406 276l-406 285q-20 13 -23 36.5t11 41.5q13 16 34 19.5t40 -9.5l469 -332q22 -13 22 -41q0 -32 -24 -47l-467 -318q-12 -10 -31 -10z" />
    <glyph glyph-name="question" unicode="?" horiz-adv-x="999" 
d="M461 0q-32 0 -54 23t-22 55q0 31 22 52.5t54 21.5q31 0 52.5 -21.5t21.5 -52.5q0 -32 -21.5 -55t-52.5 -23zM84 1147q-6 -22 4 -42t33 -26q20 -6 40 4.5t27 32.5q8 23 18.5 45t34 52.5t54 53.5t80 41.5t108.5 22.5q116 7 195 -51.5t108 -136.5q19 -46 22 -94.5
t-21.5 -105.5t-79.5 -101q-48 -39 -67.5 -55.5t-59.5 -54t-58 -62t-44.5 -67t-38.5 -82t-22 -93.5t-11 -115q-3 -23 11.5 -40t41.5 -17q46 0 55 47q2 52 11 98t20 81t34 71t40 59t50 55t53 49t59 50q4 3 6.5 5.5t5.5 4.5q91 73 116 184.5t-20 223.5q-53 125 -164.5 194
t-249.5 60q-145 -12 -249 -89.5t-142 -201.5z" />
    <glyph glyph-name="at" unicode="@" horiz-adv-x="1619" 
d="M825 -23q-181 0 -341 83.5t-264.5 230.5t-127.5 327q-20 160 25.5 311t150.5 271q104 118 249.5 184t303.5 68h4q161 0 301.5 -55t237.5 -156q183 -195 168 -491q-15 -188 -45 -283q-25 -79 -83.5 -115t-123.5 -28q-54 8 -98 47.5t-58 103.5q-63 -89 -160 -140.5
t-212 -51.5q-172 0 -289 123q-113 126 -101 301q17 175 149.5 296t305.5 121q175 0 291 -125q35 -39 55 -79q19 56 41 90q9 12 25.5 15.5t30.5 -5.5q13 -10 16 -27t-6 -30q-35 -50 -53.5 -181t-16.5 -252q0 -57 27.5 -89.5t62.5 -37.5q36 -5 70.5 18t50.5 73q25 75 39 260
q15 266 -145 430q-85 91 -209.5 139.5t-270.5 48.5h-4q-139 0 -267.5 -59.5t-221.5 -165.5q-96 -108 -137.5 -241t-22.5 -277q21 -163 118.5 -296.5t246.5 -206.5t315 -67q115 7 197 39q15 5 31 -2t20 -22q6 -14 -1.5 -29.5t-21.5 -21.5q-53 -19 -116.5 -30.5t-92 -13.5
t-43.5 -2zM463 698q-12 -130 74 -225q83 -89 213 -92q142 0 243.5 99t114.5 225q15 133 -76 227q-83 92 -215 92q-134 0 -238 -95.5t-116 -230.5z" />
    <glyph glyph-name="A" unicode="A" horiz-adv-x="1386" 
d="M147 33q-15 -31 -46 -32.5t-50 22.5t-4 55l596 1325q14 33 48.5 33t49.5 -33l600 -1325q15 -30 -4.5 -54.5t-50.5 -23.5t-45 33l-168 375h-762zM362 516h660l-332 729z" />
    <glyph glyph-name="B" unicode="B" horiz-adv-x="1271" 
d="M199 0q-23 0 -39.5 16t-16.5 39v1321v2q0 24 16 40t40 16h471q160 0 272.5 -112.5t112.5 -272.5q0 -91 -42.5 -169.5t-113.5 -127.5q129 -22 217 -126t88 -241q0 -160 -113.5 -272.5t-273.5 -112.5h-618zM256 111h561q114 0 195.5 80t81.5 194t-81.5 194t-195.5 80h-561
v-548zM256 774h414q114 0 194 80.5t80 194.5q0 115 -80 195.5t-194 80.5h-414v-551z" />
    <glyph glyph-name="C" unicode="C" horiz-adv-x="1343" 
d="M811 -12q-197 0 -365 98t-266 266.5t-98 366.5q0 196 98 363.5t266 265.5t365 98q228 0 408 -125q20 -12 24 -35t-8 -43q-12 -19 -35.5 -23t-42.5 9q-154 106 -346 106q-167 0 -309 -83t-224.5 -225t-82.5 -308q0 -168 82.5 -311t224.5 -226.5t309 -83.5q203 0 367 121
q19 14 40.5 10.5t34.5 -22.5q14 -19 11 -42.5t-21 -35.5q-195 -141 -432 -141z" />
    <glyph glyph-name="D" unicode="D" horiz-adv-x="1368" 
d="M586 1434q146 0 279 -56.5t229 -152.5t152.5 -229t56.5 -279q0 -145 -56.5 -277.5t-152.5 -229t-229 -153.5t-279 -57h-385q-23 0 -40 15t-18 38v4v1303v22q0 21 17 36.5t41 15.5h385zM252 113l334 -4q166 0 306 82t221 221.5t81 304.5q0 166 -81 306t-221 221t-306 81
h-334v-1212z" />
    <glyph glyph-name="E" unicode="E" horiz-adv-x="1150" 
d="M1018 111q23 0 40 -16.5t17 -39.5t-17 -39t-40 -16h-823q-23 0 -39.5 16t-16.5 39v1323q0 23 16.5 39.5t39.5 16.5h823q23 0 40 -16.5t17 -39.5t-17 -39t-40 -16h-770v-551h665q23 0 39.5 -16t16.5 -39t-16.5 -39t-39.5 -16h-665v-551h770z" />
    <glyph glyph-name="F" unicode="F" horiz-adv-x="1146" 
d="M195 0q-25 0 -40.5 16t-15.5 39v1323q0 24 16 40t40 16h837q22 0 37.5 -16.5t15.5 -39.5t-15.5 -38t-37.5 -15h-782v-553h688q23 0 39 -16t16 -39t-16 -39t-39 -16h-688v-607q0 -23 -16 -39t-39 -16z" />
    <glyph glyph-name="G" unicode="G" horiz-adv-x="1361" 
d="M811 -12q-198 0 -366 97.5t-265.5 264.5t-97.5 363q0 148 57.5 283t155.5 233t233 155.5t283 57.5q215 0 406 -123q19 -12 23.5 -35.5t-7.5 -42.5q-14 -19 -36.5 -23t-41.5 9q-152 102 -344 102q-125 0 -239 -48.5t-196.5 -130.5t-131.5 -196t-49 -241
q0 -165 82.5 -307.5t224.5 -226t309 -83.5q180 0 340 109v452h-375q-22 0 -37.5 16.5t-15.5 39.5q0 25 15.5 42t37.5 17h430q23 0 38.5 -17t15.5 -42v-539q0 -31 -23 -45q-187 -141 -426 -141z" />
    <glyph glyph-name="H" unicode="H" horiz-adv-x="1333" 
d="M1135 1436q22 0 38.5 -16.5t16.5 -39.5v-1325q0 -24 -16.5 -40.5t-38.5 -16.5q-24 0 -41 16.5t-17 40.5v598h-823v-598q0 -25 -16 -41t-39 -16q-25 0 -40.5 16t-15.5 41v1325q0 24 16 40t40 16q23 0 39 -16.5t16 -39.5v-614h823v614q0 23 17.5 39.5t40.5 16.5z" />
    <glyph glyph-name="I" unicode="I" horiz-adv-x="348" 
d="M174 -2q-23 0 -39 15t-16 38v1331q0 24 15.5 40t39.5 16t39.5 -16t15.5 -40v-1331q0 -23 -16 -38t-39 -15z" />
    <glyph glyph-name="J" unicode="J" horiz-adv-x="1212" 
d="M545 0q-137 0 -256 65.5t-191 174.5q-21 27 -15 53t30 37q36 17 69 -21q58 -92 154 -145t209 -53q181 0 308.5 127.5t127.5 308.5v778h-434q-23 0 -39 16t-16 39q0 22 16 39t39 17h489q23 0 39.5 -17t16.5 -39v-833q0 -148 -73.5 -274t-199.5 -199.5t-274 -73.5z" />
    <glyph glyph-name="K" unicode="K" horiz-adv-x="1163" 
d="M1108 90q15 -17 14 -40t-18 -36q-14 -14 -37 -14t-41 18l-580 672l-213 -235v-400q0 -23 -16 -39t-39 -16t-39 16t-16 39v1323q0 23 16 39.5t39 16.5t39 -16.5t16 -39.5v-760l732 797q13 17 35.5 18t39.5 -14q18 -15 19.5 -38t-12.5 -40l-529 -569z" />
    <glyph glyph-name="L" unicode="L" horiz-adv-x="1165" 
d="M197 0q-22 0 -38 15.5t-16 37.5v1327q0 22 16 38t38 16q23 0 40 -16t17 -38v-1269h790q24 0 39 -16t15 -42q0 -22 -15.5 -37.5t-38.5 -15.5h-847z" />
    <glyph glyph-name="M" unicode="M" horiz-adv-x="1718" 
d="M195 0q-23 0 -39.5 16t-16.5 39v1325q0 42 39 56q38 10 62 -21l620 -846l619 846q27 30 63 21q37 -13 37 -56v-1325q0 -23 -16 -39t-39 -16q-22 0 -39 16t-17 39v1157l-563 -768q-19 -24 -47 -24t-43 24l-565 768v-1157q0 -23 -16 -39t-39 -16z" />
    <glyph glyph-name="N" unicode="N" horiz-adv-x="1421" 
d="M193 0q-23 0 -38.5 16t-15.5 41v1325q0 18 10 33t27 19q38 13 62 -17l933 -1200v1165q0 23 16 39.5t38 16.5q25 0 41 -16t16 -40v-1325q0 -43 -37 -53q-6 -4 -20 -4q-27 0 -43 23l-932 1198v-1164q0 -25 -16 -41t-41 -16z" />
    <glyph glyph-name="O" unicode="O" horiz-adv-x="1619" 
d="M811 -14q-148 0 -284 58.5t-234 156.5t-156.5 234t-58.5 284t58.5 283.5t156.5 233.5t234 156t284 58q197 0 365.5 -98t267 -266.5t98.5 -366.5t-98.5 -367t-267 -267.5t-365.5 -98.5zM190 719q0 -168 83.5 -311.5t226.5 -227.5t311 -84t311 84t226.5 227.5t83.5 311.5
t-83.5 311t-226.5 226t-311 83t-311 -83t-226.5 -226t-83.5 -311z" />
    <glyph glyph-name="P" unicode="P" horiz-adv-x="1310" 
d="M772 1434q125 0 231 -62t168 -168t62 -231q0 -126 -62 -232.5t-168 -168.5t-231 -62h-541v-455q0 -23 -16.5 -39t-38.5 -16q-23 0 -39 16t-16 39v1323q0 23 16 39.5t39 16.5h596zM231 618h541q145 0 248.5 104.5t103.5 250.5q0 145 -103.5 247.5t-248.5 102.5h-541v-705z
" />
    <glyph glyph-name="Q" unicode="Q" horiz-adv-x="1634" 
d="M1483 84q14 -18 12.5 -41.5t-18.5 -38.5q-14 -14 -37 -14q-24 0 -41 20l-123 140q-94 -78 -212.5 -122t-246.5 -44q-200 0 -369 98.5t-267.5 267.5t-98.5 369q0 198 98.5 367t267.5 267.5t369 98.5q148 0 284 -58.5t235 -156.5t157.5 -234t58.5 -284q0 -138 -51 -265.5
t-141 -228.5zM195 719q0 -169 83 -312.5t226.5 -227t312.5 -83.5q220 0 385 140l-172 198q-15 17 -13 40.5t19 37.5q17 15 40 14t38 -18l166 -193q76 80 117 184t41 220q0 168 -83 311t-226 226t-312 83q-127 0 -242 -49t-198.5 -132t-132.5 -198t-49 -241z" />
    <glyph glyph-name="R" unicode="R" horiz-adv-x="1316" 
d="M178 0q-23 0 -39 16t-16 39v1323q0 23 16 39.5t39 16.5h596q125 0 231 -62t168 -168.5t62 -232.5q0 -171 -114 -298.5t-279 -146.5l381 -434q14 -19 12.5 -42t-18.5 -36q-14 -14 -35 -14q-28 0 -43 18l-428 492h-478v-455q0 -23 -16.5 -39t-38.5 -16zM233 621h541
q145 0 248.5 102t103.5 248t-103.5 249t-248.5 103h-541v-702z" />
    <glyph glyph-name="S" unicode="S" horiz-adv-x="1191" 
d="M608 -10q-96 0 -182.5 24t-149 64t-105 79t-73.5 81q-17 13 -17.5 35.5t13.5 37.5q15 17 38 18t38 -14q26 -37 62.5 -71t89.5 -69t127.5 -56t158.5 -21q98 0 175 24.5t123 66t70.5 90t27.5 102.5q7 123 -93.5 199.5t-306.5 107.5q-316 49 -432 205q-72 100 -51 240
q13 66 51.5 123t100 101t150.5 67.5t193 19.5q241 -10 390 -207q17 -15 18 -38t-14 -40q-16 -16 -38 -16.5t-38 16.5q-126 166 -326 176q-162 7 -263 -61t-116 -160q-12 -70 12.5 -125t81 -92.5t129.5 -61t169 -38.5q104 -15 186.5 -42.5t135.5 -63.5t89 -75t53.5 -83
t23.5 -82t3 -78q-4 -71 -35 -136.5t-89.5 -122t-156.5 -90.5t-223 -34z" />
    <glyph glyph-name="T" unicode="T" horiz-adv-x="1218" 
d="M1085 1434q22 0 38 -16.5t16 -39.5t-16 -39t-38 -16h-421v-1268q0 -23 -16.5 -39t-39.5 -16q-22 0 -38.5 16t-16.5 39v1268h-418q-23 0 -39 16t-16 39t16 39.5t39 16.5h950z" />
    <glyph glyph-name="U" unicode="U" horiz-adv-x="1388" 
d="M694 -6q-156 0 -288 77t-208.5 209t-76.5 287v813q0 23 16 39.5t39 16.5t39 -16.5t16 -39.5v-813q0 -126 62.5 -233t169 -169.5t231.5 -62.5q127 0 233.5 62.5t168 169.5t61.5 233v813q0 23 17 39.5t40 16.5q22 0 39 -16.5t17 -39.5v-813q0 -155 -77.5 -287t-210 -209
t-288.5 -77z" />
    <glyph glyph-name="V" unicode="V" horiz-adv-x="1415" 
d="M711 0q-35 0 -52 33l-593 1321q-8 20 0 41.5t30 31.5q20 9 41.5 1t28.5 -29l545 -1209l536 1209q10 22 31 29.5t43 -1.5q21 -9 29 -31t-2 -42l-588 -1321q-6 -15 -20 -24t-29 -9z" />
    <glyph glyph-name="W" unicode="W" horiz-adv-x="1951" 
d="M1853 1438q22 -8 32 -28.5t1 -41.5l-487 -1331q-16 -37 -53 -37q-17 0 -31.5 10t-20.5 25l-317 807l-320 -807q-14 -35 -51 -35t-53 37l-487 1331q-9 22 0.5 42t31.5 28q23 6 43 -3.5t27 -31.5l442 -1188l316 797q7 22 27 31t42 1q25 -13 31 -30v-2l315 -797l443 1188
q7 21 27 31t42 4z" />
    <glyph glyph-name="X" unicode="X" horiz-adv-x="1259" 
d="M1188 86q14 -17 11.5 -39t-19.5 -35q-15 -12 -33 -12q-28 0 -45 20l-471 611l-473 -611q-17 -20 -41 -20q-20 0 -35 12q-18 13 -21 35t11 39l489 635l-489 635q-14 17 -11 39t21 37q19 14 41 11t35 -22l473 -610l471 610q13 19 36 22t42 -11q17 -15 19.5 -37t-11.5 -39
l-488 -635z" />
    <glyph glyph-name="Y" unicode="Y" horiz-adv-x="1243" 
d="M1159 1425q20 -12 25 -33.5t-6 -41.5l-500 -795l-2 -500q0 -23 -16 -39t-39 -16t-38.5 16t-15.5 39l2 500l-503 795q-12 20 -7.5 41.5t23.5 33.5q20 12 43 7.5t33 -23.5l465 -735l460 735q12 19 34 23.5t42 -7.5z" />
    <glyph glyph-name="Z" unicode="Z" horiz-adv-x="1396" 
d="M1239 111q22 0 38.5 -16.5t16.5 -39.5t-16.5 -39t-38.5 -16h-1081q-35 0 -49 31q-16 29 4 59l964 1235h-895q-23 0 -39 15t-16 38q0 24 15.5 40t39.5 16h1008q33 0 47 -31q16 -29 -4 -60l-965 -1232h971z" />
    <glyph glyph-name="bracketleft" unicode="[" horiz-adv-x="350" 
d="M106 -57q-19 0 -32 13t-13 32v1458q0 19 13 32t32 13h138q18 0 31.5 -13.5t13.5 -31.5q0 -20 -13.5 -33.5t-31.5 -13.5h-88v-1364h88q18 0 31.5 -13.5t13.5 -33.5q0 -18 -13.5 -31.5t-31.5 -13.5h-138z" />
    <glyph glyph-name="backslash" unicode="\" horiz-adv-x="512" 
d="M451 43q3 -27 -13 -46.5t-43 -19.5q-19 0 -34 11.5t-19 31.5l-281 1377q-3 23 9 42t34 23q22 5 41 -7.5t25 -35.5z" />
    <glyph glyph-name="bracketright" unicode="]" horiz-adv-x="350" 
d="M106 -57q-19 0 -32 13t-13 32q0 20 13 33.5t32 13.5h89v1364h-89q-19 0 -32 13.5t-13 33.5q0 19 13 32t32 13h138q18 0 31.5 -13.5t13.5 -31.5v-1458q0 -18 -13.5 -31.5t-31.5 -13.5h-138z" />
    <glyph glyph-name="asciicircum" unicode="^" horiz-adv-x="634" 
d="M158 1004q-13 -21 -36.5 -21t-34 17t0.5 42l199 373q11 19 35.5 20t35.5 -20l189 -377q13 -21 0 -39t-35.5 -17t-34.5 24l-155 307z" />
    <glyph glyph-name="underscore" unicode="_" horiz-adv-x="909" 
d="M82 -80q0 23 16 39t39 16h635q23 0 39 -16t16 -39t-16 -39t-39 -16h-635q-23 0 -39 16t-16 39z" />
    <glyph glyph-name="grave" unicode="`" horiz-adv-x="282" 
d="M78 1587q-15 29 1.5 50.5t44.5 19.5t40 -31l53 -135q9 -18 -2.5 -31.5t-30.5 -12.5t-28 19z" />
    <glyph glyph-name="a" unicode="a" horiz-adv-x="1124" 
d="M555 -6q-132 0 -243.5 65t-176.5 176.5t-65 243.5q0 131 65 243t176.5 177.5t243.5 65.5q131 0 242.5 -65.5t177 -177.5t65.5 -243v-8v-2v-418q0 -23 -14.5 -38t-36.5 -15t-36.5 15t-14.5 38v150q-70 -93 -169 -150t-214 -57zM178 479q0 -155 111 -265t266 -110
q157 0 267 110t110 265q0 157 -110 267t-267 110q-156 0 -266.5 -110.5t-110.5 -266.5z" />
    <glyph glyph-name="b" unicode="b" horiz-adv-x="1130" 
d="M582 965q202 0 344.5 -142.5t142.5 -343.5t-142.5 -343t-344.5 -142q-131 0 -242.5 65t-176.5 176.5t-65 243.5v8v2v891q0 23 14.5 38.5t34.5 15.5q22 0 38 -15.5t16 -38.5v-602q67 86 167.5 136.5t213.5 50.5zM207 479q0 -157 110 -267t265 -110q157 0 266.5 110
t109.5 267q0 155 -110 265t-266 110q-155 0 -265 -110t-110 -265z" />
    <glyph glyph-name="c" unicode="c" horiz-adv-x="948" 
d="M557 -6q-133 0 -245 65t-177 177.5t-65 246.5q0 201 142.5 344.5t344.5 143.5q169 0 299 -103q19 -14 22 -36t-12 -41q-14 -18 -35.5 -21t-39.5 12q-104 78 -234 78q-155 0 -266 -111t-111 -266q0 -157 111 -268t266 -111q127 0 234 80q17 14 39.5 11t35.5 -21
q15 -17 12 -40.5t-22 -37.5q-129 -102 -299 -102z" />
    <glyph glyph-name="d" unicode="d" horiz-adv-x="1134" 
d="M547 965q115 0 214.5 -50.5t168.5 -138.5v604q0 23 14.5 38.5t36.5 15.5t36.5 -15.5t14.5 -38.5v-891v-2v-8q0 -132 -65.5 -243.5t-177 -176.5t-242.5 -65q-132 0 -244 65t-177 176.5t-65 243.5q0 99 38.5 189t103.5 155t155 103.5t189 38.5zM172 479q0 -157 110 -267
t265 -110q157 0 267 110t110 267q0 155 -110 265t-267 110q-155 0 -265 -110t-110 -265z" />
    <glyph glyph-name="e" unicode="e" horiz-adv-x="1095" 
d="M516 4q-196 19 -321 155t-125 326q0 131 64.5 242t175 175.5t241.5 64.5q198 0 336.5 -137.5t138.5 -333.5q0 -18 -11.5 -32.5t-29.5 -19.5q-4 -2 -12 -2l-793 -2q15 -135 110.5 -225.5t239.5 -105.5q218 -22 363 118q18 10 39 7t31 -21q10 -19 4 -38.5t-25 -31.5
q-151 -164 -426 -139zM180 528h735q-12 142 -115.5 239t-248.5 97q-143 0 -249.5 -96t-121.5 -240z" />
    <glyph glyph-name="f" unicode="f" horiz-adv-x="706" 
d="M154 0q-24 0 -40 16t-16 39v889q0 103 27.5 187t72 139.5t105 93t124 54t130.5 16.5h33q23 0 39 -16.5t16 -39.5t-16 -39t-39 -16l-33 -2q-147 0 -244.5 -90t-103.5 -268h321q22 0 37 -15t15 -37t-15 -37.5t-37 -15.5h-321v-803q0 -23 -16 -39t-39 -16z" />
    <glyph glyph-name="g" unicode="g" horiz-adv-x="1134" 
d="M555 -4q-132 0 -243.5 65t-176.5 176t-65 242t65 242.5t176.5 176.5t243.5 65q198 0 340.5 -142.5t142.5 -341.5v-405q0 -190 -127.5 -327t-324.5 -159q-11 0 -35.5 -1t-38.5 -1q-164 0 -283 84q-21 10 -27.5 31t1.5 41q11 20 32 27.5t41 -2.5q129 -88 299 -66
q154 14 252.5 117.5t98.5 255.5v94q-69 -80 -166 -126t-205 -46zM180 479q0 -155 110 -264t265 -109q154 0 262.5 109t108.5 264t-108.5 265t-262.5 110q-155 0 -265 -110t-110 -265z" />
    <glyph glyph-name="h" unicode="h" horiz-adv-x="1028" 
d="M154 0q-23 0 -39.5 16t-16.5 39v1325q0 23 16.5 39.5t39.5 16.5t39 -16.5t16 -39.5v-546q125 135 309 135q174 0 297 -123t123 -297v-494q0 -23 -16 -39t-39 -16t-39.5 16t-16.5 39v494q0 127 -90.5 218t-218.5 91t-218.5 -91t-90.5 -218v-494q0 -23 -16 -39t-39 -16z
" />
    <glyph glyph-name="i" unicode="i" horiz-adv-x="339" 
d="M170 0q-24 0 -39.5 15.5t-15.5 39.5v856q0 24 15.5 40t39.5 16q22 0 38.5 -16.5t16.5 -39.5v-856q0 -23 -16.5 -39t-38.5 -16zM90 1190q0 34 23 57t57 23t57 -23t23 -57t-23 -58t-57 -24t-57 24t-23 58z" />
    <glyph glyph-name="j" unicode="j" horiz-adv-x="356" 
d="M-88 -401q-27 -3 -47 10t-23 35q-1 23 14 40.5t40 22.5q105 31 165 118t60 236l-2 846q0 35 28 49.5t56 0.5t28 -48v-848q0 -175 -81.5 -297t-237.5 -165zM94 1190q0 33 23.5 56.5t56.5 23.5q34 0 57 -23t23 -57t-23 -58t-57 -24q-32 0 -56 24t-24 58z" />
    <glyph glyph-name="k" unicode="k" horiz-adv-x="894" 
d="M150 0q-23 0 -39.5 16.5t-16.5 38.5v1323q0 24 16 40t40 16q22 0 38.5 -16t16.5 -40v-843l540 415q20 15 42 12t36 -22t10.5 -42t-22.5 -36l-403 -309l411 -461q12 -17 11.5 -40t-15.5 -38q-17 -14 -37 -14q-22 0 -41 16l-418 469l-114 -88v-342q0 -22 -16.5 -38.5
t-38.5 -16.5z" />
    <glyph glyph-name="l" unicode="l" horiz-adv-x="634" 
d="M524 0q-200 0 -315 122.5t-115 332.5v925q0 22 16 38t40 16q22 0 38.5 -16t16.5 -38v-925q0 -168 83 -256t236 -88q23 0 38.5 -16.5t15.5 -39.5t-15.5 -39t-38.5 -16z" />
    <glyph glyph-name="m" unicode="m" horiz-adv-x="1624" 
d="M813 0q-24 0 -39.5 15.5t-15.5 39.5v527q0 115 -81 195.5t-194 80.5q-114 0 -194 -80.5t-80 -195.5v-527q0 -23 -16 -39t-39 -16q-24 0 -40 16t-16 39v527q0 161 112.5 273t272.5 112q103 0 190.5 -50t139.5 -135q52 85 139.5 135t190.5 50q159 0 272 -112t113 -273v-527
q0 -23 -16 -39t-39 -16q-25 0 -41.5 16t-16.5 39v527q0 115 -79.5 195.5t-192.5 80.5q-115 0 -195 -80t-80 -196v-527q0 -23 -16 -39t-39 -16z" />
    <glyph glyph-name="n" unicode="n" 
d="M143 0q-23 0 -39 16t-16 39v494q0 174 123 297t297 123t297 -123t123 -297v-494q0 -23 -16.5 -39t-39.5 -16t-39 16t-16 39v494q0 127 -90.5 218t-218.5 91t-218.5 -91t-90.5 -218v-494q0 -23 -16.5 -39t-39.5 -16z" />
    <glyph glyph-name="o" unicode="o" horiz-adv-x="1093" 
d="M547 -6q-132 0 -244 65t-177 176.5t-65 243.5q0 131 65 243t177 177.5t244 65.5q131 0 242.5 -65.5t177 -177.5t65.5 -243q0 -132 -65.5 -243.5t-177 -176.5t-242.5 -65zM172 479q0 -155 110 -265t265 -110q157 0 267 110t110 265q0 157 -110 267t-267 110
q-155 0 -265 -110t-110 -267z" />
    <glyph glyph-name="p" unicode="p" horiz-adv-x="1122" 
d="M575 -2q-115 0 -215 50t-167 136v-542q0 -23 -15.5 -38.5t-36.5 -15.5q-22 0 -36.5 15.5t-14.5 38.5v829v2v10q0 131 65 243t176.5 177.5t243.5 65.5t244 -65.5t177 -177.5t65 -243q0 -132 -65 -243.5t-177 -176.5t-244 -65zM199 483q0 -157 109.5 -267t266.5 -110
q155 0 265 110t110 267t-110 267t-265 110q-157 0 -266.5 -110t-109.5 -267z" />
    <glyph glyph-name="q" unicode="q" horiz-adv-x="1114" 
d="M547 -2q-132 0 -244 65t-177 176.5t-65 243.5q0 131 65 243t177 177.5t244 65.5q131 0 242.5 -65.5t177 -177.5t65.5 -243v-8v-4v-829q0 -23 -14.5 -38.5t-36.5 -15.5t-36.5 15.5t-14.5 38.5v544q-69 -88 -168.5 -138t-214.5 -50zM172 483q0 -157 110 -267t265 -110
q157 0 267 110t110 267t-110 267t-267 110q-155 0 -265 -110t-110 -267z" />
    <glyph glyph-name="r" unicode="r" horiz-adv-x="958" 
d="M154 0q-23 0 -39.5 16t-16.5 39v496q0 173 123.5 296.5t296.5 123.5q134 0 243 -79t152 -208q8 -21 -1.5 -42t-30.5 -28q-24 -6 -44.5 4t-27.5 33q-32 93 -112 150t-179 57q-129 0 -219 -89.5t-90 -217.5v-496q0 -23 -16 -39t-39 -16z" />
    <glyph glyph-name="s" unicode="s" horiz-adv-x="874" 
d="M455 -4q-114 -1 -209 35.5t-156 79.5q-20 9 -26.5 30t2.5 41q11 20 32 27.5t41 -2.5q64 -49 142 -76t149.5 -28t132 15t96.5 53.5t37 88.5q1 62 -65 108.5t-189 73.5q-89 20 -156 50.5t-102.5 61.5t-56 67.5t-25.5 64t-2 55.5q8 103 108.5 167.5t246.5 58.5
q153 -6 282 -93q21 -10 28.5 -31t-3.5 -40q-11 -20 -32.5 -27.5t-41.5 2.5q-74 53 -160 72t-152 6.5t-111 -46.5t-48 -79q-3 -14 0 -30.5t18 -39t41 -42.5t75 -40.5t114 -33.5q87 -20 152 -49t101.5 -58t59 -63.5t29 -60.5t6.5 -54q0 -49 -21.5 -94.5t-63.5 -84t-113 -61.5
t-160 -24z" />
    <glyph glyph-name="t" unicode="t" horiz-adv-x="700" 
d="M154 1434q23 0 39 -16.5t16 -39.5v-415h321q22 0 37 -15t15 -37q0 -23 -15 -38t-37 -15h-321v-366q0 -186 99 -282.5t249 -96.5l33 -2q23 0 39 -16.5t16 -39.5t-16 -39t-39 -16h-33q-85 0 -163.5 28t-146 84t-108.5 154t-41 226v886q0 24 16 40t40 16z" />
    <glyph glyph-name="u" unicode="u" 
d="M143 969q24 0 40 -16t16 -40v-493q0 -128 90.5 -218.5t218.5 -90.5t218.5 90.5t90.5 218.5v493q0 25 15.5 40.5t39.5 15.5t40 -16t16 -40v-493q0 -173 -123.5 -296.5t-296.5 -123.5t-296.5 123.5t-123.5 296.5v493q0 25 16 40.5t39 15.5z" />
    <glyph glyph-name="v" unicode="v" horiz-adv-x="937" 
d="M463 0q-36 0 -51 33l-359 858q-8 21 1 42t30 30q22 9 42.5 0t31.5 -31l305 -733l319 735q7 21 29.5 29.5t44.5 -0.5q21 -9 29 -30.5t-2 -41.5l-369 -858q-18 -33 -51 -33z" />
    <glyph glyph-name="w" unicode="w" horiz-adv-x="1667" 
d="M463 0q-36 0 -51 33l-359 858q-8 21 1 42t30 30q22 9 42.5 0t31.5 -31l305 -733l319 735q7 21 29.5 29.5t44.5 -0.5q6 -3 12 -9q13 -10 19 -22l305 -733l319 735q7 21 29.5 29.5t44.5 -0.5q21 -9 29 -30.5t-2 -41.5l-369 -858q-18 -33 -51 -33q-36 0 -51 33l-310 739
l-317 -739q-18 -33 -51 -33z" />
    <glyph glyph-name="x" unicode="x" horiz-adv-x="919" 
d="M104 -2q-21 0 -36 12q-17 15 -19.5 38t12.5 42l326 393l-326 391q-15 17 -12.5 40.5t19.5 37.5q19 15 41.5 13t37.5 -19l312 -377l313 377q15 17 38 19t40 -13q18 -13 20 -37t-12 -41l-326 -391l326 -393q14 -18 12 -41.5t-20 -38.5q-15 -12 -35 -12q-29 0 -43 20
l-313 377l-312 -377q-17 -20 -43 -20z" />
    <glyph glyph-name="y" unicode="y" horiz-adv-x="964" 
d="M342 -348q-17 0 -25 4q-20 9 -27.5 31.5t1.5 42.5l137 317l-375 836q-9 22 -1 44t28 29q22 10 42.5 3t31.5 -27l333 -746l324 744q11 22 32 29t44 -3q19 -8 26.5 -29t-2.5 -44l-520 -1198q-6 -15 -20 -24t-29 -9z" />
    <glyph glyph-name="z" unicode="z" horiz-adv-x="962" 
d="M133 0q-34 0 -51 31q-14 32 6 59l598 762h-536q-24 0 -41 16t-17 39q0 24 17 40t41 16h649q34 0 51 -31q14 -32 -8 -60l-596 -761h583q24 0 40 -16t16 -40q0 -23 -15.5 -39t-40.5 -16h-696z" />
    <glyph glyph-name="braceleft" unicode="{" horiz-adv-x="481" 
d="M240 -63q-19 0 -33 13t-14 32v555q0 44 -42 83t-77 54q-29 14 -29 41q0 29 27 43q41 23 81 61.5t40 77.5v553q0 20 14 32.5t33 12.5h133q19 0 33 -12.5t14 -32.5t-14 -33.5t-33 -13.5h-86v-506q0 -88 -115 -180q115 -87 115 -180v-508h86q19 0 33 -13.5t14 -33.5
q0 -19 -14 -32t-33 -13h-133z" />
    <glyph glyph-name="bar" unicode="|" horiz-adv-x="284" 
d="M141 -207q-21 0 -36 15t-15 36v1727q0 21 15 36t36 15q22 0 38 -15t16 -36v-1727q0 -21 -16 -36t-38 -15z" />
    <glyph glyph-name="braceright" unicode="}" horiz-adv-x="481" 
d="M106 -63q-18 0 -31.5 13.5t-13.5 31.5q0 20 13.5 33.5t31.5 13.5h89v508q0 95 112 180q-112 93 -112 180v506h-89q-18 0 -31.5 13.5t-13.5 33.5t13.5 32.5t31.5 12.5h134q20 0 33.5 -12.5t13.5 -32.5v-553q0 -39 41 -78t82 -61q24 -12 24 -43q0 -28 -26 -41
q-35 -16 -78 -54.5t-43 -82.5v-555q0 -19 -13.5 -32t-33.5 -13h-134z" />
    <glyph glyph-name="asciitilde" unicode="~" horiz-adv-x="1171" 
d="M393 637q-97 0 -175 55t-116 150q-9 20 -0.5 38.5t27.5 24.5q19 8 38.5 0t25.5 -26q29 -65 81 -104.5t119 -39.5q30 0 60 12t49 25t53 39q38 30 64 47t73.5 34t98.5 17q94 0 169.5 -52.5t110.5 -143.5q6 -19 -2.5 -39t-28.5 -29q-20 -5 -38.5 3.5t-24.5 27.5
q-22 61 -71.5 98t-114.5 37q-35 0 -68.5 -13t-52.5 -25t-56 -40q-54 -45 -105 -70.5t-116 -25.5z" />
    <glyph glyph-name="exclamdown" unicode="&#xa1;" horiz-adv-x="333" 
d="M168 963q31 0 52.5 -22.5t21.5 -53.5q0 -32 -21.5 -54t-52.5 -22q-32 0 -54 22t-22 54q0 31 22 53.5t54 22.5zM113 -416v1096q0 23 15.5 39t37.5 16q23 0 40 -16t17 -39v-1096q0 -23 -17 -39t-40 -16q-22 0 -37.5 16t-15.5 39z" />
    <glyph glyph-name="cent" unicode="&#xa2;" horiz-adv-x="952" 
d="M528 80q-15 0 -25.5 11t-10.5 26v106q-184 20 -307.5 159t-123.5 327q0 187 123.5 325t307.5 158v119q0 15 10.5 25t25.5 10t26 -10t11 -25v-115q158 -6 283 -102q20 -13 23 -36.5t-11 -41.5q-15 -18 -38 -20.5t-40 12.5q-95 71 -217 77v-755q118 6 217 80q17 14 40 11
t38 -22q14 -17 11 -40.5t-23 -36.5q-126 -97 -283 -103v-102q0 -15 -11 -26t-26 -11zM172 709q0 -140 92 -246.5t228 -128.5v747q-136 -22 -228 -127.5t-92 -244.5z" />
    <glyph glyph-name="sterling" unicode="&#xa3;" horiz-adv-x="1183" 
d="M147 0q-17 0 -32 10t-21 25q-12 35 17 61q4 5 11.5 14t26.5 42t33.5 71t26.5 99.5t12 128.5v153h-112q-20 0 -34 14t-14 33t14 32t34 13h112v308q0 179 127 305.5t307 126.5h15q129 0 237.5 -72.5t159.5 -192.5q9 -22 0.5 -42t-29.5 -29q-22 -9 -42 -1t-29 29
q-38 90 -119.5 144.5t-177.5 54.5h-15q-133 0 -228 -95.5t-95 -227.5v-308h518q19 0 32 -13t13 -32t-13 -33t-32 -14h-518v-123q0 -209 -86 -372h803q22 0 37.5 -16t15.5 -38q0 -24 -15.5 -39.5t-37.5 -15.5h-902z" />
    <glyph glyph-name="yen" unicode="&#xa5;" horiz-adv-x="1210" 
d="M1143 1425q20 -12 24.5 -33.5t-6.5 -41.5l-442 -705h252q19 0 31 -13t12 -32q0 -20 -12 -32.5t-31 -12.5h-309v-168h309q19 0 31 -13t12 -32q0 -21 -12 -35t-31 -14h-312v-238q0 -23 -15.5 -39t-37.5 -16q-23 0 -39 16t-16 39v238h-303q-17 0 -30 14.5t-13 34.5
q0 19 13 32t30 13h305v168h-305q-18 0 -30.5 12.5t-12.5 32.5q0 19 13 32t30 13h248l-447 705q-12 20 -6.5 41.5t25.5 33.5q19 12 41 7.5t32 -23.5l467 -735l459 735q12 19 34.5 23.5t41.5 -7.5z" />
    <glyph glyph-name="brokenbar" unicode="&#xa6;" horiz-adv-x="317" 
d="M158 813q-21 0 -36.5 14.5t-15.5 36.5v707q0 21 15.5 36t36.5 15q22 0 37.5 -14.5t15.5 -36.5v-707q0 -23 -15.5 -37t-37.5 -14zM106 -158v707q0 22 15.5 36.5t36.5 14.5q22 0 37.5 -14t15.5 -37v-707q0 -22 -15.5 -36.5t-37.5 -14.5q-21 0 -36.5 15t-15.5 36z" />
    <glyph glyph-name="section" unicode="&#xa7;" horiz-adv-x="950" 
d="M74 209q7 20 28 26.5t41 -4.5q65 -49 143.5 -75.5t150 -27.5t132 15.5t96.5 54.5t37 89q0 62 -66 108.5t-187 73.5q-90 18 -157.5 48t-104 61t-58 68.5t-27 65.5t-4.5 56q4 74 61 128.5t150 74.5q-158 80 -147 213q6 105 105 168.5t245 56.5q151 -3 283 -90
q22 -12 29.5 -33t-1.5 -41q-9 -19 -29 -24.5t-42 4.5q-60 43 -128 64t-126.5 18t-107.5 -19.5t-78.5 -47t-32.5 -66.5q-2 -14 1.5 -30.5t18 -39t40.5 -42.5t75 -40t114 -33q87 -18 153.5 -46.5t103 -58t60 -64.5t30.5 -61.5t8 -53.5q2 -73 -45.5 -137t-139.5 -95
q121 -74 121 -186q1 -49 -20 -94.5t-62.5 -84t-111 -61.5t-158.5 -24q-194 -2 -367 114q-20 9 -27.5 30.5t1.5 41.5zM215 758q-7 -40 19 -75t67 -58t94 -41.5t93 -27.5t73 -13q56 -12 124.5 38t74.5 113q9 62 -53 108t-197 77q-112 21 -201 -17t-94 -104z" />
    <glyph glyph-name="dieresis" unicode="&#xa8;" horiz-adv-x="405" 
d="M104 1423q-23 0 -38 17t-15 39q0 23 15 38t38 15q22 0 38 -15t16 -38q0 -22 -16 -39t-38 -17zM248 1479q0 23 15 38t38 15q22 0 37.5 -15t15.5 -38q0 -22 -16 -39t-37 -17q-23 0 -38 17t-15 39z" />
    <glyph glyph-name="copyright" unicode="&#xa9;" horiz-adv-x="1572" 
d="M788 41q-112 0 -216 34.5t-188 97.5t-147 147t-97 187.5t-34 213.5q0 138 53.5 264t144.5 217t217.5 145t266.5 54q137 0 262.5 -54t216 -145t144 -217t53.5 -264q0 -137 -53.5 -263t-144 -217.5t-216 -145.5t-262.5 -54zM197 721q0 -120 46.5 -229.5t125.5 -188.5
t188.5 -125.5t230.5 -46.5q159 0 294 79t214.5 215t79.5 296q0 159 -79.5 294.5t-215 214.5t-293.5 79q-121 0 -230.5 -46.5t-188.5 -125.5t-125.5 -188t-46.5 -228zM422 721q0 157 110 267t267 110q117 0 211 -66q15 -9 18.5 -25.5t-4.5 -31.5q-11 -14 -29 -17.5t-32 5.5
q-73 51 -164 51q-120 0 -205.5 -86t-85.5 -207t85.5 -206t205.5 -85q96 0 172 55q15 10 32.5 8t28.5 -16q9 -15 6 -33t-16 -28q-101 -72 -223 -72q-156 0 -266.5 110.5t-110.5 266.5z" />
    <glyph glyph-name="guillemotleft" unicode="&#xab;" horiz-adv-x="1247" 
d="M596 141q-11 0 -33 11l-467 319q-26 19 -26 49q0 24 24 41l469 332q21 13 41.5 9.5t34.5 -19.5q14 -18 11 -41.5t-23 -36.5l-408 -285l408 -276q19 -12 22.5 -35.5t-10.5 -42.5q-18 -25 -43 -25zM543 520q0 23 22 41l471 332q19 13 40 9.5t34 -19.5q14 -19 11 -42
t-21 -36l-410 -285l410 -276q17 -12 20 -35.5t-10 -42.5q-11 -25 -43 -25q-13 0 -31 11l-467 319q-26 19 -26 49z" />
    <glyph glyph-name="registered" unicode="&#xae;" horiz-adv-x="1492" 
d="M745 41q-137 0 -261.5 53.5t-215.5 144t-144.5 216t-53.5 262.5q0 184 91 340t246 246t338 90q138 0 263.5 -53.5t216.5 -143.5t144.5 -215.5t53.5 -263.5q0 -137 -53.5 -262.5t-144.5 -216t-216.5 -144t-263.5 -53.5zM162 717q0 -159 77.5 -293.5t212 -213.5t293.5 -79
q160 0 295.5 79t214 213.5t78.5 293.5t-78.5 294t-214 213.5t-295.5 78.5q-159 0 -293.5 -78.5t-212 -213t-77.5 -294.5zM481 397v647q0 18 13.5 32t31.5 14h293q98 0 170 -72t72 -172q0 -82 -49.5 -146t-126.5 -88l166 -188q12 -10 10.5 -29.5t-14.5 -29.5q-11 -11 -29 -11
q-19 0 -31 15l-211 235h-209v-207q0 -19 -12 -31t-29 -12q-18 0 -31.5 12.5t-13.5 30.5zM567 688h230h4h18q65 0 110.5 46t45.5 112t-45.5 112t-110.5 46h-252v-316z" />
    <glyph glyph-name="macron" unicode="&#xaf;" horiz-adv-x="485" 
d="M113 1501q-23 0 -32.5 19t0 38t32.5 19h260q23 0 33 -19t0.5 -38t-33.5 -19h-260z" />
    <glyph glyph-name="degree" unicode="&#xb0;" horiz-adv-x="606" 
d="M301 1436q101 0 172.5 -71.5t71.5 -168.5t-70.5 -168.5t-167.5 -71.5q-102 0 -174 71t-72 169q0 97 71 168.5t169 71.5zM141 1196q0 -67 47.5 -113.5t116.5 -46.5q67 0 113.5 46t46.5 114q0 69 -46 114.5t-114 45.5q-69 0 -116.5 -45.5t-47.5 -114.5z" />
    <glyph glyph-name="plusminus" unicode="&#xb1;" horiz-adv-x="907" 
d="M147 616q-18 0 -31.5 14t-13.5 34q0 18 13.5 31.5t31.5 13.5h263v260q0 18 12 30.5t33 12.5q19 0 32 -13t13 -30v-260h260q19 0 32 -13t13 -32q0 -20 -13 -34t-32 -14h-260v-260q0 -20 -13 -32.5t-32 -12.5q-21 0 -33 12t-12 33v260h-263zM102 141q0 19 13 33t32 14h613
q18 0 30.5 -14t12.5 -33q0 -20 -12 -33.5t-31 -13.5h-613q-19 0 -32 13.5t-13 33.5z" />
    <glyph glyph-name="uni00B2" unicode="&#xb2;" horiz-adv-x="559" 
d="M72 858q-28 0 -35 23q-11 22 4 41q52 56 138 149.5t148 161.5t68 74q24 32 28.5 69.5t-13.5 73.5q-21 37 -58 57.5t-82 16.5q-101 -6 -155 -94q-6 -12 -20 -16.5t-29 1.5q-13 9 -18 24.5t1 28.5q66 113 215 129q69 3 125.5 -27t83.5 -87q30 -55 23 -116.5t-47 -109.5
q-9 -12 -118 -132.5t-175 -190.5h325q17 0 27 -11.5t10 -29.5q0 -15 -10 -25t-27 -10h-409z" />
    <glyph glyph-name="uni00B3" unicode="&#xb3;" horiz-adv-x="532" 
d="M244 868q-64 0 -122.5 28.5t-92.5 76.5q-7 12 -5 28t13 25q14 7 29 5t24 -11q26 -37 67.5 -57.5t86.5 -20.5q71 0 122.5 43t51.5 100q0 63 -49 103.5t-131 40.5q-45 0 -45 37q0 39 40 39q66 0 106 31.5t40 78.5q0 46 -42.5 77t-103.5 30q-65 0 -112 -37q-29 -20 -53 4
q-9 12 -7.5 27t13.5 24q71 57 157 57q92 1 157 -53t65 -129q0 -45 -23.5 -82t-64.5 -61q59 -28 93 -77.5t34 -109.5q0 -89 -72.5 -153t-175.5 -64z" />
    <glyph glyph-name="acute" unicode="&#xb4;" horiz-adv-x="282" 
d="M135 1481q-14 -26 -43 -14.5t-20 40.5l53 135q11 29 38.5 31t45.5 -19.5t4 -49.5z" />
    <glyph glyph-name="paragraph" unicode="&#xb6;" horiz-adv-x="931" 
d="M559 -2q-22 0 -36.5 14.5t-14.5 36.5v504q-120 1 -221 60t-159 160.5t-58 221.5q0 119 58.5 220.5t160 161t221.5 59.5h49q22 0 36.5 -15t14.5 -37v-1335q0 -22 -14.5 -36.5t-36.5 -14.5zM758 49v1335q0 22 14.5 37t36.5 15t36.5 -15t14.5 -37v-1335q0 -22 -14.5 -36.5
t-36.5 -14.5t-36.5 14.5t-14.5 36.5z" />
    <glyph glyph-name="periodcentered" unicode="&#xb7;" horiz-adv-x="299" 
d="M150 618q-32 0 -56 24t-24 56q0 33 23.5 56.5t56.5 23.5q32 0 55.5 -23t23.5 -57q0 -32 -23.5 -56t-55.5 -24z" />
    <glyph glyph-name="cedilla" unicode="&#xb8;" horiz-adv-x="481" 
d="M96 -406q-34 9 -30 46q9 33 49 26q119 -25 184 23q36 24 43 58.5t-16 55.5q-26 29 -78 29q-55 0 -98 -22q-23 -9 -42.5 7.5t-7.5 41.5l76 170q6 16 21 21.5t28 -1.5t19 -20t0 -29l-45 -98q48 11 101 -2t81 -47q40 -45 33 -113q-3 -32 -22 -62.5t-48 -50.5
q-107 -70 -248 -33z" />
    <glyph glyph-name="uni00B9" unicode="&#xb9;" horiz-adv-x="231" 
d="M150 838q-16 0 -27.5 11t-11.5 28v624l-35 -14q-15 -6 -29 0.5t-20 21.5t-0.5 29.5t20.5 20.5l88 38q25 4 35 -6q18 -9 18 -32v-682q0 -17 -11.5 -28t-26.5 -11z" />
    <glyph glyph-name="guillemotright" unicode="&#xbb;" horiz-adv-x="1191" 
d="M596 141q-25 0 -43 25q-14 19 -10.5 42.5t22.5 35.5l408 276l-408 285q-19 13 -22.5 36t10.5 42q14 16 34.5 19.5t41.5 -9.5l471 -332q22 -18 22 -41q0 -28 -24 -49l-469 -319q-18 -11 -33 -11zM82 166q-13 19 -10 42.5t20 35.5l410 276l-410 285q-18 13 -21 36t11 42
q13 16 34 19.5t40 -9.5l471 -332q22 -18 22 -41q0 -30 -26 -49l-467 -319q-18 -11 -31 -11q-29 0 -43 25z" />
    <glyph glyph-name="onequarter" unicode="&#xbc;" horiz-adv-x="1327" 
d="M150 674q-15 0 -27 12t-12 27v624l-35 -14q-15 -6 -29 1t-20 22t-0.5 29.5t20.5 21.5l88 37q21 7 35 -4q18 -12 18 -33v-684q0 -15 -11.5 -27t-26.5 -12zM2 41l881 1393q10 15 27 18t32 -8q17 -7 21 -26t-7 -34l-878 -1392q-15 -28 -60 -10q-15 8 -20 25t4 34zM756 199
l127 510q5 14 19.5 21t29.5 3q13 -5 20.5 -18.5t3.5 -26.5l-114 -459h254v217q0 14 11 25.5t26 11.5t28 -11.5t13 -25.5v-217h75q15 0 27 -12t12 -27t-11.5 -24.5t-27.5 -9.5h-75v-119q0 -14 -13 -25.5t-28 -11.5t-26 11.5t-11 25.5v119h-305q-19 0 -31 12q-11 14 -4 31z
" />
    <glyph glyph-name="onehalf" unicode="&#xbd;" horiz-adv-x="1290" 
d="M150 674q-15 0 -27 12t-12 27v624l-35 -14q-15 -6 -29 1t-20 22t-0.5 29.5t20.5 21.5l88 37q21 7 35 -4q18 -12 18 -33v-684q0 -15 -11.5 -27t-26.5 -12zM2 41l881 1393q10 15 27 18t32 -8q17 -7 21 -26t-7 -34l-878 -1392q-15 -28 -60 -10q-15 8 -20 25t4 34zM766 23
q-4 8 -3 20t7 20l354 386q54 71 15 145q-20 36 -56.5 57t-83.5 17q-98 -6 -153 -95q-6 -12 -21 -16.5t-30 2.5q-13 7 -18 23.5t1 29.5q66 113 217 129q69 3 124.5 -26.5t84.5 -87.5q30 -56 23 -117t-47 -111q-44 -52 -293 -323h325q17 0 27 -11.5t10 -29.5q0 -15 -10 -25
t-27 -10h-411q-28 0 -35 23z" />
    <glyph glyph-name="threequarters" unicode="&#xbe;" horiz-adv-x="1634" 
d="M248 705q-64 0 -122.5 28.5t-92.5 75.5q-7 12 -5 28t13 25q14 7 29 5t24 -11q26 -37 67.5 -57.5t86.5 -20.5q72 0 123 43t51 101q0 63 -49 103t-131 40q-43 0 -43 37q0 39 41 39q64 0 103.5 31.5t39.5 78.5q0 46 -42 77t-103 30q-66 0 -113 -37q-12 -9 -27 -8t-26 12
q-9 12 -7.5 27t13.5 24q76 58 158 58q91 1 156 -53t65 -130q0 -45 -23.5 -82t-64.5 -61q59 -28 93 -77t34 -109q0 -89 -72.5 -153t-175.5 -64zM309 41l881 1393q10 15 27 18t32 -8q17 -7 21.5 -26t-6.5 -34l-879 -1392q-15 -27 -59 -10q-15 8 -20.5 25t3.5 34zM1063 199
l127 510q5 14 19.5 21t29.5 3q13 -5 21 -18.5t4 -26.5l-115 -459h254v217q0 14 11 25.5t26 11.5t28 -11.5t13 -25.5v-217h75q15 0 27 -12t12 -27t-11.5 -24.5t-27.5 -9.5h-75v-119q0 -14 -13 -25.5t-28 -11.5t-26 11.5t-11 25.5v119h-305q-19 0 -31 12q-11 14 -4 31z" />
    <glyph glyph-name="questiondown" unicode="&#xbf;" horiz-adv-x="999" 
d="M555 1343q31 0 53.5 -22.5t22.5 -54.5q0 -31 -22.5 -52.5t-53.5 -21.5t-53.5 21.5t-22.5 52.5q0 32 22.5 54.5t53.5 22.5zM127 160q53 -125 164.5 -194t249.5 -60q145 12 248.5 89.5t140.5 201.5q7 22 -3 41.5t-32 25.5t-41 -4.5t-27 -32.5q-7 -23 -18 -45t-35 -52.5
t-54.5 -53.5t-79.5 -41.5t-108 -22.5q-61 -4 -114 12.5t-89.5 46t-61.5 62.5t-38 68q-20 46 -22.5 94.5t22.5 105.5t80 101q119 97 165 149q114 130 132 315q3 31 4 64q2 24 -13 40.5t-42 16.5q-46 0 -55 -47q-2 -72 -18 -133t-36 -102t-61 -87t-68 -70.5t-82 -70.5
q-8 -7 -12 -10q-91 -73 -117 -184t21 -223z" />
    <glyph glyph-name="Agrave" unicode="&#xc0;" horiz-adv-x="1386" 
d="M147 33q-15 -31 -46 -32.5t-50 22.5t-4 55l596 1325q14 33 48.5 33t49.5 -33l600 -1325q15 -30 -4.5 -54.5t-50.5 -23.5t-45 33l-168 375h-762zM362 516h660l-332 729zM580 1671q-15 29 1.5 50.5t44.5 19.5t40 -31l53 -135q9 -18 -3 -31.5t-31 -12.5t-28 19z" />
    <glyph glyph-name="Aacute" unicode="&#xc1;" horiz-adv-x="1386" 
d="M147 33q-15 -31 -46 -32.5t-50 22.5t-4 55l596 1325q14 33 48.5 33t49.5 -33l600 -1325q15 -30 -4.5 -54.5t-50.5 -23.5t-45 33l-168 375h-762zM362 516h660l-332 729zM659 1561l54 135q11 29 38.5 30.5t45.5 -20t4 -49.5l-78 -123q-14 -26 -43.5 -14t-20.5 41z" />
    <glyph glyph-name="Acircumflex" unicode="&#xc2;" horiz-adv-x="1386" 
d="M147 33q-15 -31 -46 -32.5t-50 22.5t-4 55l596 1325q14 33 48.5 33t49.5 -33l600 -1325q15 -30 -4.5 -54.5t-50.5 -23.5t-45 33l-168 375h-762zM362 516h660l-332 729zM498 1608l166 184q11 13 27.5 12.5t27.5 -12.5l168 -184q10 -12 9 -27.5t-13 -26.5q-12 -9 -26 -8.5
t-23 10.5l-144 156l-135 -156q-11 -11 -27 -11.5t-28 9.5q-10 11 -11 26t9 28z" />
    <glyph glyph-name="Atilde" unicode="&#xc3;" horiz-adv-x="1386" 
d="M147 33q-15 -31 -46 -32.5t-50 22.5t-4 55l596 1325q14 33 48.5 33t49.5 -33l600 -1325q15 -30 -4.5 -54.5t-50.5 -23.5t-45 33l-168 375h-762zM362 516h660l-332 729zM473 1651q-3 15 4.5 28.5t22.5 16.5q13 4 27 -3t20 -20q13 -42 55 -39q18 3 43 24t53.5 39.5
t57.5 18.5q46 0 81 -27.5t44 -70.5q4 -17 -4 -29.5t-21 -15.5q-15 -5 -29 1.5t-20 24.5q-10 44 -57 41q-19 -5 -46 -25.5t-54.5 -38t-53.5 -17.5q-44 0 -78.5 25t-44.5 67z" />
    <glyph glyph-name="Adieresis" unicode="&#xc4;" horiz-adv-x="1386" 
d="M147 33q-15 -31 -46 -32.5t-50 22.5t-4 55l596 1325q14 33 48.5 33t49.5 -33l600 -1325q15 -30 -4.5 -54.5t-50.5 -23.5t-45 33l-168 375h-762zM362 516h660l-332 729zM541 1581q0 23 15 38t38 15q22 0 37.5 -15t15.5 -38q0 -22 -15.5 -38.5t-37.5 -16.5q-23 0 -38 16.5
t-15 38.5zM737 1581q0 23 15.5 38t38.5 15q22 0 37.5 -15t15.5 -38q0 -22 -15.5 -38.5t-37.5 -16.5q-23 0 -38.5 16.5t-15.5 38.5z" />
    <glyph glyph-name="Aring" unicode="&#xc5;" horiz-adv-x="1386" 
d="M147 33q-15 -31 -46 -32.5t-50 22.5t-4 55l596 1325q14 33 48.5 33t49.5 -33l600 -1325q15 -30 -4.5 -54.5t-50.5 -23.5t-45 33l-168 375h-762zM362 516h660l-332 729zM543 1702q0 58 44.5 100.5t104.5 42.5q63 0 106.5 -42t43.5 -101q0 -60 -43.5 -103t-106.5 -43
q-60 0 -104.5 43t-44.5 103zM616 1702q0 -31 21.5 -50.5t54.5 -19.5q30 0 51 20t21 50q0 29 -21.5 49.5t-50.5 20.5q-32 0 -54 -20.5t-22 -49.5z" />
    <glyph glyph-name="AE" unicode="&#xc6;" horiz-adv-x="1933" 
d="M117 0q-17 0 -23 4q-21 9 -29 30.5t1 43.5l593 1325q15 33 52 33h268q10 0 14 -2h801q23 0 40 -16.5t17 -39.5t-17 -39t-40 -16h-768v-551h666q22 0 37.5 -16t15.5 -39t-15.5 -39t-37.5 -16h-666v-551h768q23 0 40 -16.5t17 -39.5t-17 -39t-40 -16h-823q-23 0 -39.5 16
t-16.5 39v351h-581l-168 -373q-6 -15 -20 -24t-29 -9zM383 514h532v811h-170z" />
    <glyph glyph-name="Ccedilla" unicode="&#xc7;" horiz-adv-x="1343" 
d="M698 -412q-34 9 -30 45q9 34 49 27q119 -25 184 23q36 24 43 58.5t-16 55.5q-26 29 -78 29q-53 0 -98 -23q-23 -9 -42.5 8t-7.5 42l62 137q-140 9 -266 70.5t-217.5 158t-145 227.5t-53.5 273q0 196 98 363.5t266 265.5t365 98q228 0 408 -125q20 -12 24 -35t-8 -43
q-12 -19 -35.5 -23t-42.5 9q-154 106 -346 106q-167 0 -309 -83t-224.5 -225t-82.5 -308q0 -168 82.5 -311t224.5 -226.5t309 -83.5q203 0 367 121q19 14 40.5 10.5t34.5 -22.5q14 -19 11 -42.5t-21 -35.5q-183 -132 -399 -141l-43 -92q48 11 101 -2.5t81 -47.5
q40 -45 33 -112q-3 -32 -22 -62.5t-48 -50.5q-107 -70 -248 -33z" />
    <glyph glyph-name="Egrave" unicode="&#xc8;" horiz-adv-x="1150" 
d="M1018 111q23 0 40 -16.5t17 -39.5t-17 -39t-40 -16h-823q-23 0 -39.5 16t-16.5 39v1323q0 23 16.5 39.5t39.5 16.5h823q23 0 40 -16.5t17 -39.5t-17 -39t-40 -16h-770v-551h665q23 0 39.5 -16t16.5 -39t-16.5 -39t-39.5 -16h-665v-551h770zM500 1671q-15 29 1.5 50.5
t44.5 19.5t40 -31l53 -135q9 -18 -2.5 -31.5t-30.5 -12.5t-28 19z" />
    <glyph glyph-name="Eacute" unicode="&#xc9;" horiz-adv-x="1150" 
d="M1018 111q23 0 40 -16.5t17 -39.5t-17 -39t-40 -16h-823q-23 0 -39.5 16t-16.5 39v1323q0 23 16.5 39.5t39.5 16.5h823q23 0 40 -16.5t17 -39.5t-17 -39t-40 -16h-770v-551h665q23 0 39.5 -16t16.5 -39t-16.5 -39t-39.5 -16h-665v-551h770zM580 1561l53 135
q11 29 38.5 30.5t45.5 -20t4 -49.5l-78 -123q-14 -26 -43 -14t-20 41z" />
    <glyph glyph-name="Ecircumflex" unicode="&#xca;" horiz-adv-x="1150" 
d="M1018 111q23 0 40 -16.5t17 -39.5t-17 -39t-40 -16h-823q-23 0 -39.5 16t-16.5 39v1323q0 23 16.5 39.5t39.5 16.5h823q23 0 40 -16.5t17 -39.5t-17 -39t-40 -16h-770v-551h665q23 0 39.5 -16t16.5 -39t-16.5 -39t-39.5 -16h-665v-551h770zM418 1608l166 184
q11 13 27.5 12.5t27.5 -12.5l168 -184q10 -12 9 -27.5t-13 -26.5q-12 -9 -26 -8.5t-23 10.5l-144 156l-135 -156q-11 -11 -27 -11.5t-28 9.5q-10 11 -11 26t9 28z" />
    <glyph glyph-name="Edieresis" unicode="&#xcb;" horiz-adv-x="1150" 
d="M1018 111q23 0 40 -16.5t17 -39.5t-17 -39t-40 -16h-823q-23 0 -39.5 16t-16.5 39v1323q0 23 16.5 39.5t39.5 16.5h823q23 0 40 -16.5t17 -39.5t-17 -39t-40 -16h-770v-551h665q23 0 39.5 -16t16.5 -39t-16.5 -39t-39.5 -16h-665v-551h770zM459 1579q0 23 15 38t38 15
q22 0 37.5 -15t15.5 -38q0 -22 -15.5 -38.5t-37.5 -16.5q-23 0 -38 16.5t-15 38.5zM655 1579q0 23 15.5 38t38.5 15q22 0 37.5 -15t15.5 -38q0 -22 -15.5 -38.5t-37.5 -16.5q-23 0 -38.5 16.5t-15.5 38.5z" />
    <glyph glyph-name="Igrave" unicode="&#xcc;" horiz-adv-x="348" 
d="M174 -2q-23 0 -39 15t-16 38v1331q0 24 15.5 40t39.5 16t39.5 -16t15.5 -40v-1331q0 -23 -16 -38t-39 -15zM57 1679q-15 29 1.5 50.5t44.5 19.5t40 -31l56 -139q9 -18 -3 -31.5t-31 -12.5t-28 19z" />
    <glyph glyph-name="Iacute" unicode="&#xcd;" horiz-adv-x="348" 
d="M174 -2q-23 0 -39 15t-16 38v1331q0 24 15.5 40t39.5 16t39.5 -16t15.5 -40v-1331q0 -23 -16 -38t-39 -15zM141 1571l54 139q13 28 41 30t45 -19.5t2 -51.5l-80 -125q-9 -18 -28 -18.5t-31 13.5t-3 32z" />
    <glyph glyph-name="Icircumflex" unicode="&#xce;" horiz-adv-x="348" 
d="M174 -2q-23 0 -39 15t-16 38v1331q0 24 15.5 40t39.5 16t39.5 -16t15.5 -40v-1331q0 -23 -16 -38t-39 -15zM-18 1612l165 186q11 12 29 12t27 -12l168 -186q23 -26 -3 -50.5t-51 1.5l-143 155l-135 -155q-16 -17 -37 -11.5t-27.5 23.5t7.5 37z" />
    <glyph glyph-name="Idieresis" unicode="&#xcf;" horiz-adv-x="348" 
d="M174 -2q-23 0 -39 15t-16 38v1331q0 24 15.5 40t39.5 16t39.5 -16t15.5 -40v-1331q0 -23 -16 -38t-39 -15zM23 1569q0 23 15 38t38 15q22 0 37.5 -15t15.5 -38q0 -22 -16 -39t-37 -17q-23 0 -38 17t-15 39zM217 1569q0 23 15.5 38t37.5 15q24 0 40 -15t16 -38
q0 -22 -16.5 -39t-39.5 -17q-21 0 -37 17t-16 39z" />
    <glyph glyph-name="Eth" unicode="&#xd0;" horiz-adv-x="1482" 
d="M684 1434q146 0 279 -56.5t229 -152.5t152.5 -229t56.5 -279q0 -145 -56.5 -277.5t-152.5 -229t-229 -153.5t-279 -57h-387q-22 0 -38 15t-17 38v4v625h-146q-23 0 -39 17t-16 40q0 22 16 39t39 17h146v565v22q0 21 16 36.5t41 15.5h385zM350 113l334 -4q166 0 306 82
t221 221.5t81 304.5q0 166 -81 306t-221 221t-306 81h-334v-530h316q23 0 39 -17t16 -39q0 -23 -16 -40t-39 -17h-316v-569z" />
    <glyph glyph-name="Ntilde" unicode="&#xd1;" horiz-adv-x="1421" 
d="M193 0q-23 0 -38.5 16t-15.5 41v1325q0 18 10 33t27 19q38 13 62 -17l933 -1200v1165q0 23 16 39.5t38 16.5q25 0 41 -16t16 -40v-1325q0 -43 -37 -53q-6 -4 -20 -4q-27 0 -43 23l-932 1198v-1164q0 -25 -16 -41t-41 -16zM489 1593q-3 15 4.5 28.5t22.5 16.5q13 4 27 -3
t20 -19q13 -42 55 -39q18 3 43 24t53.5 39.5t57.5 18.5q46 0 81 -27.5t44 -70.5q4 -17 -4 -29.5t-21 -15.5q-15 -5 -29 1.5t-20 24.5q-10 44 -57 41q-19 -5 -46 -26t-54.5 -38.5t-53.5 -17.5q-44 0 -78.5 25t-44.5 67z" />
    <glyph glyph-name="Ograve" unicode="&#xd2;" horiz-adv-x="1619" 
d="M811 -14q-148 0 -284 58.5t-234 156.5t-156.5 234t-58.5 284t58.5 283.5t156.5 233.5t234 156t284 58q197 0 365.5 -98t267 -266.5t98.5 -366.5t-98.5 -367t-267 -267.5t-365.5 -98.5zM190 719q0 -168 83.5 -311.5t226.5 -227.5t311 -84t311 84t226.5 227.5t83.5 311.5
t-83.5 311t-226.5 226t-311 83t-311 -83t-226.5 -226t-83.5 -311zM700 1659q-15 29 1.5 50.5t44.5 19.5t40 -31l54 -135q9 -18 -3 -31.5t-31 -12.5t-28 19z" />
    <glyph glyph-name="Oacute" unicode="&#xd3;" horiz-adv-x="1619" 
d="M811 -14q-148 0 -284 58.5t-234 156.5t-156.5 234t-58.5 284t58.5 283.5t156.5 233.5t234 156t284 58q197 0 365.5 -98t267 -266.5t98.5 -366.5t-98.5 -367t-267 -267.5t-365.5 -98.5zM190 719q0 -168 83.5 -311.5t226.5 -227.5t311 -84t311 84t226.5 227.5t83.5 311.5
t-83.5 311t-226.5 226t-311 83t-311 -83t-226.5 -226t-83.5 -311zM780 1550l54 136q11 29 38.5 30.5t45.5 -20t4 -49.5l-78 -123q-14 -26 -43.5 -14.5t-20.5 40.5z" />
    <glyph glyph-name="Ocircumflex" unicode="&#xd4;" horiz-adv-x="1619" 
d="M811 -14q-148 0 -284 58.5t-234 156.5t-156.5 234t-58.5 284t58.5 283.5t156.5 233.5t234 156t284 58q197 0 365.5 -98t267 -266.5t98.5 -366.5t-98.5 -367t-267 -267.5t-365.5 -98.5zM190 719q0 -168 83.5 -311.5t226.5 -227.5t311 -84t311 84t226.5 227.5t83.5 311.5
t-83.5 311t-226.5 226t-311 83t-311 -83t-226.5 -226t-83.5 -311zM618 1597l166 185q11 13 28 12.5t28 -12.5l168 -185q10 -12 9 -27t-13 -26q-12 -9 -26.5 -8.5t-23.5 10.5l-143 156l-135 -156q-11 -11 -27 -11.5t-28 9.5q-24 29 -3 53z" />
    <glyph glyph-name="Otilde" unicode="&#xd5;" horiz-adv-x="1619" 
d="M811 -14q-148 0 -284 58.5t-234 156.5t-156.5 234t-58.5 284t58.5 283.5t156.5 233.5t234 156t284 58q197 0 365.5 -98t267 -266.5t98.5 -366.5t-98.5 -367t-267 -267.5t-365.5 -98.5zM190 719q0 -168 83.5 -311.5t226.5 -227.5t311 -84t311 84t226.5 227.5t83.5 311.5
t-83.5 311t-226.5 226t-311 83t-311 -83t-226.5 -226t-83.5 -311zM594 1638q-3 15 4.5 28.5t22.5 16.5q13 4 27 -2.5t20 -19.5q13 -42 55 -39q18 3 43 24t53.5 39.5t57.5 18.5q46 0 80.5 -27.5t43.5 -70.5q4 -18 -3.5 -30t-20.5 -15q-15 -5 -29 1.5t-20 24.5q-4 20 -20 31.5
t-38 9.5q-19 -5 -45.5 -26t-54 -38.5t-53.5 -17.5q-44 0 -78.5 25t-44.5 67z" />
    <glyph glyph-name="Odieresis" unicode="&#xd6;" horiz-adv-x="1619" 
d="M811 -14q-148 0 -284 58.5t-234 156.5t-156.5 234t-58.5 284t58.5 283.5t156.5 233.5t234 156t284 58q197 0 365.5 -98t267 -266.5t98.5 -366.5t-98.5 -367t-267 -267.5t-365.5 -98.5zM190 719q0 -168 83.5 -311.5t226.5 -227.5t311 -84t311 84t226.5 227.5t83.5 311.5
t-83.5 311t-226.5 226t-311 83t-311 -83t-226.5 -226t-83.5 -311zM662 1569q0 23 15 38t38 15q22 0 37.5 -15t15.5 -38q0 -22 -16 -39t-37 -17q-23 0 -38 17t-15 39zM858 1569q0 23 15 38t38 15q22 0 38 -15t16 -38q0 -22 -16 -39t-38 -17q-23 0 -38 17t-15 39z" />
    <glyph glyph-name="multiply" unicode="&#xd7;" horiz-adv-x="729" 
d="M115 866q-12 12 -11.5 32.5t13.5 33.5q12 14 32.5 14t30.5 -14l185 -184l184 184q13 11 32 11t33 -13q12 -14 11.5 -33t-11.5 -31l-184 -182l184 -184q13 -14 12.5 -33t-12.5 -31q-14 -14 -32.5 -14.5t-32.5 12.5l-184 184l-185 -184q-14 -14 -32.5 -14t-30.5 14
q-13 13 -13.5 32t11.5 32l184 184z" />
    <glyph glyph-name="Oslash" unicode="&#xd8;" horiz-adv-x="1619" 
d="M811 -14q-229 0 -416 131l-84 -105q-18 -22 -43 -18q-20 0 -35 12q-17 15 -18 37t14 39l82 102q-109 102 -171 241t-62 294q0 148 58.5 283.5t156.5 233.5t234 156t284 58q233 0 414 -123l75 94q14 17 37.5 19t40.5 -13q15 -15 17 -37t-13 -40l-71 -90
q110 -101 170.5 -241t60.5 -300q0 -198 -98.5 -367t-267 -267.5t-365.5 -98.5zM190 719q0 -129 50.5 -245t140.5 -204l772 967q-151 102 -342 102q-168 0 -311 -83t-226.5 -226t-83.5 -311zM465 203q154 -107 346 -107q168 0 311 84t226.5 227.5t83.5 311.5q0 130 -51.5 247
t-143.5 203z" />
    <glyph glyph-name="Ugrave" unicode="&#xd9;" horiz-adv-x="1388" 
d="M694 -6q-156 0 -288 77t-208.5 209t-76.5 287v813q0 23 16 39.5t39 16.5t39 -16.5t16 -39.5v-813q0 -126 62.5 -233t169 -169.5t231.5 -62.5q127 0 233.5 62.5t168 169.5t61.5 233v813q0 23 17 39.5t40 16.5q22 0 39 -16.5t17 -39.5v-813q0 -155 -77.5 -287t-210 -209
t-288.5 -77zM588 1659q-15 29 1.5 50.5t44.5 19.5t40 -31l53 -135q9 -18 -2.5 -31.5t-30.5 -12.5t-28 19z" />
    <glyph glyph-name="Uacute" unicode="&#xda;" horiz-adv-x="1388" 
d="M694 -6q-156 0 -288 77t-208.5 209t-76.5 287v813q0 23 16 39.5t39 16.5t39 -16.5t16 -39.5v-813q0 -126 62.5 -233t169 -169.5t231.5 -62.5q127 0 233.5 62.5t168 169.5t61.5 233v813q0 23 17 39.5t40 16.5q22 0 39 -16.5t17 -39.5v-813q0 -155 -77.5 -287t-210 -209
t-288.5 -77zM668 1550l53 136q11 29 38.5 30.5t45.5 -20t4 -49.5l-78 -123q-14 -26 -43 -14.5t-20 40.5z" />
    <glyph glyph-name="Ucircumflex" unicode="&#xdb;" horiz-adv-x="1388" 
d="M694 -6q-156 0 -288 77t-208.5 209t-76.5 287v813q0 23 16 39.5t39 16.5t39 -16.5t16 -39.5v-813q0 -126 62.5 -233t169 -169.5t231.5 -62.5q127 0 233.5 62.5t168 169.5t61.5 233v813q0 23 17 39.5t40 16.5q22 0 39 -16.5t17 -39.5v-813q0 -155 -77.5 -287t-210 -209
t-288.5 -77zM506 1597l166 185q11 13 27.5 12.5t27.5 -12.5l168 -185q10 -12 9 -27t-13 -26q-12 -9 -26 -8.5t-23 10.5l-144 156l-135 -156q-11 -11 -27 -11.5t-28 9.5q-10 11 -11 25.5t9 27.5z" />
    <glyph glyph-name="Udieresis" unicode="&#xdc;" horiz-adv-x="1388" 
d="M694 -6q-156 0 -288 77t-208.5 209t-76.5 287v813q0 23 16 39.5t39 16.5t39 -16.5t16 -39.5v-813q0 -126 62.5 -233t169 -169.5t231.5 -62.5q127 0 233.5 62.5t168 169.5t61.5 233v813q0 23 17 39.5t40 16.5q22 0 39 -16.5t17 -39.5v-813q0 -155 -77.5 -287t-210 -209
t-288.5 -77zM547 1569q0 23 15 38t38 15q22 0 37.5 -15t15.5 -38q0 -22 -16 -39t-37 -17q-23 0 -38 17t-15 39zM743 1569q0 23 15.5 38t38.5 15q22 0 37.5 -15t15.5 -38q0 -22 -16 -39t-37 -17q-23 0 -38.5 17t-15.5 39z" />
    <glyph glyph-name="Yacute" unicode="&#xdd;" horiz-adv-x="1243" 
d="M1159 1425q20 -12 25 -33.5t-6 -41.5l-500 -795l-2 -500q0 -23 -16 -39t-39 -16t-38.5 16t-15.5 39l2 500l-503 795q-12 20 -7.5 41.5t23.5 33.5q20 12 43 7.5t33 -23.5l465 -735l460 735q12 19 34 23.5t42 -7.5zM592 1550l53 136q11 29 38.5 30.5t45.5 -20t4 -49.5
l-78 -123q-14 -26 -43 -14.5t-20 40.5z" />
    <glyph glyph-name="Thorn" unicode="&#xde;" horiz-adv-x="1110" 
d="M174 0q-23 0 -39 16t-16 39v1323q0 23 16 39.5t39 16.5t39 -16.5t16 -39.5v-239h379q175 0 297.5 -123.5t122.5 -298.5q0 -172 -123 -295t-297 -123h-379v-244q0 -23 -16 -39t-39 -16zM229 410h379q128 0 219 90t91 217q0 129 -91 220t-219 91h-379v-618z" />
    <glyph glyph-name="agrave" unicode="&#xe0;" horiz-adv-x="1124" 
d="M555 -6q-132 0 -243.5 65t-176.5 176.5t-65 243.5q0 131 65 243t176.5 177.5t243.5 65.5q131 0 242.5 -65.5t177 -177.5t65.5 -243v-8v-2v-418q0 -23 -14.5 -38t-36.5 -15t-36.5 15t-14.5 38v150q-70 -93 -169 -150t-214 -57zM178 479q0 -155 111 -265t266 -110
q157 0 267 110t110 265q0 157 -110 267t-267 110q-156 0 -266.5 -110.5t-110.5 -266.5zM444 1186q-15 29 1.5 50.5t44.5 19.5t40 -31l54 -135q9 -18 -3 -31.5t-31 -12.5t-28 19z" />
    <glyph glyph-name="aacute" unicode="&#xe1;" horiz-adv-x="1124" 
d="M555 -6q-132 0 -243.5 65t-176.5 176.5t-65 243.5q0 131 65 243t176.5 177.5t243.5 65.5q131 0 242.5 -65.5t177 -177.5t65.5 -243v-8v-2v-418q0 -23 -14.5 -38t-36.5 -15t-36.5 15t-14.5 38v150q-70 -93 -169 -150t-214 -57zM178 479q0 -155 111 -265t266 -110
q157 0 267 110t110 265q0 157 -110 267t-267 110q-156 0 -266.5 -110.5t-110.5 -266.5zM524 1075l54 135q11 29 38.5 30.5t45.5 -20t4 -49.5l-78 -122q-14 -26 -43.5 -14.5t-20.5 40.5z" />
    <glyph glyph-name="acircumflex" unicode="&#xe2;" horiz-adv-x="1124" 
d="M555 -6q-132 0 -243.5 65t-176.5 176.5t-65 243.5q0 131 65 243t176.5 177.5t243.5 65.5q131 0 242.5 -65.5t177 -177.5t65.5 -243v-8v-2v-418q0 -23 -14.5 -38t-36.5 -15t-36.5 15t-14.5 38v150q-70 -93 -169 -150t-214 -57zM178 479q0 -155 111 -265t266 -110
q157 0 267 110t110 265q0 157 -110 267t-267 110q-156 0 -266.5 -110.5t-110.5 -266.5zM362 1122l166 185q11 13 28 12.5t28 -12.5l168 -185q10 -12 9 -27t-13 -26q-12 -9 -26.5 -8.5t-23.5 10.5l-143 156l-135 -156q-11 -11 -27 -11.5t-28 9.5q-24 29 -3 53z" />
    <glyph glyph-name="atilde" unicode="&#xe3;" horiz-adv-x="1124" 
d="M555 -6q-132 0 -243.5 65t-176.5 176.5t-65 243.5q0 131 65 243t176.5 177.5t243.5 65.5q131 0 242.5 -65.5t177 -177.5t65.5 -243v-8v-2v-418q0 -23 -14.5 -38t-36.5 -15t-36.5 15t-14.5 38v150q-70 -93 -169 -150t-214 -57zM178 479q0 -155 111 -265t266 -110
q157 0 267 110t110 265q0 157 -110 267t-267 110q-156 0 -266.5 -110.5t-110.5 -266.5zM338 1165q-3 15 4.5 28.5t22.5 16.5q13 4 27 -3t20 -19q13 -42 55 -39q18 3 43 24t53.5 39.5t57.5 18.5q46 0 80.5 -27.5t43.5 -70.5q4 -18 -3.5 -30.5t-20.5 -15.5q-14 -5 -28.5 2
t-20.5 25q-4 20 -20 31.5t-38 9.5q-19 -5 -45.5 -26t-54 -38.5t-53.5 -17.5q-44 0 -78.5 25t-44.5 67z" />
    <glyph glyph-name="adieresis" unicode="&#xe4;" horiz-adv-x="1124" 
d="M555 -6q-132 0 -243.5 65t-176.5 176.5t-65 243.5q0 131 65 243t176.5 177.5t243.5 65.5q131 0 242.5 -65.5t177 -177.5t65.5 -243v-8v-2v-418q0 -23 -14.5 -38t-36.5 -15t-36.5 15t-14.5 38v150q-70 -93 -169 -150t-214 -57zM178 479q0 -155 111 -265t266 -110
q157 0 267 110t110 265q0 157 -110 267t-267 110q-156 0 -266.5 -110.5t-110.5 -266.5zM406 1096q0 23 15 38t38 15q22 0 37.5 -15t15.5 -38q0 -22 -16 -39t-37 -17q-23 0 -38 17t-15 39zM602 1096q0 23 15 38t38 15q22 0 38 -15t16 -38q0 -22 -16 -39t-38 -17q-23 0 -38 17
t-15 39z" />
    <glyph glyph-name="aring" unicode="&#xe5;" horiz-adv-x="1124" 
d="M555 -6q-132 0 -243.5 65t-176.5 176.5t-65 243.5q0 131 65 243t176.5 177.5t243.5 65.5q131 0 242.5 -65.5t177 -177.5t65.5 -243v-8v-2v-418q0 -23 -14.5 -38t-36.5 -15t-36.5 15t-14.5 38v150q-70 -93 -169 -150t-214 -57zM178 479q0 -155 111 -265t266 -110
q157 0 267 110t110 265q0 157 -110 267t-267 110q-156 0 -266.5 -110.5t-110.5 -266.5zM406 1217q0 58 44.5 100.5t104.5 42.5q63 0 106.5 -42t43.5 -101q0 -60 -43.5 -103t-106.5 -43q-60 0 -104.5 43t-44.5 103zM479 1217q0 -31 21.5 -50.5t54.5 -19.5q30 0 51 20t21 50
q0 29 -21 49t-51 20q-32 0 -54 -20t-22 -49z" />
    <glyph glyph-name="ae" unicode="&#xe6;" horiz-adv-x="1941" 
d="M547 -6q-132 0 -244 65t-177 176.5t-65 243.5q0 131 65 243t177 177.5t244 65.5q136 0 252 -71.5t178 -188.5q59 118 174.5 190t253.5 72q198 0 336.5 -137.5t138.5 -333.5q0 -18 -11.5 -32.5t-29.5 -19.5q-4 -2 -12 -2l-793 -2q15 -135 111.5 -225t238.5 -104
q216 -22 363 120q18 10 39 5.5t31 -23.5t4 -38.5t-25 -31.5q-151 -164 -426 -139q-208 18 -338 174v-127q0 -23 -14.5 -38t-36.5 -15t-36.5 15t-14.5 38v131q-69 -88 -168.5 -138t-214.5 -50zM172 479q0 -155 110 -265t265 -110q157 0 267 110t110 265q0 157 -110 267
t-267 110q-155 0 -265 -110t-110 -267zM1034 528h735q-12 142 -115.5 239t-248.5 97q-143 0 -249.5 -96t-121.5 -240z" />
    <glyph glyph-name="ccedilla" unicode="&#xe7;" horiz-adv-x="948" 
d="M446 -406q-34 9 -30 46q9 33 49 26q119 -25 184 23q36 24 43 58.5t-16 55.5q-26 29 -78 29q-55 0 -98 -22q-23 -9 -42 7.5t-7 41.5l61 137q-188 17 -315 156.5t-127 330.5q0 201 142.5 344.5t344.5 143.5q169 0 299 -103q19 -14 22 -36t-12 -41q-14 -18 -35.5 -21
t-39.5 12q-104 78 -234 78q-155 0 -266 -111t-111 -266q0 -157 111 -268t266 -111q127 0 234 80q17 14 39.5 11t35.5 -21q15 -17 12 -40.5t-22 -37.5q-116 -91 -264 -100l-43 -94q48 11 101 -2t81 -47q40 -45 33 -113q-3 -32 -22 -62.5t-48 -50.5q-107 -70 -248 -33z" />
    <glyph glyph-name="egrave" unicode="&#xe8;" horiz-adv-x="1095" 
d="M516 4q-196 19 -321 155t-125 326q0 131 64.5 242t175 175.5t241.5 64.5q198 0 336.5 -137.5t138.5 -333.5q0 -18 -11.5 -32.5t-29.5 -19.5q-4 -2 -12 -2l-793 -2q15 -135 110.5 -225.5t239.5 -105.5q218 -22 363 118q18 10 39 7t31 -21q10 -19 4 -38.5t-25 -31.5
q-151 -164 -426 -139zM180 528h735q-12 142 -115.5 239t-248.5 97q-143 0 -249.5 -96t-121.5 -240zM440 1188q-15 29 1.5 50.5t44.5 19.5t40 -31l54 -135q9 -18 -3 -31.5t-31 -12.5t-28 19z" />
    <glyph glyph-name="eacute" unicode="&#xe9;" horiz-adv-x="1095" 
d="M516 4q-196 19 -321 155t-125 326q0 131 64.5 242t175 175.5t241.5 64.5q198 0 336.5 -137.5t138.5 -333.5q0 -18 -11.5 -32.5t-29.5 -19.5q-4 -2 -12 -2l-793 -2q15 -135 110.5 -225.5t239.5 -105.5q218 -22 363 118q18 10 39 7t31 -21q10 -19 4 -38.5t-25 -31.5
q-151 -164 -426 -139zM180 528h735q-12 142 -115.5 239t-248.5 97q-143 0 -249.5 -96t-121.5 -240zM520 1079l53 135q11 29 39 31t46 -19.5t4 -49.5l-78 -123q-14 -26 -43.5 -14.5t-20.5 40.5z" />
    <glyph glyph-name="ecircumflex" unicode="&#xea;" horiz-adv-x="1095" 
d="M516 4q-196 19 -321 155t-125 326q0 131 64.5 242t175 175.5t241.5 64.5q198 0 336.5 -137.5t138.5 -333.5q0 -18 -11.5 -32.5t-29.5 -19.5q-4 -2 -12 -2l-793 -2q15 -135 110.5 -225.5t239.5 -105.5q218 -22 363 118q18 10 39 7t31 -21q10 -19 4 -38.5t-25 -31.5
q-151 -164 -426 -139zM180 528h735q-12 142 -115.5 239t-248.5 97q-143 0 -249.5 -96t-121.5 -240zM360 1126l166 185q11 13 28 12.5t28 -12.5l168 -185q10 -12 8.5 -27t-13.5 -26q-12 -9 -26 -8.5t-23 10.5l-143 156l-135 -156q-11 -11 -27.5 -11.5t-28.5 9.5
q-10 11 -11 25.5t9 27.5z" />
    <glyph glyph-name="edieresis" unicode="&#xeb;" horiz-adv-x="1095" 
d="M516 4q-196 19 -321 155t-125 326q0 131 64.5 242t175 175.5t241.5 64.5q198 0 336.5 -137.5t138.5 -333.5q0 -18 -11.5 -32.5t-29.5 -19.5q-4 -2 -12 -2l-793 -2q15 -135 110.5 -225.5t239.5 -105.5q218 -22 363 118q18 10 39 7t31 -21q10 -19 4 -38.5t-25 -31.5
q-151 -164 -426 -139zM180 528h735q-12 142 -115.5 239t-248.5 97q-143 0 -249.5 -96t-121.5 -240zM401 1098q0 23 15.5 38t38.5 15q22 0 37.5 -15t15.5 -38q0 -22 -16 -39t-37 -17q-23 0 -38.5 17t-15.5 39zM598 1098q0 23 15 38t38 15q22 0 38 -15t16 -38q0 -22 -16 -39
t-38 -17q-23 0 -38 17t-15 39z" />
    <glyph glyph-name="igrave" unicode="&#xec;" horiz-adv-x="307" 
d="M154 0q-24 0 -40 16t-16 39v856q0 24 16 40t40 16q22 0 38.5 -16.5t16.5 -39.5v-856q0 -23 -16.5 -39t-38.5 -16zM35 1210q-15 29 1.5 50.5t44.5 19.5t40 -31l55 -139q9 -18 -2.5 -31.5t-30.5 -12.5t-28 19z" />
    <glyph glyph-name="iacute" unicode="&#xed;" horiz-adv-x="307" 
d="M154 0q-24 0 -40 16t-16 39v856q0 24 16 40t40 16q22 0 38.5 -16.5t16.5 -39.5v-856q0 -23 -16.5 -39t-38.5 -16zM121 1100l53 139q13 28 41 30t45 -19.5t2 -51.5l-80 -125q-9 -18 -28 -18.5t-30.5 13.5t-2.5 32z" />
    <glyph glyph-name="icircumflex" unicode="&#xee;" horiz-adv-x="307" 
d="M154 0q-24 0 -40 16t-16 39v856q0 24 16 40t40 16q22 0 38.5 -16.5t16.5 -39.5v-856q0 -23 -16.5 -39t-38.5 -16zM-39 1143l166 186q10 12 28 12t27 -12l168 -186q23 -26 -2.5 -50.5t-50.5 1.5l-143 155l-136 -155q-16 -17 -37 -11.5t-27.5 23.5t7.5 37z" />
    <glyph glyph-name="idieresis" unicode="&#xef;" horiz-adv-x="307" 
d="M154 0q-24 0 -40 16t-16 39v856q0 24 16 40t40 16q22 0 38.5 -16.5t16.5 -39.5v-856q0 -23 -16.5 -39t-38.5 -16zM2 1098q0 23 15 38t38 15q22 0 38 -15t16 -38q0 -22 -16 -39t-38 -17q-23 0 -38 17t-15 39zM197 1098q0 23 15.5 38t37.5 15q23 0 39 -15t16 -38
q0 -22 -16 -39t-39 -17q-21 0 -37 17t-16 39z" />
    <glyph glyph-name="eth" unicode="&#xf0;" horiz-adv-x="1136" 
d="M565 -10q-204 0 -349.5 146t-145.5 351q0 99 39.5 190.5t106 157.5t158 105t191.5 39q101 0 192.5 -38t160.5 -107q-34 174 -113 333l-209 -37q-50 -4 -53 35q-4 19 6.5 32.5t30.5 16.5l184 33q-31 54 -68 103q-13 20 -8 41.5t25 33.5q18 12 40.5 8t34.5 -24
q55 -78 91 -141l190 35q47 3 53 -35q3 -19 -8 -33.5t-31 -17.5l-165 -29q47 -103 79 -213t44.5 -203.5t16.5 -155t3 -112.5v-17q0 -205 -146 -351t-350 -146zM180 487q0 -160 113.5 -273.5t271.5 -113.5q159 0 271 113.5t112 273.5q0 159 -112 271t-271 112
q-158 0 -271.5 -112.5t-113.5 -270.5z" />
    <glyph glyph-name="ntilde" unicode="&#xf1;" 
d="M143 0q-23 0 -39 16t-16 39v494q0 174 123 297t297 123t297 -123t123 -297v-494q0 -23 -16.5 -39t-39.5 -16t-39 16t-16 39v494q0 127 -90.5 218t-218.5 91t-218.5 -91t-90.5 -218v-494q0 -23 -16.5 -39t-39.5 -16zM289 1167q-3 15 4 28.5t22 16.5q13 4 27 -3t20 -19
q13 -42 56 -39q18 3 42.5 24t53 39.5t57.5 18.5q46 0 81 -27.5t44 -70.5q4 -18 -3.5 -30t-20.5 -15q-15 -5 -29 1.5t-20 24.5q-4 20 -20 31.5t-38 9.5q-19 -5 -45.5 -26t-54 -38.5t-53.5 -17.5q-44 0 -78.5 25t-44.5 67z" />
    <glyph glyph-name="ograve" unicode="&#xf2;" horiz-adv-x="1093" 
d="M547 -6q-132 0 -244 65t-177 176.5t-65 243.5q0 131 65 243t177 177.5t244 65.5q131 0 242.5 -65.5t177 -177.5t65.5 -243q0 -132 -65.5 -243.5t-177 -176.5t-242.5 -65zM172 479q0 -155 110 -265t265 -110q157 0 267 110t110 265q0 157 -110 267t-267 110
q-155 0 -265 -110t-110 -267zM432 1192q-15 29 1.5 50.5t44.5 19.5t40 -31l53 -135q9 -18 -2.5 -31.5t-30.5 -12.5t-28 19z" />
    <glyph glyph-name="oacute" unicode="&#xf3;" horiz-adv-x="1093" 
d="M547 -6q-132 0 -244 65t-177 176.5t-65 243.5q0 131 65 243t177 177.5t244 65.5q131 0 242.5 -65.5t177 -177.5t65.5 -243q0 -132 -65.5 -243.5t-177 -176.5t-242.5 -65zM172 479q0 -155 110 -265t265 -110q157 0 267 110t110 265q0 157 -110 267t-267 110
q-155 0 -265 -110t-110 -267zM512 1083l53 136q11 29 38.5 30.5t45.5 -20t4 -49.5l-78 -123q-14 -26 -43 -14.5t-20 40.5z" />
    <glyph glyph-name="ocircumflex" unicode="&#xf4;" horiz-adv-x="1093" 
d="M547 -6q-132 0 -244 65t-177 176.5t-65 243.5q0 131 65 243t177 177.5t244 65.5q131 0 242.5 -65.5t177 -177.5t65.5 -243q0 -132 -65.5 -243.5t-177 -176.5t-242.5 -65zM172 479q0 -155 110 -265t265 -110q157 0 267 110t110 265q0 157 -110 267t-267 110
q-155 0 -265 -110t-110 -267zM350 1130l166 185q11 13 27.5 12.5t27.5 -12.5l168 -185q10 -12 9 -27t-13 -26q-12 -9 -26 -8.5t-23 10.5l-143 156l-135 -156q-11 -11 -27.5 -11.5t-28.5 9.5q-10 11 -11 25.5t9 27.5z" />
    <glyph glyph-name="otilde" unicode="&#xf5;" horiz-adv-x="1093" 
d="M547 -6q-132 0 -244 65t-177 176.5t-65 243.5q0 131 65 243t177 177.5t244 65.5q131 0 242.5 -65.5t177 -177.5t65.5 -243q0 -132 -65.5 -243.5t-177 -176.5t-242.5 -65zM172 479q0 -155 110 -265t265 -110q157 0 267 110t110 265q0 157 -110 267t-267 110
q-155 0 -265 -110t-110 -267zM324 1171q-3 16 4 29.5t22 16.5q13 4 27 -3t20 -20q13 -42 56 -39q18 3 42.5 24t53 39.5t57.5 18.5q46 0 81 -27.5t44 -70.5q4 -18 -3.5 -30t-20.5 -15q-15 -5 -29.5 1.5t-20.5 24.5q-10 44 -57 41q-19 -5 -46 -26t-54.5 -38.5t-53.5 -17.5
q-44 0 -78 25t-44 67z" />
    <glyph glyph-name="odieresis" unicode="&#xf6;" horiz-adv-x="1093" 
d="M547 -6q-132 0 -244 65t-177 176.5t-65 243.5q0 131 65 243t177 177.5t244 65.5q131 0 242.5 -65.5t177 -177.5t65.5 -243q0 -132 -65.5 -243.5t-177 -176.5t-242.5 -65zM172 479q0 -155 110 -265t265 -110q157 0 267 110t110 265q0 157 -110 267t-267 110
q-155 0 -265 -110t-110 -267zM391 1102q0 23 15 38t38 15q22 0 38 -15t16 -38q0 -22 -16 -38.5t-38 -16.5q-23 0 -38 16.5t-15 38.5zM588 1102q0 23 15 38t38 15q22 0 37.5 -15t15.5 -38q0 -22 -15.5 -38.5t-37.5 -16.5q-23 0 -38 16.5t-15 38.5z" />
    <glyph glyph-name="divide" unicode="&#xf7;" horiz-adv-x="997" 
d="M154 666q-22 0 -37 14.5t-15 38.5q0 21 15 35t37 14h690q23 0 37 -13.5t14 -35.5q0 -25 -14 -39t-37 -14h-690zM418 442q0 34 23 57t57 23q32 0 54.5 -23t22.5 -57q0 -33 -22.5 -56.5t-54.5 -23.5q-33 0 -56.5 23.5t-23.5 56.5zM418 997q0 32 23 55t57 23q32 0 54.5 -23
t22.5 -55q0 -33 -22.5 -57.5t-54.5 -24.5q-33 0 -56.5 24.5t-23.5 57.5z" />
    <glyph glyph-name="oslash" unicode="&#xf8;" horiz-adv-x="1093" 
d="M547 -6q-146 0 -268 80l-54 -64q-11 -14 -32 -14q-17 0 -27 10q-13 12 -15 29.5t9 27.5l53 64q-72 67 -112 158t-40 194q0 131 65 243t177 177.5t244 65.5q154 0 289 -97l63 76q10 13 28.5 15t30.5 -9q13 -13 14.5 -30t-9.5 -31l-64 -76q133 -143 133 -334
q0 -132 -65.5 -243.5t-177 -176.5t-242.5 -65zM172 479q0 -155 113 -268l481 575q-99 70 -219 70q-155 0 -265 -110t-110 -267zM350 160q91 -56 197 -56q157 0 267 110t110 265q0 144 -95 250z" />
    <glyph glyph-name="ugrave" unicode="&#xf9;" 
d="M143 969q24 0 40 -16t16 -40v-493q0 -128 90.5 -218.5t218.5 -90.5t218.5 90.5t90.5 218.5v493q0 25 15.5 40.5t39.5 15.5t40 -16t16 -40v-493q0 -173 -123.5 -296.5t-296.5 -123.5t-296.5 123.5t-123.5 296.5v493q0 25 16 40.5t39 15.5zM397 1192q-15 29 1.5 50.5
t44.5 19.5t40 -31l54 -135q9 -18 -3 -31.5t-31 -12.5t-28 19z" />
    <glyph glyph-name="uacute" unicode="&#xfa;" 
d="M143 969q24 0 40 -16t16 -40v-493q0 -128 90.5 -218.5t218.5 -90.5t218.5 90.5t90.5 218.5v493q0 25 15.5 40.5t39.5 15.5t40 -16t16 -40v-493q0 -173 -123.5 -296.5t-296.5 -123.5t-296.5 123.5t-123.5 296.5v493q0 25 16 40.5t39 15.5zM477 1083l53 136
q11 29 38.5 30.5t45.5 -20t4 -49.5l-77 -123q-14 -26 -43.5 -14.5t-20.5 40.5z" />
    <glyph glyph-name="ucircumflex" unicode="&#xfb;" 
d="M143 969q24 0 40 -16t16 -40v-493q0 -128 90.5 -218.5t218.5 -90.5t218.5 90.5t90.5 218.5v493q0 25 15.5 40.5t39.5 15.5t40 -16t16 -40v-493q0 -173 -123.5 -296.5t-296.5 -123.5t-296.5 123.5t-123.5 296.5v493q0 25 16 40.5t39 15.5zM317 1130l166 185q11 13 28 12.5
t28 -12.5l168 -185q10 -12 8.5 -27t-13.5 -26q-12 -9 -26 -8.5t-23 10.5l-143 156l-135 -156q-11 -11 -27.5 -11.5t-28.5 9.5q-10 11 -11 25.5t9 27.5z" />
    <glyph glyph-name="udieresis" unicode="&#xfc;" 
d="M143 969q24 0 40 -16t16 -40v-493q0 -128 90.5 -218.5t218.5 -90.5t218.5 90.5t90.5 218.5v493q0 25 15.5 40.5t39.5 15.5t40 -16t16 -40v-493q0 -173 -123.5 -296.5t-296.5 -123.5t-296.5 123.5t-123.5 296.5v493q0 25 16 40.5t39 15.5zM358 1102q0 23 15.5 38t38.5 15
q22 0 37.5 -15t15.5 -38q0 -22 -15.5 -38.5t-37.5 -16.5q-23 0 -38.5 16.5t-15.5 38.5zM555 1102q0 23 15 38t38 15q22 0 38 -15t16 -38q0 -22 -16 -38.5t-38 -16.5q-23 0 -38 16.5t-15 38.5z" />
    <glyph glyph-name="yacute" unicode="&#xfd;" horiz-adv-x="964" 
d="M342 -348q-17 0 -25 4q-20 9 -27.5 31.5t1.5 42.5l137 317l-375 836q-9 22 -1 44t28 29q22 10 42.5 3t31.5 -27l333 -746l324 744q11 22 32 29t44 -3q19 -8 26.5 -29t-2.5 -44l-520 -1198q-6 -15 -20 -24t-29 -9zM453 1083l53 136q11 29 38.5 30.5t45.5 -20t4 -49.5
l-78 -123q-14 -26 -43 -14.5t-20 40.5z" />
    <glyph glyph-name="thorn" unicode="&#xfe;" horiz-adv-x="1114" 
d="M567 -2q-115 0 -215.5 50t-167.5 136v-542q0 -23 -15 -38.5t-36 -15.5q-22 0 -36.5 15.5t-14.5 38.5v1689q0 22 15 38.5t36 16.5q20 0 35.5 -16.5t15.5 -38.5v-551q67 88 167.5 138.5t215.5 50.5q132 0 244 -65.5t177 -177.5t65 -243q0 -132 -65 -243.5t-177 -176.5
t-244 -65zM190 483q0 -157 110 -267t267 -110q155 0 265 110t110 267t-110 267t-265 110q-157 0 -267 -110t-110 -267z" />
    <glyph glyph-name="ydieresis" unicode="&#xff;" horiz-adv-x="964" 
d="M342 -348q-17 0 -25 4q-20 9 -27.5 31.5t1.5 42.5l137 317l-375 836q-9 22 -1 44t28 29q22 10 42.5 3t31.5 -27l333 -746l324 744q11 22 32 29t44 -3q19 -8 26.5 -29t-2.5 -44l-520 -1198q-6 -15 -20 -24t-29 -9zM334 1102q0 23 15 38t38 15q22 0 37.5 -15t15.5 -38
q0 -22 -15.5 -38.5t-37.5 -16.5q-23 0 -38 16.5t-15 38.5zM530 1102q0 23 15.5 38t38.5 15q22 0 37.5 -15t15.5 -38q0 -22 -15.5 -38.5t-37.5 -16.5q-23 0 -38.5 16.5t-15.5 38.5z" />
    <glyph glyph-name="Amacron" unicode="&#x100;" horiz-adv-x="1386" 
d="M147 33q-15 -31 -46 -32.5t-50 22.5t-4 55l596 1325q14 33 48.5 33t49.5 -33l600 -1325q15 -30 -4.5 -54.5t-50.5 -23.5t-45 33l-168 375h-762zM362 516h660l-332 729zM561 1575q-23 0 -32.5 19t0 38t32.5 19h260q23 0 33 -19t0.5 -38t-33.5 -19h-260z" />
    <glyph glyph-name="amacron" unicode="&#x101;" horiz-adv-x="1124" 
d="M555 -6q-132 0 -243.5 65t-176.5 176.5t-65 243.5q0 131 65 243t176.5 177.5t243.5 65.5q131 0 242.5 -65.5t177 -177.5t65.5 -243v-8v-2v-418q0 -23 -14.5 -38t-36.5 -15t-36.5 15t-14.5 38v150q-70 -93 -169 -150t-214 -57zM178 479q0 -155 111 -265t266 -110
q157 0 267 110t110 265q0 157 -110 267t-267 110q-156 0 -266.5 -110.5t-110.5 -266.5zM426 1090q-23 0 -32.5 19t0 37.5t32.5 18.5h260q23 0 33 -18.5t0.5 -37.5t-33.5 -19h-260z" />
    <glyph glyph-name="Abreve" unicode="&#x102;" horiz-adv-x="1386" 
d="M147 33q-15 -31 -46 -32.5t-50 22.5t-4 55l596 1325q14 33 48.5 33t49.5 -33l600 -1325q15 -30 -4.5 -54.5t-50.5 -23.5t-45 33l-168 375h-762zM362 516h660l-332 729zM483 1708q0 15 12 26t27 11t27 -11t12 -26q0 -51 37 -86t92 -35q53 0 91 35t38 86q0 16 10 26.5
t27 10.5q15 0 26 -11t11 -26q0 -83 -59 -140t-144 -57t-146 57t-61 140z" />
    <glyph glyph-name="abreve" unicode="&#x103;" horiz-adv-x="1124" 
d="M555 -6q-132 0 -243.5 65t-176.5 176.5t-65 243.5q0 131 65 243t176.5 177.5t243.5 65.5q131 0 242.5 -65.5t177 -177.5t65.5 -243v-8v-2v-418q0 -23 -14.5 -38t-36.5 -15t-36.5 15t-14.5 38v150q-70 -93 -169 -150t-214 -57zM178 479q0 -155 111 -265t266 -110
q157 0 267 110t110 265q0 157 -110 267t-267 110q-156 0 -266.5 -110.5t-110.5 -266.5zM348 1223q0 15 12 26t27 11t27 -11t12 -26q0 -51 37 -86t92 -35q53 0 91 35t38 86q0 16 10 26.5t27 10.5q15 0 26 -11t11 -26q0 -83 -59 -140t-144 -57t-146 57t-61 140z" />
    <glyph glyph-name="Aogonek" unicode="&#x104;" horiz-adv-x="1386" 
d="M147 33q-15 -31 -46 -32.5t-50 22.5t-4 55l596 1325q14 33 48.5 33t49.5 -33l600 -1325q13 -24 -2 -51l-2 -2q-34 -61 -77 -117q-18 -24 -28 -37t-23 -32.5t-18.5 -32.5t-10 -30t-3.5 -32.5t7 -32.5q7 -23 31 -42t53 -27q78 -15 133 45q10 12 26.5 12.5t26.5 -10.5
q11 -12 11.5 -28.5t-9.5 -27.5q-68 -71 -158 -71q-25 0 -49 4q-51 13 -88 46.5t-49 76.5q-10 31 -10 61.5t6.5 54t22.5 52.5t29.5 47.5t37.5 48.5q21 26 49 70q-2 2 -6 10l-168 375h-762zM362 516h660l-332 729z" />
    <glyph glyph-name="aogonek" unicode="&#x105;" horiz-adv-x="1124" 
d="M555 -6q-132 0 -243.5 65t-176.5 176.5t-65 243.5q0 131 65 243t176.5 177.5t243.5 65.5q131 0 242.5 -65.5t177 -177.5t65.5 -243v-8v-2v-418q0 -20 -12 -35q-24 -42 -72 -106q-18 -23 -28 -36.5t-22.5 -32.5t-18 -33t-10 -30.5t-3.5 -32t7 -32.5q7 -23 31 -42t53 -27
q78 -15 133 45q10 12 26.5 12.5t26.5 -10.5q11 -12 11.5 -28.5t-9.5 -27.5q-68 -71 -158 -71q-25 0 -49 4q-51 13 -88 46.5t-49 76.5q-10 31 -10 61.5t6.5 54t22.5 52.5t29.5 47.5t37.5 48.5q2 3 21 29t28 41q-6 12 -6 26v150q-70 -93 -169 -150t-214 -57zM178 479
q0 -155 111 -265t266 -110q157 0 267 110t110 265q0 157 -110 267t-267 110q-156 0 -266.5 -110.5t-110.5 -266.5z" />
    <glyph glyph-name="Cacute" unicode="&#x106;" horiz-adv-x="1343" 
d="M811 -12q-197 0 -365 98t-266 266.5t-98 366.5q0 196 98 363.5t266 265.5t365 98q228 0 408 -125q20 -12 24 -35t-8 -43q-12 -19 -35.5 -23t-42.5 9q-154 106 -346 106q-167 0 -309 -83t-224.5 -225t-82.5 -308q0 -168 82.5 -311t224.5 -226.5t309 -83.5q203 0 367 121
q19 14 40.5 10.5t34.5 -22.5q14 -19 11 -42.5t-21 -35.5q-195 -141 -432 -141zM766 1593l53 140q13 28 41 30t45 -19.5t2 -51.5l-80 -125q-9 -18 -28 -19t-30.5 13t-2.5 32z" />
    <glyph glyph-name="cacute" unicode="&#x107;" horiz-adv-x="948" 
d="M557 -6q-133 0 -245 65t-177 177.5t-65 246.5q0 201 142.5 344.5t344.5 143.5q169 0 299 -103q19 -14 22 -36t-12 -41q-14 -18 -35.5 -21t-39.5 12q-104 78 -234 78q-155 0 -266 -111t-111 -266q0 -157 111 -268t266 -111q127 0 234 80q17 14 39.5 11t35.5 -21
q15 -17 12 -40.5t-22 -37.5q-129 -102 -299 -102zM520 1106l53 139q13 28 41 30t45.5 -19.5t2.5 -51.5l-80 -125q-9 -18 -28 -18.5t-31 13.5t-3 32z" />
    <glyph glyph-name="Cdotaccent" unicode="&#x10a;" horiz-adv-x="1343" 
d="M811 -12q-197 0 -365 98t-266 266.5t-98 366.5q0 196 98 363.5t266 265.5t365 98q228 0 408 -125q20 -12 24 -35t-8 -43q-12 -19 -35.5 -23t-42.5 9q-154 106 -346 106q-167 0 -309 -83t-224.5 -225t-82.5 -308q0 -168 82.5 -311t224.5 -226.5t309 -83.5q203 0 367 121
q19 14 40.5 10.5t34.5 -22.5q14 -19 11 -42.5t-21 -35.5q-195 -141 -432 -141zM745 1606q0 22 16 37.5t38 15.5t37.5 -15.5t15.5 -37.5q0 -23 -15.5 -39.5t-37.5 -16.5t-38 16.5t-16 39.5z" />
    <glyph glyph-name="cdotaccent" unicode="&#x10b;" horiz-adv-x="948" 
d="M557 -6q-133 0 -245 65t-177 177.5t-65 246.5q0 201 142.5 344.5t344.5 143.5q169 0 299 -103q19 -14 22 -36t-12 -41q-14 -18 -35.5 -21t-39.5 12q-104 78 -234 78q-155 0 -266 -111t-111 -266q0 -157 111 -268t266 -111q127 0 234 80q17 14 39.5 11t35.5 -21
q15 -17 12 -40.5t-22 -37.5q-129 -102 -299 -102zM500 1118q0 22 15.5 37.5t37.5 15.5t37.5 -15.5t15.5 -37.5q0 -23 -15.5 -39t-37.5 -16t-37.5 16t-15.5 39z" />
    <glyph glyph-name="Ccaron" unicode="&#x10c;" horiz-adv-x="1343" 
d="M811 -12q-197 0 -365 98t-266 266.5t-98 366.5q0 196 98 363.5t266 265.5t365 98q228 0 408 -125q20 -12 24 -35t-8 -43q-12 -19 -35.5 -23t-42.5 9q-154 106 -346 106q-167 0 -309 -83t-224.5 -225t-82.5 -308q0 -168 82.5 -311t224.5 -226.5t309 -83.5q203 0 367 121
q19 14 40.5 10.5t34.5 -22.5q14 -19 11 -42.5t-21 -35.5q-195 -141 -432 -141zM606 1720q-10 11 -9 26t11 26q8 8 25 8q20 0 31 -11l135 -155l143 155q9 10 23 11t26 -8q12 -11 13 -26t-9 -26l-168 -186q-9 -12 -28 -12q-18 0 -27 12z" />
    <glyph glyph-name="ccaron" unicode="&#x10d;" horiz-adv-x="948" 
d="M557 -6q-133 0 -245 65t-177 177.5t-65 246.5q0 201 142.5 344.5t344.5 143.5q169 0 299 -103q19 -14 22 -36t-12 -41q-14 -18 -35.5 -21t-39.5 12q-104 78 -234 78q-155 0 -266 -111t-111 -266q0 -157 111 -268t266 -111q127 0 234 80q17 14 39.5 11t35.5 -21
q15 -17 12 -40.5t-22 -37.5q-129 -102 -299 -102zM360 1233q-10 11 -9 25.5t11 25.5q8 8 25 8q21 0 31 -10l135 -156l143 156q9 10 23 10.5t26 -8.5q12 -11 13.5 -25.5t-8.5 -25.5l-168 -186q-10 -13 -29 -13q-17 0 -27 13z" />
    <glyph glyph-name="Dcaron" unicode="&#x10e;" horiz-adv-x="1368" 
d="M586 1434q146 0 279 -56.5t229 -152.5t152.5 -229t56.5 -279q0 -145 -56.5 -277.5t-152.5 -229t-229 -153.5t-279 -57h-385q-23 0 -40 15t-18 38v4v1303v22q0 21 17 36.5t41 15.5h385zM252 113l334 -4q166 0 306 82t221 221.5t81 304.5q0 166 -81 306t-221 221t-306 81
h-334v-1212zM365 1679q-10 11 -9 26t11 26q8 8 24 8q21 0 31 -10l135 -156l143 156q9 10 23.5 10.5t26.5 -8.5q12 -11 13 -26t-9 -26l-168 -186q-9 -12 -29 -12q-18 0 -27 12z" />
    <glyph glyph-name="dcaron" unicode="&#x10f;" horiz-adv-x="1134" 
d="M547 965q115 0 214.5 -50.5t168.5 -138.5v604q0 23 14.5 38.5t36.5 15.5t36.5 -15.5t14.5 -38.5v-891v-2v-8q0 -132 -65.5 -243.5t-177 -176.5t-242.5 -65q-132 0 -244 65t-177 176.5t-65 243.5q0 99 38.5 189t103.5 155t155 103.5t189 38.5zM172 479q0 -157 110 -267
t265 -110q157 0 267 110t110 267q0 155 -110 265t-267 110q-155 0 -265 -110t-110 -265zM354 1622q-10 11 -9 25.5t11 25.5q8 8 25 8q21 0 31 -10l135 -155l143 155q9 10 23 10.5t26 -8.5q12 -11 13 -25.5t-9 -25.5l-168 -186q-10 -13 -28 -13q-17 0 -27 13z" />
    <glyph glyph-name="Dcroat" unicode="&#x110;" horiz-adv-x="1482" 
d="M684 1434q146 0 279 -56.5t229 -152.5t152.5 -229t56.5 -279q0 -145 -56.5 -277.5t-152.5 -229t-229 -153.5t-279 -57h-387q-22 0 -38 15t-17 38v4v625h-146q-23 0 -39 17t-16 40q0 22 16 39t39 17h146v565v22q0 21 16 36.5t41 15.5h385zM350 113l334 -4q166 0 306 82
t221 221.5t81 304.5q0 166 -81 306t-221 221t-306 81h-334v-530h316q23 0 39 -17t16 -39q0 -23 -16 -40t-39 -17h-316v-569z" />
    <glyph glyph-name="dcroat" unicode="&#x111;" horiz-adv-x="1204" 
d="M547 965q115 0 214.5 -50.5t168.5 -138.5v385h-322q-20 0 -33.5 14.5t-13.5 34.5q0 19 13.5 32t33.5 13h322v125q0 23 14.5 38.5t36.5 15.5t36.5 -15.5t14.5 -38.5v-125h92q20 0 33.5 -13t13.5 -32q0 -20 -13.5 -34.5t-33.5 -14.5h-92v-672v-2v-8q0 -132 -65.5 -243.5
t-177 -176.5t-242.5 -65q-132 0 -244 65t-177 176.5t-65 243.5q0 99 38.5 189t103.5 155t155 103.5t189 38.5zM172 479q0 -157 110 -267t265 -110q157 0 267 110t110 267q0 155 -110 265t-267 110q-155 0 -265 -110t-110 -265z" />
    <glyph glyph-name="Emacron" unicode="&#x112;" horiz-adv-x="1150" 
d="M1018 111q23 0 40 -16.5t17 -39.5t-17 -39t-40 -16h-823q-23 0 -39.5 16t-16.5 39v1323q0 23 16.5 39.5t39.5 16.5h823q23 0 40 -16.5t17 -39.5t-17 -39t-40 -16h-770v-551h665q23 0 39.5 -16t16.5 -39t-16.5 -39t-39.5 -16h-665v-551h770zM481 1575q-23 0 -32.5 19t0 38
t32.5 19h260q23 0 33 -19t0.5 -38t-33.5 -19h-260z" />
    <glyph glyph-name="emacron" unicode="&#x113;" horiz-adv-x="1095" 
d="M516 4q-196 19 -321 155t-125 326q0 131 64.5 242t175 175.5t241.5 64.5q198 0 336.5 -137.5t138.5 -333.5q0 -18 -11.5 -32.5t-29.5 -19.5q-4 -2 -12 -2l-793 -2q15 -135 110.5 -225.5t239.5 -105.5q218 -22 363 118q18 10 39 7t31 -21q10 -19 4 -38.5t-25 -31.5
q-151 -164 -426 -139zM180 528h735q-12 142 -115.5 239t-248.5 97q-143 0 -249.5 -96t-121.5 -240zM422 1092q-23 0 -32.5 19t0 37.5t32.5 18.5h260q23 0 33 -18.5t0.5 -37.5t-33.5 -19h-260z" />
    <glyph glyph-name="Edotaccent" unicode="&#x116;" horiz-adv-x="1150" 
d="M1018 111q23 0 40 -16.5t17 -39.5t-17 -39t-40 -16h-823q-23 0 -39.5 16t-16.5 39v1323q0 23 16.5 39.5t39.5 16.5h823q23 0 40 -16.5t17 -39.5t-17 -39t-40 -16h-770v-551h665q23 0 39.5 -16t16.5 -39t-16.5 -39t-39.5 -16h-665v-551h770zM557 1595q0 22 15.5 38
t37.5 16t38 -16t16 -38q0 -23 -16 -39t-38 -16t-37.5 16t-15.5 39z" />
    <glyph glyph-name="edotaccent" unicode="&#x117;" horiz-adv-x="1095" 
d="M516 4q-196 19 -321 155t-125 326q0 131 64.5 242t175 175.5t241.5 64.5q198 0 336.5 -137.5t138.5 -333.5q0 -18 -11.5 -32.5t-29.5 -19.5q-4 -2 -12 -2l-793 -2q15 -135 110.5 -225.5t239.5 -105.5q218 -22 363 118q18 10 39 7t31 -21q10 -19 4 -38.5t-25 -31.5
q-151 -164 -426 -139zM180 528h735q-12 142 -115.5 239t-248.5 97q-143 0 -249.5 -96t-121.5 -240zM498 1112q0 22 15.5 37.5t37.5 15.5t37.5 -15.5t15.5 -37.5q0 -23 -15.5 -39t-37.5 -16t-37.5 16t-15.5 39z" />
    <glyph glyph-name="Eogonek" unicode="&#x118;" horiz-adv-x="1150" 
d="M1018 111q23 0 40 -16.5t17 -39.5t-17 -39t-40 -16h-137q-32 -55 -72 -104q-18 -24 -28 -37t-23 -32.5t-18.5 -32.5t-10 -30t-3.5 -32.5t7 -32.5q7 -23 31 -42.5t53 -27.5q78 -15 133 45q10 12 27 12.5t27 -10.5q11 -12 11.5 -28t-9.5 -27q-69 -72 -158 -72q-19 0 -49 5
q-51 14 -88 46.5t-49 75.5q-10 31 -10 61.5t6.5 54t22.5 52.5t30 48t37 49q17 22 43 59h-596q-23 0 -39.5 16t-16.5 39v1323q0 23 16.5 39.5t39.5 16.5h823q23 0 40 -16.5t17 -39.5t-17 -39t-40 -16h-770v-551h665q23 0 39.5 -16t16.5 -39t-16.5 -39t-39.5 -16h-665v-551
h770z" />
    <glyph glyph-name="eogonek" unicode="&#x119;" horiz-adv-x="1095" 
d="M516 4q-196 19 -321 155t-125 326q0 131 64.5 242t175 175.5t241.5 64.5q198 0 336.5 -137.5t138.5 -333.5q0 -18 -11.5 -32.5t-29.5 -19.5q-4 -2 -12 -2l-793 -2q15 -135 110.5 -225.5t239.5 -105.5q218 -22 363 118q18 10 39 7t31 -21q10 -19 4 -38.5t-25 -31.5
q-113 -125 -309 -141q-24 -40 -72 -104q-18 -24 -28 -37t-23 -32.5t-18.5 -32.5t-10 -30t-3.5 -32.5t7 -32.5q7 -23 31 -42.5t53 -27.5q78 -15 133 45q10 12 27 12.5t27 -10.5q11 -12 11.5 -28t-9.5 -27q-69 -72 -158 -72q-19 0 -49 5q-51 14 -88 46.5t-49 75.5
q-10 31 -10 61.5t6.5 54t22.5 52.5t30 48t37 49q17 22 43 59q-4 0 -13.5 1t-13.5 1zM180 528h735q-12 142 -115.5 239t-248.5 97q-143 0 -249.5 -96t-121.5 -240z" />
    <glyph glyph-name="Ecaron" unicode="&#x11a;" horiz-adv-x="1150" 
d="M1018 111q23 0 40 -16.5t17 -39.5t-17 -39t-40 -16h-823q-23 0 -39.5 16t-16.5 39v1323q0 23 16.5 39.5t39.5 16.5h823q23 0 40 -16.5t17 -39.5t-17 -39t-40 -16h-770v-551h665q23 0 39.5 -16t16.5 -39t-16.5 -39t-39.5 -16h-665v-551h770zM418 1710q-10 11 -9 25.5
t11 25.5q8 8 24 8q21 0 31 -10l135 -155l144 155q9 10 23 10.5t26 -8.5q12 -11 13 -25.5t-9 -25.5l-168 -186q-10 -13 -29 -13q-16 0 -26 13z" />
    <glyph glyph-name="ecaron" unicode="&#x11b;" horiz-adv-x="1095" 
d="M516 4q-196 19 -321 155t-125 326q0 131 64.5 242t175 175.5t241.5 64.5q198 0 336.5 -137.5t138.5 -333.5q0 -18 -11.5 -32.5t-29.5 -19.5q-4 -2 -12 -2l-793 -2q15 -135 110.5 -225.5t239.5 -105.5q218 -22 363 118q18 10 39 7t31 -21q10 -19 4 -38.5t-25 -31.5
q-151 -164 -426 -139zM180 528h735q-12 142 -115.5 239t-248.5 97q-143 0 -249.5 -96t-121.5 -240zM360 1227q-10 11 -9 25.5t11 25.5q8 8 25 8q21 0 31 -10l135 -156l143 156q9 10 23 10.5t26 -8.5q12 -11 13.5 -25.5t-8.5 -25.5l-168 -187q-9 -12 -29 -12q-18 0 -27 12z
" />
    <glyph glyph-name="Gbreve" unicode="&#x11e;" horiz-adv-x="1361" 
d="M811 -12q-198 0 -366 97.5t-265.5 264.5t-97.5 363q0 148 57.5 283t155.5 233t233 155.5t283 57.5q215 0 406 -123q19 -12 23.5 -35.5t-7.5 -42.5q-14 -19 -36.5 -23t-41.5 9q-152 102 -344 102q-125 0 -239 -48.5t-196.5 -130.5t-131.5 -196t-49 -241
q0 -165 82.5 -307.5t224.5 -226t309 -83.5q180 0 340 109v452h-375q-22 0 -37.5 16.5t-15.5 39.5q0 25 15.5 42t37.5 17h430q23 0 38.5 -17t15.5 -42v-539q0 -31 -23 -45q-187 -141 -426 -141zM604 1751q0 15 12 26t27 11t27 -11t12 -26q0 -51 37 -86t92 -35q53 0 91 35
t38 86q0 16 10 26.5t27 10.5q15 0 26 -11t11 -26q0 -83 -59 -140t-144 -57t-146 57t-61 140z" />
    <glyph glyph-name="gbreve" unicode="&#x11f;" horiz-adv-x="1134" 
d="M555 -4q-132 0 -243.5 65t-176.5 176t-65 242t65 242.5t176.5 176.5t243.5 65q198 0 340.5 -142.5t142.5 -341.5v-405q0 -190 -127.5 -327t-324.5 -159q-11 0 -35.5 -1t-38.5 -1q-164 0 -283 84q-21 10 -27.5 31t1.5 41q11 20 32 27.5t41 -2.5q129 -88 299 -66
q154 14 252.5 117.5t98.5 255.5v94q-69 -80 -166 -126t-205 -46zM180 479q0 -155 110 -264t265 -109q154 0 262.5 109t108.5 264t-108.5 265t-262.5 110q-155 0 -265 -110t-110 -265zM346 1266q0 15 12 26t27 11t27 -11t12 -26q0 -51 37 -86t92 -35q53 0 91 35t38 86
q0 16 10 26.5t27 10.5q15 0 26 -11t11 -26q0 -83 -59 -140t-144 -57t-146 57t-61 140z" />
    <glyph glyph-name="Gdotaccent" unicode="&#x120;" horiz-adv-x="1361" 
d="M811 -12q-198 0 -366 97.5t-265.5 264.5t-97.5 363q0 148 57.5 283t155.5 233t233 155.5t283 57.5q215 0 406 -123q19 -12 23.5 -35.5t-7.5 -42.5q-14 -19 -36.5 -23t-41.5 9q-152 102 -344 102q-125 0 -239 -48.5t-196.5 -130.5t-131.5 -196t-49 -241
q0 -165 82.5 -307.5t224.5 -226t309 -83.5q180 0 340 109v452h-375q-22 0 -37.5 16.5t-15.5 39.5q0 25 15.5 42t37.5 17h430q23 0 38.5 -17t15.5 -42v-539q0 -31 -23 -45q-187 -141 -426 -141zM758 1595q0 22 15.5 38t37.5 16t37.5 -16t15.5 -38q0 -23 -15.5 -39t-37.5 -16
t-37.5 16t-15.5 39z" />
    <glyph glyph-name="gdotaccent" unicode="&#x121;" horiz-adv-x="1134" 
d="M555 -4q-132 0 -243.5 65t-176.5 176t-65 242t65 242.5t176.5 176.5t243.5 65q198 0 340.5 -142.5t142.5 -341.5v-405q0 -190 -127.5 -327t-324.5 -159q-11 0 -35.5 -1t-38.5 -1q-164 0 -283 84q-21 10 -27.5 31t1.5 41q11 20 32 27.5t41 -2.5q129 -88 299 -66
q154 14 252.5 117.5t98.5 255.5v94q-69 -80 -166 -126t-205 -46zM180 479q0 -155 110 -264t265 -109q154 0 262.5 109t108.5 264t-108.5 265t-262.5 110q-155 0 -265 -110t-110 -265zM502 1108q0 22 15.5 37.5t37.5 15.5t37.5 -15.5t15.5 -37.5q0 -23 -15.5 -39t-37.5 -16
t-37.5 16t-15.5 39z" />
    <glyph glyph-name="uni0122" unicode="&#x122;" horiz-adv-x="1361" 
d="M811 -12q-198 0 -366 97.5t-265.5 264.5t-97.5 363q0 148 57.5 283t155.5 233t233 155.5t283 57.5q215 0 406 -123q19 -12 23.5 -35.5t-7.5 -42.5q-14 -19 -36.5 -23t-41.5 9q-152 102 -344 102q-125 0 -239 -48.5t-196.5 -130.5t-131.5 -196t-49 -241
q0 -165 82.5 -307.5t224.5 -226t309 -83.5q180 0 340 109v452h-375q-22 0 -37.5 16.5t-15.5 39.5q0 25 15.5 42t37.5 17h430q23 0 38.5 -17t15.5 -42v-539q0 -31 -23 -45q-187 -141 -426 -141zM694 -221l54 139q11 28 39 29.5t46 -19.5t3 -49l-80 -127q-15 -29 -44.5 -15.5
t-17.5 42.5z" />
    <glyph glyph-name="uni0123" unicode="&#x123;" horiz-adv-x="1134" 
d="M555 -4q-132 0 -243.5 65t-176.5 176t-65 242t65 242.5t176.5 176.5t243.5 65q198 0 340.5 -142.5t142.5 -341.5v-405q0 -190 -127.5 -327t-324.5 -159q-11 0 -35.5 -1t-38.5 -1q-164 0 -283 84q-21 10 -27.5 31t1.5 41q11 20 32 27.5t41 -2.5q129 -88 299 -66
q154 14 252.5 117.5t98.5 255.5v94q-69 -80 -166 -126t-205 -46zM180 479q0 -155 110 -264t265 -109q154 0 262.5 109t108.5 264t-108.5 265t-262.5 110q-155 0 -265 -110t-110 -265zM506 1143l80 125q9 19 28 20t30.5 -13t2.5 -32l-55 -139q-12 -29 -40 -31t-44.5 19.5
t-1.5 50.5z" />
    <glyph glyph-name="Hbar" unicode="&#x126;" horiz-adv-x="1345" 
d="M1149 1436q22 0 38.5 -16.5t16.5 -39.5v-176h66q24 0 39.5 -13.5t15.5 -35.5q0 -23 -15.5 -37t-39.5 -14h-66v-1049q0 -24 -16.5 -40.5t-38.5 -16.5q-24 0 -40.5 16.5t-16.5 40.5v598h-824v-598q0 -24 -16.5 -40.5t-40.5 -16.5q-23 0 -38 16t-15 41v1049h-82
q-24 0 -40 14t-16 37q0 21 16 35t40 14h82v176q0 24 15 40t38 16t40 -16.5t17 -39.5v-176h824v176q0 23 17 39.5t40 16.5zM268 766h824v338h-824v-338z" />
    <glyph glyph-name="hbar" unicode="&#x127;" horiz-adv-x="1046" 
d="M160 0q-23 0 -39.5 16t-16.5 39v1102h-90q-20 0 -33.5 12.5t-13.5 32.5q0 18 13 29.5t34 11.5h90v137q0 23 16.5 39.5t39.5 16.5t39 -16.5t16 -39.5v-137h297q19 0 32 -11.5t13 -29.5q0 -20 -13 -32.5t-32 -12.5h-297v-323q59 64 139.5 99.5t171.5 35.5q172 0 295 -123
t123 -297v-494q0 -24 -15.5 -39.5t-39.5 -15.5q-23 0 -39 16t-16 39v494q0 128 -90.5 218.5t-217.5 90.5q-129 0 -220 -90.5t-91 -218.5v-494q0 -23 -16 -39t-39 -16z" />
    <glyph glyph-name="Itilde" unicode="&#x128;" horiz-adv-x="348" 
d="M174 -2q-23 0 -39 15t-16 38v1331q0 24 15.5 40t39.5 16t39.5 -16t15.5 -40v-1331q0 -23 -16 -38t-39 -15zM-45 1628q-3 15 4.5 28.5t22.5 16.5q13 4 27 -2.5t20 -19.5q13 -42 55 -39q18 3 43 24t53.5 39.5t57.5 18.5q45 0 80 -28t44 -71q4 -18 -3.5 -30t-20.5 -15
q-14 -5 -28.5 2t-20.5 25q-4 20 -20 31.5t-38 9.5q-19 -5 -45.5 -26t-54 -38.5t-53.5 -17.5q-44 0 -78.5 25t-44.5 67z" />
    <glyph glyph-name="itilde" unicode="&#x129;" horiz-adv-x="307" 
d="M154 0q-24 0 -40 16t-16 39v856q0 24 16 40t40 16q22 0 38.5 -16.5t16.5 -39.5v-856q0 -23 -16.5 -39t-38.5 -16zM-66 1157q-3 15 4.5 28.5t22.5 16.5q13 4 27 -3t20 -19q13 -42 55 -39q18 3 43 24t53.5 39.5t57.5 18.5q46 0 81 -28t44 -71q4 -17 -4 -29.5t-21 -15.5
q-14 -5 -28.5 2t-20.5 25q-10 44 -57 41q-19 -5 -46 -26t-54.5 -38.5t-53.5 -17.5q-44 0 -78.5 25t-44.5 67z" />
    <glyph glyph-name="Imacron" unicode="&#x12a;" horiz-adv-x="348" 
d="M174 -2q-23 0 -39 15t-16 38v1331q0 24 15.5 40t39.5 16t39.5 -16t15.5 -40v-1331q0 -23 -16 -38t-39 -15zM25 1563q-23 0 -32.5 18.5t0 37.5t32.5 19h301q23 0 33 -19t0.5 -37.5t-33.5 -18.5h-301z" />
    <glyph glyph-name="imacron" unicode="&#x12b;" horiz-adv-x="307" 
d="M154 0q-24 0 -40 16t-16 39v856q0 24 16 40t40 16q22 0 38.5 -16.5t16.5 -39.5v-856q0 -23 -16.5 -39t-38.5 -16zM2 1094q-23 0 -32.5 19t0 37.5t32.5 18.5h301q23 0 33 -18.5t0.5 -37.5t-33.5 -19h-301z" />
    <glyph glyph-name="Iogonek" unicode="&#x12e;" horiz-adv-x="348" 
d="M184 -434q-25 0 -49 4q-51 13 -88 46.5t-49 76.5q-10 31 -10 61.5t6.5 54t22.5 52.5t29.5 47.5t37.5 48.5q3 4 20 26.5t25 36.5q-10 13 -10 31v1331q0 24 15.5 40t39.5 16t39.5 -16t15.5 -40v-1331q0 -23 -12 -35q-32 -55 -72 -104q-18 -23 -28 -36.5t-22.5 -32.5
t-18 -33t-10 -30.5t-3.5 -32t7 -32.5q7 -23 31 -42t53 -27q78 -15 133 45q10 12 26.5 12.5t26.5 -10.5q11 -12 11.5 -28t-9.5 -27q-69 -72 -158 -72z" />
    <glyph glyph-name="iogonek" unicode="&#x12f;" horiz-adv-x="307" 
d="M154 1057q-22 0 -38 16t-16 39q0 22 16 37.5t38 15.5t37.5 -15.5t15.5 -37.5q0 -23 -15.5 -39t-37.5 -16zM-35 -328q-10 31 -10 61.5t6.5 54t22.5 52.5t30 48t37 49l18 24t22.5 30.5t19.5 28.5q-13 16 -13 35v856q0 24 16 40t40 16q22 0 38.5 -16.5t16.5 -39.5v-856
q0 -20 -14 -37l-5 -10q-34 -61 -77 -117q-19 -24 -28 -36.5t-22.5 -32.5t-18.5 -32.5t-10 -29.5t-4 -32.5t7 -32.5q7 -23 31 -42.5t53 -27.5q78 -15 133 45q10 12 26.5 12.5t26.5 -10.5q11 -12 11.5 -28t-9.5 -27q-69 -72 -157 -72q-26 0 -50 4q-51 13 -88 46.5t-49 76.5z
" />
    <glyph glyph-name="Idotaccent" unicode="&#x130;" horiz-adv-x="348" 
d="M174 -2q-23 0 -39 15t-16 38v1331q0 24 15.5 40t39.5 16t39.5 -16t15.5 -40v-1331q0 -23 -16 -38t-39 -15zM121 1583q0 22 15.5 37.5t37.5 15.5t37.5 -15.5t15.5 -37.5q0 -23 -15.5 -39t-37.5 -16t-37.5 16t-15.5 39z" />
    <glyph glyph-name="dotlessi" unicode="&#x131;" horiz-adv-x="307" 
d="M154 0q-24 0 -40 16t-16 39v856q0 24 16 40t40 16q22 0 38.5 -16.5t16.5 -39.5v-856q0 -23 -16.5 -39t-38.5 -16z" />
    <glyph glyph-name="uni0136" unicode="&#x136;" horiz-adv-x="1163" 
d="M1108 90q15 -17 14 -40t-18 -36q-14 -14 -37 -14t-41 18l-580 672l-213 -235v-400q0 -23 -16 -39t-39 -16t-39 16t-16 39v1323q0 23 16 39.5t39 16.5t39 -16.5t16 -39.5v-760l732 797q13 17 35.5 18t39.5 -14q18 -15 19.5 -38t-12.5 -40l-529 -569zM455 -221l53 139
q11 28 39 29.5t46 -19.5t3 -49l-80 -127q-15 -29 -44 -15.5t-17 42.5z" />
    <glyph glyph-name="uni0137" unicode="&#x137;" horiz-adv-x="894" 
d="M150 0q-23 0 -39.5 16.5t-16.5 38.5v1323q0 24 16 40t40 16q22 0 38.5 -16t16.5 -40v-843l540 415q20 15 42 12t36 -22t10.5 -42t-22.5 -36l-403 -309l411 -461q12 -17 11.5 -40t-15.5 -38q-17 -14 -37 -14q-22 0 -41 16l-418 469l-114 -88v-342q0 -22 -16.5 -38.5
t-38.5 -16.5zM74 -221l53 139q11 28 39 29.5t46 -19.5t3 -49l-80 -127q-15 -29 -44 -15.5t-17 42.5z" />
    <glyph glyph-name="Lacute" unicode="&#x139;" horiz-adv-x="1165" 
d="M197 0q-22 0 -38 15.5t-16 37.5v1327q0 22 16 38t38 16q23 0 40 -16t17 -38v-1269h790q24 0 39 -16t15 -42q0 -22 -15.5 -37.5t-38.5 -15.5h-847zM168 1571l53 139q13 28 41 30t45 -19.5t2 -51.5l-80 -125q-9 -18 -28 -18.5t-30.5 13.5t-2.5 32z" />
    <glyph glyph-name="lacute" unicode="&#x13a;" horiz-adv-x="634" 
d="M524 0q-200 0 -315 122.5t-115 332.5v925q0 22 16 38t40 16q22 0 38.5 -16t16.5 -38v-925q0 -168 83 -256t236 -88q23 0 38.5 -16.5t15.5 -39.5t-15.5 -39t-38.5 -16zM115 1567l53 139q13 28 41 30t45 -19.5t2 -51.5l-80 -125q-9 -18 -28 -18.5t-30.5 13.5t-2.5 32z" />
    <glyph glyph-name="uni013B" unicode="&#x13b;" horiz-adv-x="1165" 
d="M197 0q-22 0 -38 15.5t-16 37.5v1327q0 22 16 38t38 16q23 0 40 -16t17 -38v-1269h790q24 0 39 -16t15 -42q0 -22 -15.5 -37.5t-38.5 -15.5h-847zM487 -221l54 139q11 28 39 29.5t46 -19.5t3 -49l-80 -127q-15 -29 -44.5 -15.5t-17.5 42.5z" />
    <glyph glyph-name="uni013C" unicode="&#x13c;" horiz-adv-x="634" 
d="M524 0q-200 0 -315 122.5t-115 332.5v925q0 22 16 38t40 16q22 0 38.5 -16t16.5 -38v-925q0 -168 83 -256t236 -88q23 0 38.5 -16.5t15.5 -39.5t-15.5 -39t-38.5 -16zM227 -221l54 139q11 28 39 29.5t46 -19.5t3 -49l-80 -127q-15 -29 -44.5 -15.5t-17.5 42.5z" />
    <glyph glyph-name="Lcaron" unicode="&#x13d;" horiz-adv-x="1165" 
d="M197 0q-22 0 -38 15.5t-16 37.5v1327q0 22 16 38t38 16q23 0 40 -16t17 -38v-1269h790q24 0 39 -16t15 -42q0 -22 -15.5 -37.5t-38.5 -15.5h-847zM8 1698q-10 11 -9 25.5t11 25.5q8 8 25 8q21 0 31 -10l135 -156l143 156q9 10 23 10.5t26 -8.5q12 -11 13 -25.5t-9 -25.5
l-168 -187q-9 -12 -28 -12q-18 0 -27 12z" />
    <glyph glyph-name="lcaron" unicode="&#x13e;" horiz-adv-x="634" 
d="M524 0q-200 0 -315 122.5t-115 332.5v925q0 22 16 38t40 16q22 0 38.5 -16t16.5 -38v-925q0 -168 83 -256t236 -88q23 0 38.5 -16.5t15.5 -39.5t-15.5 -39t-38.5 -16zM-45 1712q-20 23 2 53q9 9 25 9q17 0 30 -13l135 -155l144 155q9 10 23 11t26 -7q27 -27 4 -53
l-168 -184q-9 -15 -29 -15q-17 0 -26 15z" />
    <glyph glyph-name="Lslash" unicode="&#x141;" horiz-adv-x="1282" 
d="M256 0q-22 0 -37.5 15.5t-15.5 37.5v652l-88 -89q-17 -15 -40 -15t-40 15q-15 15 -15 39t15 39l168 168v518q0 22 15.5 38t37.5 16q23 0 40 -16t17 -38v-409l127 127q15 15 38 15t38 -15q17 -15 17 -39t-15 -39l-205 -205v-704h793q22 0 37.5 -16t15.5 -42
q0 -22 -15.5 -37.5t-37.5 -15.5h-850z" />
    <glyph glyph-name="lslash" unicode="&#x142;" horiz-adv-x="622" 
d="M508 0q-200 0 -315 122.5t-115 332.5v329l-31 -26q-19 -14 -42 -11t-38 21q-12 17 -9.5 40t19.5 36l101 90v446q0 22 15.5 38t39.5 16q22 0 38.5 -16t16.5 -38v-346l66 60q17 14 40 11t36 -20q15 -19 13 -41.5t-19 -37.5l-136 -121v-430q0 -168 83.5 -256t236.5 -88
q23 0 38 -16t15 -40q0 -23 -15 -39t-38 -16z" />
    <glyph glyph-name="Nacute" unicode="&#x143;" horiz-adv-x="1421" 
d="M193 0q-23 0 -38.5 16t-15.5 41v1325q0 18 10 33t27 19q38 13 62 -17l933 -1200v1165q0 23 16 39.5t38 16.5q25 0 41 -16t16 -40v-1325q0 -43 -37 -53q-6 -4 -20 -4q-27 0 -43 23l-932 1198v-1164q0 -25 -16 -41t-41 -16zM676 1526l53 139q13 28 41 30t45 -19.5t2 -51.5
l-80 -125q-9 -18 -28 -18.5t-30.5 13.5t-2.5 32z" />
    <glyph glyph-name="nacute" unicode="&#x144;" 
d="M143 0q-23 0 -39 16t-16 39v494q0 174 123 297t297 123t297 -123t123 -297v-494q0 -23 -16.5 -39t-39.5 -16t-39 16t-16 39v494q0 127 -90.5 218t-218.5 91t-218.5 -91t-90.5 -218v-494q0 -23 -16.5 -39t-39.5 -16zM475 1100l53 139q13 28 41 30t45 -19.5t2 -51.5
l-79 -125q-9 -18 -28 -18.5t-31 13.5t-3 32z" />
    <glyph glyph-name="uni0145" unicode="&#x145;" horiz-adv-x="1421" 
d="M193 0q-23 0 -38.5 16t-15.5 41v1325q0 18 10 33t27 19q38 13 62 -17l933 -1200v1165q0 23 16 39.5t38 16.5q25 0 41 -16t16 -40v-1325q0 -43 -37 -53q-6 -4 -20 -4q-27 0 -43 23l-932 1198v-1164q0 -25 -16 -41t-41 -16zM596 -221l53 139q11 28 39 29.5t46 -19.5t3 -49
l-80 -127q-15 -29 -44 -15.5t-17 42.5z" />
    <glyph glyph-name="uni0146" unicode="&#x146;" 
d="M143 0q-23 0 -39 16t-16 39v494q0 174 123 297t297 123t297 -123t123 -297v-494q0 -23 -16.5 -39t-39.5 -16t-39 16t-16 39v494q0 127 -90.5 218t-218.5 91t-218.5 -91t-90.5 -218v-494q0 -23 -16.5 -39t-39.5 -16zM393 -221l53 139q11 28 39.5 29.5t46.5 -19.5t3 -49
l-80 -127q-15 -29 -44.5 -15.5t-17.5 42.5z" />
    <glyph glyph-name="Ncaron" unicode="&#x147;" horiz-adv-x="1421" 
d="M193 0q-23 0 -38.5 16t-15.5 41v1325q0 18 10 33t27 19q38 13 62 -17l933 -1200v1165q0 23 16 39.5t38 16.5q25 0 41 -16t16 -40v-1325q0 -43 -37 -53q-6 -4 -20 -4q-27 0 -43 23l-932 1198v-1164q0 -25 -16 -41t-41 -16zM516 1655q-10 11 -9 25.5t11 25.5q8 8 25 8
q20 0 30 -10l136 -156l143 156q9 10 23 10.5t26 -8.5q12 -11 13 -25.5t-9 -25.5l-168 -187q-9 -12 -28 -12q-18 0 -27 12z" />
    <glyph glyph-name="ncaron" unicode="&#x148;" 
d="M143 0q-23 0 -39 16t-16 39v494q0 174 123 297t297 123t297 -123t123 -297v-494q0 -23 -16.5 -39t-39.5 -16t-39 16t-16 39v494q0 127 -90.5 218t-218.5 91t-218.5 -91t-90.5 -218v-494q0 -23 -16.5 -39t-39.5 -16zM315 1227q-10 11 -9 25.5t11 25.5q8 8 25 8
q21 0 31 -10l135 -156l143 156q9 10 23 10.5t26 -8.5q12 -11 13.5 -25.5t-8.5 -25.5l-168 -187q-9 -12 -29 -12q-18 0 -27 12z" />
    <glyph glyph-name="Eng" unicode="&#x14a;" horiz-adv-x="1462" 
d="M213 0q-23 0 -38 16t-15 41v1325q0 18 10 33t27 19q38 13 61 -17l934 -1200v1165q0 23 15.5 39.5t37.5 16.5q25 0 41.5 -16.5t16.5 -39.5v-1335q0 -222 -125 -352.5t-357 -130.5q-29 0 -45 16t-16 41q0 22 15.5 37.5t39.5 15.5h33q68 0 127.5 20.5t108.5 62.5t78.5 112.5
t31.5 163.5l-924 1188v-1164q0 -25 -16 -41t-41 -16z" />
    <glyph glyph-name="eng" unicode="&#x14b;" horiz-adv-x="1036" 
d="M154 0q-23 0 -39.5 16t-16.5 39v494q0 174 123 297t297 123t297 -123t123 -297v-471q0 -226 -126 -357t-363 -131q-29 0 -46.5 16.5t-17.5 41.5q0 22 16.5 38.5t40.5 16.5h33q72 0 133 21t111.5 64t79 117.5t28.5 172.5v471q0 127 -90.5 218t-218.5 91t-218.5 -91
t-90.5 -218v-494q0 -23 -16 -39t-39 -16z" />
    <glyph glyph-name="Omacron" unicode="&#x14c;" horiz-adv-x="1619" 
d="M811 -14q-148 0 -284 58.5t-234 156.5t-156.5 234t-58.5 284t58.5 283.5t156.5 233.5t234 156t284 58q197 0 365.5 -98t267 -266.5t98.5 -366.5t-98.5 -367t-267 -267.5t-365.5 -98.5zM190 719q0 -168 83.5 -311.5t226.5 -227.5t311 -84t311 84t226.5 227.5t83.5 311.5
t-83.5 311t-226.5 226t-311 83t-311 -83t-226.5 -226t-83.5 -311zM682 1563q-23 0 -32.5 18.5t0 37.5t32.5 19h260q23 0 33 -19t0.5 -37.5t-33.5 -18.5h-260z" />
    <glyph glyph-name="omacron" unicode="&#x14d;" horiz-adv-x="1093" 
d="M547 -6q-132 0 -244 65t-177 176.5t-65 243.5q0 131 65 243t177 177.5t244 65.5q131 0 242.5 -65.5t177 -177.5t65.5 -243q0 -132 -65.5 -243.5t-177 -176.5t-242.5 -65zM172 479q0 -155 110 -265t265 -110q157 0 267 110t110 265q0 157 -110 267t-267 110
q-155 0 -265 -110t-110 -267zM414 1096q-23 0 -32.5 19t0 37.5t32.5 18.5h260q23 0 33 -18.5t0.5 -37.5t-33.5 -19h-260z" />
    <glyph glyph-name="Ohungarumlaut" unicode="&#x150;" horiz-adv-x="1619" 
d="M811 -14q-148 0 -284 58.5t-234 156.5t-156.5 234t-58.5 284t58.5 283.5t156.5 233.5t234 156t284 58q197 0 365.5 -98t267 -266.5t98.5 -366.5t-98.5 -367t-267 -267.5t-365.5 -98.5zM190 719q0 -168 83.5 -311.5t226.5 -227.5t311 -84t311 84t226.5 227.5t83.5 311.5
t-83.5 311t-226.5 226t-311 83t-311 -83t-226.5 -226t-83.5 -311zM702 1587l52 133q13 29 41.5 30.5t45.5 -20.5t1 -51l-78 -118q-9 -18 -27.5 -18.5t-30 13.5t-4.5 31zM856 1587l51 131q12 29 39.5 31t44.5 -19.5t2 -50.5l-75 -118q-11 -19 -29 -19.5t-29 13.5t-4 32z" />
    <glyph glyph-name="ohungarumlaut" unicode="&#x151;" horiz-adv-x="1093" 
d="M547 -6q-132 0 -244 65t-177 176.5t-65 243.5q0 131 65 243t177 177.5t244 65.5q131 0 242.5 -65.5t177 -177.5t65.5 -243q0 -132 -65.5 -243.5t-177 -176.5t-242.5 -65zM172 479q0 -155 110 -265t265 -110q157 0 267 110t110 265q0 157 -110 267t-267 110
q-155 0 -265 -110t-110 -267zM434 1120l51 133q13 29 41.5 30.5t45.5 -20.5t1 -51l-77 -118q-9 -18 -27.5 -18.5t-30 13.5t-4.5 31zM588 1120l51 131q12 29 39.5 31t44.5 -19.5t2 -50.5l-76 -118q-11 -19 -28.5 -19.5t-28.5 13.5t-4 32z" />
    <glyph glyph-name="OE" unicode="&#x152;" horiz-adv-x="2426" 
d="M811 -14q-148 0 -284 58.5t-234 156.5t-156.5 234t-58.5 284t58.5 283.5t156.5 233.5t234 156t284 58q193 0 358 -93.5t263 -252.5v274q0 23 15.5 39.5t37.5 16.5h825q23 0 39 -16.5t16 -39.5t-16 -39t-39 -16h-770v-549v-2h666q23 0 39 -16t16 -39t-16 -39t-39 -16h-666
v-551h770q23 0 39 -16.5t16 -39.5t-16 -39t-39 -16h-825q-22 0 -37.5 16t-15.5 39v277q-98 -158 -263.5 -252t-357.5 -94zM190 719q0 -168 83.5 -311.5t226.5 -227.5t311 -84t311 84t226.5 227.5t83.5 311.5t-83.5 311t-226.5 226t-311 83t-311 -83t-226.5 -226t-83.5 -311z
" />
    <glyph glyph-name="oe" unicode="&#x153;" horiz-adv-x="1941" 
d="M547 -6q-132 0 -244 65t-177 176.5t-65 243.5q0 131 65 243t177 177.5t244 65.5q137 0 252 -71t178 -189q61 119 176 190.5t254 71.5q196 0 334.5 -138t138.5 -333q0 -22 -16 -39t-37 -17h-793q15 -135 112 -226t238 -103q213 -26 363 120q18 10 39.5 5.5t30.5 -23.5
q10 -19 4 -38.5t-25 -33.5q-147 -163 -426 -137q-129 10 -231.5 78.5t-159.5 175.5q-62 -120 -178 -192t-254 -72zM172 479q0 -155 110 -265t265 -110q157 0 267 110t110 265q0 157 -110 267t-267 110q-155 0 -265 -110t-110 -267zM1034 528h735q-12 142 -115 239t-247 97
q-145 0 -251.5 -95.5t-121.5 -240.5z" />
    <glyph glyph-name="Racute" unicode="&#x154;" horiz-adv-x="1316" 
d="M178 0q-23 0 -39 16t-16 39v1323q0 23 16 39.5t39 16.5h596q125 0 231 -62t168 -168.5t62 -232.5q0 -171 -114 -298.5t-279 -146.5l381 -434q14 -19 12.5 -42t-18.5 -36q-14 -14 -35 -14q-28 0 -43 18l-428 492h-478v-455q0 -23 -16.5 -39t-38.5 -16zM233 621h541
q145 0 248.5 102t103.5 248t-103.5 249t-248.5 103h-541v-702zM588 1571l53 139q13 28 41 30t45 -19.5t2 -51.5l-80 -125q-9 -18 -28 -18.5t-30.5 13.5t-2.5 32z" />
    <glyph glyph-name="racute" unicode="&#x155;" horiz-adv-x="958" 
d="M154 0q-23 0 -39.5 16t-16.5 39v496q0 173 123.5 296.5t296.5 123.5q134 0 243 -79t152 -208q8 -21 -1.5 -42t-30.5 -28q-24 -6 -44.5 4t-27.5 33q-32 93 -112 150t-179 57q-129 0 -219 -89.5t-90 -217.5v-496q0 -23 -16 -39t-39 -16zM485 1100l54 139q13 28 41 30
t45 -19.5t2 -51.5l-80 -125q-9 -18 -28 -18.5t-31 13.5t-3 32z" />
    <glyph glyph-name="uni0156" unicode="&#x156;" horiz-adv-x="1316" 
d="M178 0q-23 0 -39 16t-16 39v1323q0 23 16 39.5t39 16.5h596q125 0 231 -62t168 -168.5t62 -232.5q0 -171 -114 -298.5t-279 -146.5l381 -434q14 -19 12.5 -42t-18.5 -36q-14 -14 -35 -14q-28 0 -43 18l-428 492h-478v-455q0 -23 -16.5 -39t-38.5 -16zM233 621h541
q145 0 248.5 102t103.5 248t-103.5 249t-248.5 103h-541v-702zM504 -221l53 139q11 28 39 29.5t46 -19.5t3 -49l-80 -127q-15 -29 -44 -15.5t-17 42.5z" />
    <glyph glyph-name="uni0157" unicode="&#x157;" horiz-adv-x="958" 
d="M154 0q-23 0 -39.5 16t-16.5 39v496q0 173 123.5 296.5t296.5 123.5q134 0 243 -79t152 -208q8 -21 -1.5 -42t-30.5 -28q-24 -6 -44.5 4t-27.5 33q-32 93 -112 150t-179 57q-129 0 -219 -89.5t-90 -217.5v-496q0 -23 -16 -39t-39 -16zM45 -221l53 139q11 28 39 29.5
t46 -19.5t3 -49l-80 -127q-15 -29 -44 -15.5t-17 42.5z" />
    <glyph glyph-name="Rcaron" unicode="&#x158;" horiz-adv-x="1316" 
d="M178 0q-23 0 -39 16t-16 39v1323q0 23 16 39.5t39 16.5h596q125 0 231 -62t168 -168.5t62 -232.5q0 -171 -114 -298.5t-279 -146.5l381 -434q14 -19 12.5 -42t-18.5 -36q-14 -14 -35 -14q-28 0 -43 18l-428 492h-478v-455q0 -23 -16.5 -39t-38.5 -16zM233 621h541
q145 0 248.5 102t103.5 248t-103.5 249t-248.5 103h-541v-702zM428 1698q-10 11 -9 25.5t11 25.5q8 8 25 8q20 0 30 -10l136 -156l143 156q9 10 23 10.5t26 -8.5q12 -11 13 -25.5t-9 -25.5l-168 -187q-9 -12 -28 -12q-18 0 -27 12z" />
    <glyph glyph-name="rcaron" unicode="&#x159;" horiz-adv-x="958" 
d="M154 0q-23 0 -39.5 16t-16.5 39v496q0 173 123.5 296.5t296.5 123.5q134 0 243 -79t152 -208q8 -21 -1.5 -42t-30.5 -28q-24 -6 -44.5 4t-27.5 33q-32 93 -112 150t-179 57q-129 0 -219 -89.5t-90 -217.5v-496q0 -23 -16 -39t-39 -16zM326 1229q-10 11 -9 25.5t11 25.5
q8 8 24 8q21 0 31 -10l135 -156l144 156q9 10 23 10.5t26 -8.5q12 -11 13 -25.5t-9 -25.5l-168 -187q-9 -12 -29 -12q-17 0 -26 12z" />
    <glyph glyph-name="Sacute" unicode="&#x15a;" horiz-adv-x="1191" 
d="M608 -10q-96 0 -182.5 24t-149 64t-105 79t-73.5 81q-17 13 -17.5 35.5t13.5 37.5q15 17 38 18t38 -14q26 -37 62.5 -71t89.5 -69t127.5 -56t158.5 -21q98 0 175 24.5t123 66t70.5 90t27.5 102.5q7 123 -93.5 199.5t-306.5 107.5q-316 49 -432 205q-72 100 -51 240
q13 66 51.5 123t100 101t150.5 67.5t193 19.5q241 -10 390 -207q17 -15 18 -38t-14 -40q-16 -16 -38 -16.5t-38 16.5q-126 166 -326 176q-162 7 -263 -61t-116 -160q-12 -70 12.5 -125t81 -92.5t129.5 -61t169 -38.5q104 -15 186.5 -42.5t135.5 -63.5t89 -75t53.5 -83
t23.5 -82t3 -78q-4 -71 -35 -136.5t-89.5 -122t-156.5 -90.5t-223 -34zM563 1569l53 139q13 28 41 30t45.5 -19.5t2.5 -51.5l-80 -125q-9 -18 -28 -18.5t-31 13.5t-3 32z" />
    <glyph glyph-name="sacute" unicode="&#x15b;" horiz-adv-x="874" 
d="M455 -4q-114 -1 -209 35.5t-156 79.5q-20 9 -26.5 30t2.5 41q11 20 32 27.5t41 -2.5q64 -49 142 -76t149.5 -28t132 15t96.5 53.5t37 88.5q1 62 -65 108.5t-189 73.5q-89 20 -156 50.5t-102.5 61.5t-56 67.5t-25.5 64t-2 55.5q8 103 108.5 167.5t246.5 58.5
q153 -6 282 -93q21 -10 28.5 -31t-3.5 -40q-11 -20 -32.5 -27.5t-41.5 2.5q-74 53 -160 72t-152 6.5t-111 -46.5t-48 -79q-3 -14 0 -30.5t18 -39t41 -42.5t75 -40.5t114 -33.5q87 -20 152 -49t101.5 -58t59 -63.5t29 -60.5t6.5 -54q0 -49 -21.5 -94.5t-63.5 -84t-113 -61.5
t-160 -24zM416 1104l53 139q13 28 41 30t45 -19.5t2 -51.5l-80 -125q-9 -18 -28 -18.5t-30.5 13.5t-2.5 32z" />
    <glyph glyph-name="Scedilla" unicode="&#x15e;" horiz-adv-x="1191" 
d="M498 -422q-35 9 -31 45q9 34 49 27q120 -26 184 22q36 24 43 59t-16 56q-26 29 -78 29q-53 0 -98 -23q-23 -9 -42 7.5t-7 41.5l65 150q-88 4 -167 29.5t-136.5 63.5t-97 75.5t-68.5 77.5q-17 13 -17.5 35.5t13.5 37.5q15 17 38 18t38 -14q26 -37 62.5 -71t89.5 -69
t127.5 -56t158.5 -21q98 0 175 24.5t123 66t70.5 90t27.5 102.5q7 123 -93.5 199.5t-306.5 107.5q-316 49 -432 205q-72 100 -51 240q13 66 51.5 123t100 101t150.5 67.5t193 19.5q241 -10 390 -207q17 -15 18 -38t-14 -40q-16 -16 -38 -16.5t-38 16.5q-126 166 -326 176
q-162 7 -263 -61t-116 -160q-12 -70 12.5 -125t81 -92.5t129.5 -61t169 -38.5q104 -15 186.5 -42.5t135.5 -63.5t89 -75t53.5 -83t23.5 -82t3 -78q-4 -68 -33 -131.5t-83 -119t-144 -91t-205 -41.5q0 -4 -2 -6l-45 -99q48 11 101 -2t81 -47q40 -45 33 -112q-3 -32 -22 -62.5
t-48 -50.5q-107 -70 -247 -33z" />
    <glyph glyph-name="scedilla" unicode="&#x15f;" horiz-adv-x="874" 
d="M344 -408q-17 4 -25 17t-6 29q9 33 49 26q120 -25 185 23q36 24 42.5 58.5t-16.5 55.5q-26 29 -77 29q-54 0 -99 -23q-23 -9 -42 8t-7 42l64 141q-171 11 -322 113q-20 9 -26.5 30t2.5 41q11 20 32 27.5t41 -2.5q64 -49 142 -76t149.5 -28t132 15t96.5 53.5t37 88.5
q1 62 -65 108.5t-189 73.5q-89 20 -156 50.5t-102.5 61.5t-56 67.5t-25.5 64t-2 55.5q8 103 108.5 167.5t246.5 58.5q153 -6 282 -93q21 -10 28.5 -31t-3.5 -40q-11 -20 -32.5 -27.5t-41.5 2.5q-74 53 -160 72t-152 6.5t-111 -46.5t-48 -79q-3 -14 0 -30.5t18 -39t41 -42.5
t75 -40.5t114 -33.5q87 -20 152 -49t101.5 -58t59 -63.5t29 -60.5t6.5 -54q0 -99 -82.5 -175.5t-238.5 -86.5l-46 -98q48 11 101.5 -2.5t81.5 -47.5q40 -45 33 -112q-3 -32 -22 -62.5t-48 -50.5q-107 -70 -248 -33z" />
    <glyph glyph-name="Scaron" unicode="&#x160;" horiz-adv-x="1191" 
d="M608 -10q-96 0 -182.5 24t-149 64t-105 79t-73.5 81q-17 13 -17.5 35.5t13.5 37.5q15 17 38 18t38 -14q26 -37 62.5 -71t89.5 -69t127.5 -56t158.5 -21q98 0 175 24.5t123 66t70.5 90t27.5 102.5q7 123 -93.5 199.5t-306.5 107.5q-316 49 -432 205q-72 100 -51 240
q13 66 51.5 123t100 101t150.5 67.5t193 19.5q241 -10 390 -207q17 -15 18 -38t-14 -40q-16 -16 -38 -16.5t-38 16.5q-126 166 -326 176q-162 7 -263 -61t-116 -160q-12 -70 12.5 -125t81 -92.5t129.5 -61t169 -38.5q104 -15 186.5 -42.5t135.5 -63.5t89 -75t53.5 -83
t23.5 -82t3 -78q-4 -71 -35 -136.5t-89.5 -122t-156.5 -90.5t-223 -34zM403 1698q-10 11 -8.5 25.5t11.5 25.5q8 8 24 8q21 0 31 -10l135 -156l143 156q9 10 23 10.5t26 -8.5q12 -11 13.5 -25.5t-8.5 -25.5l-168 -187q-9 -12 -29 -12q-18 0 -27 12z" />
    <glyph glyph-name="scaron" unicode="&#x161;" horiz-adv-x="874" 
d="M455 -4q-114 -1 -209 35.5t-156 79.5q-20 9 -26.5 30t2.5 41q11 20 32 27.5t41 -2.5q64 -49 142 -76t149.5 -28t132 15t96.5 53.5t37 88.5q1 62 -65 108.5t-189 73.5q-89 20 -156 50.5t-102.5 61.5t-56 67.5t-25.5 64t-2 55.5q8 103 108.5 167.5t246.5 58.5
q153 -6 282 -93q21 -10 28.5 -31t-3.5 -40q-11 -20 -32.5 -27.5t-41.5 2.5q-74 53 -160 72t-152 6.5t-111 -46.5t-48 -79q-3 -14 0 -30.5t18 -39t41 -42.5t75 -40.5t114 -33.5q87 -20 152 -49t101.5 -58t59 -63.5t29 -60.5t6.5 -54q0 -49 -21.5 -94.5t-63.5 -84t-113 -61.5
t-160 -24zM256 1233q-10 11 -9 25.5t11 25.5q8 8 25 8q20 0 30 -10l136 -156l143 156q9 10 23 10.5t26 -8.5q12 -11 13 -25.5t-9 -25.5l-168 -186q-10 -13 -28 -13q-17 0 -27 13z" />
    <glyph glyph-name="uni0162" unicode="&#x162;" horiz-adv-x="1218" 
d="M1085 1434q22 0 38 -16.5t16 -39.5t-16 -39t-38 -16h-421v-1268q0 -25 -17 -39q0 -6 -4 -18l-45 -98q48 11 101 -2.5t81 -47.5q40 -45 33 -112q-3 -32 -22 -62.5t-48 -50.5q-107 -70 -247 -33q-17 4 -25 17t-6 29q9 33 49 26q119 -25 184 23q36 24 43 58.5t-16 55.5
q-26 29 -78 29q-53 0 -98 -23q-23 -9 -42 8t-7 42l71 159q-18 12 -18 39v1268h-418q-23 0 -39 16t-16 39t16 39.5t39 16.5h950z" />
    <glyph glyph-name="uni0163" unicode="&#x163;" horiz-adv-x="700" 
d="M154 1434q23 0 39 -16.5t16 -39.5v-415h321q22 0 37 -15t15 -37q0 -23 -15 -38t-37 -15h-321v-366q0 -186 99 -282.5t249 -96.5l33 -2q23 0 39 -16.5t16 -39.5q0 -20 -14 -37l-41 -90q48 11 101 -2t81 -47q40 -45 33 -112q-3 -32 -22 -62.5t-48 -50.5q-107 -70 -248 -33
q-34 9 -30 45q9 34 49 27q120 -26 184 22q36 24 43 59t-16 56q-26 29 -78 29q-53 0 -98 -23q-23 -9 -42 7.5t-7 41.5l51 115q-66 2 -127.5 19.5t-120 56t-102 94t-69.5 138.5t-26 184v886q0 24 16 40t40 16z" />
    <glyph glyph-name="Tcaron" unicode="&#x164;" horiz-adv-x="1218" 
d="M1085 1434q22 0 38 -16.5t16 -39.5t-16 -39t-38 -16h-421v-1268q0 -23 -16.5 -39t-39.5 -16q-22 0 -38.5 16t-16.5 39v1268h-418q-23 0 -39 16t-16 39t16 39.5t39 16.5h950zM416 1698q-10 11 -9 25.5t11 25.5q8 8 24 8q21 0 31 -10l135 -156l144 156q9 10 23 10.5
t26 -8.5q12 -11 13 -25.5t-9 -25.5l-168 -187q-9 -12 -29 -12q-17 0 -26 12z" />
    <glyph glyph-name="tcaron" unicode="&#x165;" horiz-adv-x="700" 
d="M154 1434q23 0 39 -16.5t16 -39.5v-415h321q22 0 37 -15t15 -37q0 -23 -15 -38t-37 -15h-321v-366q0 -186 99 -282.5t249 -96.5l33 -2q23 0 39 -16.5t16 -39.5t-16 -39t-39 -16h-33q-85 0 -163.5 28t-146 84t-108.5 154t-41 226v886q0 24 16 40t40 16zM-39 1690
q-10 11 -9 25.5t11 25.5q8 8 25 8q20 0 30 -10l136 -156l143 156q9 10 23 10.5t26 -8.5q12 -11 13 -25.5t-9 -25.5l-168 -187q-9 -12 -28 -12q-18 0 -27 12z" />
    <glyph glyph-name="Tbar" unicode="&#x166;" horiz-adv-x="1224" 
d="M1087 1434q22 0 39 -16.5t17 -39.5t-17 -39t-39 -16h-421v-489h249q23 0 39.5 -16.5t16.5 -39.5t-16.5 -39t-39.5 -16h-249v-668q0 -23 -16.5 -39t-39.5 -16q-22 0 -38.5 16t-16.5 39v668h-236q-23 0 -38 16t-15 39q0 24 15 40t38 16h236v489h-418q-23 0 -39 16t-16 39
t16 39.5t39 16.5h950z" />
    <glyph glyph-name="tbar" unicode="&#x167;" horiz-adv-x="786" 
d="M137 1434q23 0 39.5 -16.5t16.5 -39.5v-415h321q22 0 37.5 -15t15.5 -37q0 -23 -15.5 -38t-37.5 -15h-321v-217h329q17 0 29 -12t12 -29q0 -19 -12 -31t-29 -12h-329v-65q0 -95 28 -169t77 -119t110.5 -68t132.5 -23l32 -2q23 0 39.5 -16.5t16.5 -39.5t-16.5 -39
t-39.5 -16h-32q-66 0 -129.5 16.5t-124 54.5t-105.5 93.5t-72.5 140t-27.5 187.5v886q0 23 16 39.5t39 16.5z" />
    <glyph glyph-name="Utilde" unicode="&#x168;" horiz-adv-x="1388" 
d="M694 -6q-156 0 -288 77t-208.5 209t-76.5 287v813q0 23 16 39.5t39 16.5t39 -16.5t16 -39.5v-813q0 -126 62.5 -233t169 -169.5t231.5 -62.5q127 0 233.5 62.5t168 169.5t61.5 233v813q0 23 17 39.5t40 16.5q22 0 39 -16.5t17 -39.5v-813q0 -155 -77.5 -287t-210 -209
t-288.5 -77zM479 1628q-3 15 4.5 28.5t22.5 16.5q13 4 27 -2.5t20 -19.5q13 -42 55 -39q18 3 43 24t53.5 39.5t57.5 18.5q46 0 81 -28t44 -71q4 -17 -4 -29.5t-21 -15.5q-14 -5 -28.5 2t-20.5 25q-10 44 -57 41q-19 -5 -46 -26t-54.5 -38.5t-53.5 -17.5q-44 0 -78.5 25
t-44.5 67z" />
    <glyph glyph-name="utilde" unicode="&#x169;" 
d="M143 969q24 0 40 -16t16 -40v-493q0 -128 90.5 -218.5t218.5 -90.5t218.5 90.5t90.5 218.5v493q0 25 15.5 40.5t39.5 15.5t40 -16t16 -40v-493q0 -173 -123.5 -296.5t-296.5 -123.5t-296.5 123.5t-123.5 296.5v493q0 25 16 40.5t39 15.5zM291 1161q-3 15 4 28.5t22 16.5
q13 4 27.5 -3t20.5 -19q13 -42 55 -39q18 3 42.5 24t53 39.5t57.5 18.5q46 0 81 -28t44 -71q4 -18 -3.5 -30t-20.5 -15q-14 -5 -28.5 2t-20.5 25q-4 20 -20 31.5t-38 9.5q-19 -5 -45.5 -26t-54 -38.5t-53.5 -17.5q-44 0 -78.5 25t-44.5 67z" />
    <glyph glyph-name="Umacron" unicode="&#x16a;" horiz-adv-x="1388" 
d="M694 -6q-156 0 -288 77t-208.5 209t-76.5 287v813q0 23 16 39.5t39 16.5t39 -16.5t16 -39.5v-813q0 -126 62.5 -233t169 -169.5t231.5 -62.5q127 0 233.5 62.5t168 169.5t61.5 233v813q0 23 17 39.5t40 16.5q22 0 39 -16.5t17 -39.5v-813q0 -155 -77.5 -287t-210 -209
t-288.5 -77zM569 1563q-23 0 -32.5 18.5t0 37.5t32.5 19h260q23 0 33 -19t0.5 -37.5t-33.5 -18.5h-260z" />
    <glyph glyph-name="umacron" unicode="&#x16b;" 
d="M143 969q24 0 40 -16t16 -40v-493q0 -128 90.5 -218.5t218.5 -90.5t218.5 90.5t90.5 218.5v493q0 25 15.5 40.5t39.5 15.5t40 -16t16 -40v-493q0 -173 -123.5 -296.5t-296.5 -123.5t-296.5 123.5t-123.5 296.5v493q0 25 16 40.5t39 15.5zM379 1096q-23 0 -32.5 19t0 37.5
t32.5 18.5h260q23 0 33 -18.5t0.5 -37.5t-33.5 -19h-260z" />
    <glyph glyph-name="Uring" unicode="&#x16e;" horiz-adv-x="1388" 
d="M694 -6q-156 0 -288 77t-208.5 209t-76.5 287v813q0 23 16 39.5t39 16.5t39 -16.5t16 -39.5v-813q0 -126 62.5 -233t169 -169.5t231.5 -62.5q127 0 233.5 62.5t168 169.5t61.5 233v813q0 23 17 39.5t40 16.5q22 0 39 -16.5t17 -39.5v-813q0 -155 -77.5 -287t-210 -209
t-288.5 -77zM549 1677q0 58 44.5 101t104.5 43q63 0 106.5 -42.5t43.5 -101.5q0 -60 -43.5 -102.5t-106.5 -42.5q-60 0 -104.5 42.5t-44.5 102.5zM623 1677q0 -30 21 -49.5t54 -19.5q30 0 51 19.5t21 49.5q0 29 -21.5 49.5t-50.5 20.5q-32 0 -53.5 -20.5t-21.5 -49.5z" />
    <glyph glyph-name="uring" unicode="&#x16f;" 
d="M143 969q24 0 40 -16t16 -40v-493q0 -128 90.5 -218.5t218.5 -90.5t218.5 90.5t90.5 218.5v493q0 25 15.5 40.5t39.5 15.5t40 -16t16 -40v-493q0 -173 -123.5 -296.5t-296.5 -123.5t-296.5 123.5t-123.5 296.5v493q0 25 16 40.5t39 15.5zM360 1210q0 58 45 101t105 43
q62 0 105.5 -42.5t43.5 -101.5q0 -60 -43 -102.5t-106 -42.5q-60 0 -105 42.5t-45 102.5zM434 1210q0 -30 21.5 -49.5t54.5 -19.5q30 0 51 19.5t21 49.5q0 29 -21.5 49.5t-50.5 20.5q-32 0 -54 -20.5t-22 -49.5z" />
    <glyph glyph-name="Uhungarumlaut" unicode="&#x170;" horiz-adv-x="1388" 
d="M694 -6q-156 0 -288 77t-208.5 209t-76.5 287v813q0 23 16 39.5t39 16.5t39 -16.5t16 -39.5v-813q0 -126 62.5 -233t169 -169.5t231.5 -62.5q127 0 233.5 62.5t168 169.5t61.5 233v813q0 23 17 39.5t40 16.5q22 0 39 -16.5t17 -39.5v-813q0 -155 -77.5 -287t-210 -209
t-288.5 -77zM590 1587l51 133q13 29 41.5 30.5t45.5 -20.5t1 -51l-78 -118q-9 -18 -27 -18.5t-29.5 13.5t-4.5 31zM743 1587l52 131q12 29 39.5 31t44.5 -19.5t2 -50.5l-76 -118q-11 -19 -29 -19.5t-29 13.5t-4 32z" />
    <glyph glyph-name="uhungarumlaut" unicode="&#x171;" 
d="M143 969q24 0 40 -16t16 -40v-493q0 -128 90.5 -218.5t218.5 -90.5t218.5 90.5t90.5 218.5v493q0 25 15.5 40.5t39.5 15.5t40 -16t16 -40v-493q0 -173 -123.5 -296.5t-296.5 -123.5t-296.5 123.5t-123.5 296.5v493q0 25 16 40.5t39 15.5zM399 1120l52 133
q13 29 41.5 30.5t45.5 -20.5t1 -51l-78 -118q-9 -18 -27.5 -18.5t-30 13.5t-4.5 31zM553 1120l51 131q12 29 39.5 31t44.5 -19.5t2 -50.5l-76 -118q-11 -19 -28.5 -19.5t-28.5 13.5t-4 32z" />
    <glyph glyph-name="Uogonek" unicode="&#x172;" horiz-adv-x="1388" 
d="M694 -6q-156 0 -288 77t-208.5 209t-76.5 287v813q0 23 16 39.5t39 16.5t39 -16.5t16 -39.5v-813q0 -126 62.5 -233t169 -169.5t231.5 -62.5q127 0 233.5 62.5t168 169.5t61.5 233v813q0 23 17 39.5t40 16.5q22 0 39 -16.5t17 -39.5v-813q0 -208 -133 -366
q-34 -59 -76 -113q-18 -24 -28 -37t-23 -32.5t-18.5 -32.5t-10 -30t-3.5 -32.5t7 -32.5q7 -23 31 -42t53 -27q78 -15 133 45q10 12 26.5 12.5t26.5 -10.5q11 -12 11.5 -28t-9.5 -27q-69 -72 -157 -72q-25 0 -49 4q-51 14 -88.5 47t-49.5 76q-28 86 25 180q-116 -55 -244 -55
z" />
    <glyph glyph-name="uogonek" unicode="&#x173;" 
d="M143 969q24 0 40 -16t16 -40v-493q0 -128 90.5 -218.5t218.5 -90.5t218.5 90.5t90.5 218.5v493q0 25 15.5 40.5t39.5 15.5t40 -16t16 -40v-493q0 -169 -117 -289q-33 -59 -76 -115q-19 -24 -28 -36.5t-22.5 -32.5t-18.5 -32.5t-10 -29.5t-4 -32.5t7 -32.5q7 -23 31 -42.5
t53 -27.5q79 -15 134 45q10 12 26.5 12.5t26.5 -10.5q11 -12 11.5 -28t-9.5 -27q-69 -72 -158 -72q-25 0 -49 4q-51 13 -88 46.5t-49 76.5q-10 33 -10.5 63t9 58.5t22.5 52t34 52.5q-67 -23 -135 -23q-173 0 -296.5 123.5t-123.5 296.5v493q0 25 16 40.5t39 15.5z" />
    <glyph glyph-name="Wcircumflex" unicode="&#x174;" horiz-adv-x="1951" 
d="M1853 1438q22 -8 32 -28.5t1 -41.5l-487 -1331q-16 -37 -53 -37q-17 0 -31.5 10t-20.5 25l-317 807l-320 -807q-14 -35 -51 -35t-53 37l-487 1331q-9 22 0.5 42t31.5 28q23 6 43 -3.5t27 -31.5l442 -1188l316 797q7 22 27 31t42 1q25 -13 31 -30v-2l315 -797l443 1188
q7 21 27 31t42 4zM786 1597l166 185q11 13 28 12.5t28 -12.5l168 -185q10 -12 8.5 -27t-13.5 -26q-12 -9 -26 -8.5t-23 10.5l-143 156l-135 -156q-11 -11 -27.5 -11.5t-28.5 9.5q-10 11 -11 25.5t9 27.5z" />
    <glyph glyph-name="wcircumflex" unicode="&#x175;" horiz-adv-x="1667" 
d="M463 0q-36 0 -51 33l-359 858q-8 21 1 42t30 30q22 9 42.5 0t31.5 -31l305 -733l319 735q7 21 29.5 29.5t44.5 -0.5q6 -3 12 -9q13 -10 19 -22l305 -733l319 735q7 21 29.5 29.5t44.5 -0.5q21 -9 29 -30.5t-2 -41.5l-369 -858q-18 -33 -51 -33q-36 0 -51 33l-310 739
l-317 -739q-18 -33 -51 -33zM639 1130l166 185q11 13 27.5 12.5t27.5 -12.5l168 -185q10 -12 9 -27t-13 -26q-12 -9 -26 -8.5t-23 10.5l-144 156l-135 -156q-11 -11 -27 -11.5t-28 9.5q-10 11 -11 25.5t9 27.5z" />
    <glyph glyph-name="Ycircumflex" unicode="&#x176;" horiz-adv-x="1243" 
d="M1159 1425q20 -12 25 -33.5t-6 -41.5l-500 -795l-2 -500q0 -23 -16 -39t-39 -16t-38.5 16t-15.5 39l2 500l-503 795q-12 20 -7.5 41.5t23.5 33.5q20 12 43 7.5t33 -23.5l465 -735l460 735q12 19 34 23.5t42 -7.5zM432 1597l166 185q11 13 27.5 12.5t27.5 -12.5l168 -185
q10 -12 9 -27t-13 -26q-12 -9 -26 -8.5t-23 10.5l-143 156l-136 -156q-11 -11 -27 -11.5t-28 9.5q-10 11 -11 25.5t9 27.5z" />
    <glyph glyph-name="ycircumflex" unicode="&#x177;" horiz-adv-x="964" 
d="M342 -348q-17 0 -25 4q-20 9 -27.5 31.5t1.5 42.5l137 317l-375 836q-9 22 -1 44t28 29q22 10 42.5 3t31.5 -27l333 -746l324 744q11 22 32 29t44 -3q19 -8 26.5 -29t-2.5 -44l-520 -1198q-6 -15 -20 -24t-29 -9zM293 1130l166 185q11 13 27.5 12.5t27.5 -12.5l168 -185
q10 -12 9 -27t-13 -26q-12 -9 -26 -8.5t-23 10.5l-144 156l-135 -156q-11 -11 -27 -11.5t-28 9.5q-10 11 -11 25.5t9 27.5z" />
    <glyph glyph-name="Ydieresis" unicode="&#x178;" horiz-adv-x="1243" 
d="M1159 1425q20 -12 25 -33.5t-6 -41.5l-500 -795l-2 -500q0 -23 -16 -39t-39 -16t-38.5 16t-15.5 39l2 500l-503 795q-12 20 -7.5 41.5t23.5 33.5q20 12 43 7.5t33 -23.5l465 -735l460 735q12 19 34 23.5t42 -7.5zM473 1569q0 23 15 38t38 15q22 0 38 -15t16 -38
q0 -22 -16 -39t-38 -17q-23 0 -38 17t-15 39zM670 1569q0 23 15 38t38 15q22 0 37.5 -15t15.5 -38q0 -22 -16 -39t-37 -17q-23 0 -38 17t-15 39z" />
    <glyph glyph-name="Zacute" unicode="&#x179;" horiz-adv-x="1396" 
d="M1239 111q22 0 38.5 -16.5t16.5 -39.5t-16.5 -39t-38.5 -16h-1081q-35 0 -49 31q-16 29 4 59l964 1235h-895q-23 0 -39 15t-16 38q0 24 15.5 40t39.5 16h1008q33 0 47 -31q16 -29 -4 -60l-965 -1232h971zM668 1571l53 139q13 28 41 30t45 -19.5t2 -51.5l-80 -125
q-9 -18 -28 -18.5t-30.5 13.5t-2.5 32z" />
    <glyph glyph-name="zacute" unicode="&#x17a;" horiz-adv-x="962" 
d="M133 0q-34 0 -51 31q-14 32 6 59l598 762h-536q-24 0 -41 16t-17 39q0 24 17 40t41 16h649q34 0 51 -31q14 -32 -8 -60l-596 -761h583q24 0 40 -16t16 -40q0 -23 -15.5 -39t-40.5 -16h-696zM449 1104l53 139q13 28 41 30t45 -19.5t2 -51.5l-80 -125q-9 -18 -28 -18.5
t-30.5 13.5t-2.5 32z" />
    <glyph glyph-name="Zdotaccent" unicode="&#x17b;" horiz-adv-x="1396" 
d="M1239 111q22 0 38.5 -16.5t16.5 -39.5t-16.5 -39t-38.5 -16h-1081q-35 0 -49 31q-16 29 4 59l964 1235h-895q-23 0 -39 15t-16 38q0 24 15.5 40t39.5 16h1008q33 0 47 -31q16 -29 -4 -60l-965 -1232h971zM647 1583q0 22 15.5 37.5t37.5 15.5t38 -15.5t16 -37.5
q0 -23 -16 -39t-38 -16t-37.5 16t-15.5 39z" />
    <glyph glyph-name="zdotaccent" unicode="&#x17c;" horiz-adv-x="962" 
d="M133 0q-34 0 -51 31q-14 32 6 59l598 762h-536q-24 0 -41 16t-17 39q0 24 17 40t41 16h649q34 0 51 -31q14 -32 -8 -60l-596 -761h583q24 0 40 -16t16 -40q0 -23 -15.5 -39t-40.5 -16h-696zM428 1116q0 22 15.5 37.5t37.5 15.5t38 -15.5t16 -37.5q0 -23 -16 -39t-38 -16
t-37.5 16t-15.5 39z" />
    <glyph glyph-name="Zcaron" unicode="&#x17d;" horiz-adv-x="1396" 
d="M1239 111q22 0 38.5 -16.5t16.5 -39.5t-16.5 -39t-38.5 -16h-1081q-35 0 -49 31q-16 29 4 59l964 1235h-895q-23 0 -39 15t-16 38q0 24 15.5 40t39.5 16h1008q33 0 47 -31q16 -29 -4 -60l-965 -1232h971zM508 1698q-10 11 -9 25.5t11 25.5q8 8 25 8q20 0 30 -10l135 -156
l144 156q9 10 23 10.5t26 -8.5q12 -11 13 -25.5t-9 -25.5l-168 -187q-9 -12 -29 -12q-17 0 -26 12z" />
    <glyph glyph-name="zcaron" unicode="&#x17e;" horiz-adv-x="962" 
d="M133 0q-34 0 -51 31q-14 32 6 59l598 762h-536q-24 0 -41 16t-17 39q0 24 17 40t41 16h649q34 0 51 -31q14 -32 -8 -60l-596 -761h583q24 0 40 -16t16 -40q0 -23 -15.5 -39t-40.5 -16h-696zM289 1231q-10 11 -9 25.5t11 25.5q8 8 24 8q21 0 31 -10l135 -156l144 156
q9 10 23 10.5t26 -8.5q12 -11 13 -25.5t-9 -25.5l-168 -187q-9 -12 -29 -12q-17 0 -26 12z" />
    <glyph glyph-name="uni01CD" unicode="&#x1cd;" horiz-adv-x="1386" 
d="M147 33q-15 -31 -46 -32.5t-50 22.5t-4 55l596 1325q14 33 48.5 33t49.5 -33l600 -1325q15 -30 -4.5 -54.5t-50.5 -23.5t-45 33l-168 375h-762zM362 516h660l-332 729zM498 1729q-20 23 2 53q8 8 24 8q19 0 31 -12l135 -156l144 156q9 10 23 11t26 -7q27 -27 4 -53
l-168 -185q-8 -14 -29 -14q-18 0 -26 14z" />
    <glyph glyph-name="uni01CE" unicode="&#x1ce;" horiz-adv-x="1124" 
d="M555 -6q-132 0 -243.5 65t-176.5 176.5t-65 243.5q0 131 65 243t176.5 177.5t243.5 65.5q131 0 242.5 -65.5t177 -177.5t65.5 -243v-8v-2v-418q0 -23 -14.5 -38t-36.5 -15t-36.5 15t-14.5 38v150q-70 -93 -169 -150t-214 -57zM178 479q0 -155 111 -265t266 -110
q157 0 267 110t110 265q0 157 -110 267t-267 110q-156 0 -266.5 -110.5t-110.5 -266.5zM362 1243q-20 23 3 53q9 9 24 9q18 0 31 -13l135 -155l143 155q9 10 23.5 11t26.5 -7q27 -27 4 -53l-168 -184q-9 -15 -29 -15q-18 0 -27 15z" />
    <glyph glyph-name="uni01CF" unicode="&#x1cf;" horiz-adv-x="348" 
d="M174 -2q-23 0 -39 15t-16 38v1331q0 24 15.5 40t39.5 16t39.5 -16t15.5 -40v-1331q0 -23 -16 -38t-39 -15zM-18 1716q-20 23 2 53q9 9 24 9q18 0 31 -13l135 -155l143 155q9 10 23.5 11t26.5 -7q27 -27 4 -53l-168 -184q-8 -14 -29 -14q-19 0 -27 14z" />
    <glyph glyph-name="uni01D0" unicode="&#x1d0;" horiz-adv-x="307" 
d="M154 0q-24 0 -40 16t-16 39v856q0 24 16 40t40 16q22 0 38.5 -16.5t16.5 -39.5v-856q0 -23 -16.5 -39t-38.5 -16zM-39 1247q-20 23 2 53q9 9 25 9q17 0 30 -13l136 -155l143 155q9 10 23 11t26 -7q27 -27 4 -53l-168 -184q-8 -14 -28 -14q-19 0 -27 14z" />
    <glyph glyph-name="uni01D1" unicode="&#x1d1;" horiz-adv-x="1619" 
d="M811 -14q-148 0 -284 58.5t-234 156.5t-156.5 234t-58.5 284t58.5 283.5t156.5 233.5t234 156t284 58q197 0 365.5 -98t267 -266.5t98.5 -366.5t-98.5 -367t-267 -267.5t-365.5 -98.5zM190 719q0 -168 83.5 -311.5t226.5 -227.5t311 -84t311 84t226.5 227.5t83.5 311.5
t-83.5 311t-226.5 226t-311 83t-311 -83t-226.5 -226t-83.5 -311zM618 1716q-20 23 3 53q9 9 24 9q18 0 31 -13l135 -155l143 155q9 10 23.5 11t26.5 -7q27 -27 4 -53l-168 -184q-8 -14 -29 -14q-19 0 -27 14z" />
    <glyph glyph-name="uni01D2" unicode="&#x1d2;" horiz-adv-x="1093" 
d="M547 -6q-132 0 -244 65t-177 176.5t-65 243.5q0 131 65 243t177 177.5t244 65.5q131 0 242.5 -65.5t177 -177.5t65.5 -243q0 -132 -65.5 -243.5t-177 -176.5t-242.5 -65zM172 479q0 -155 110 -265t265 -110q157 0 267 110t110 265q0 157 -110 267t-267 110
q-155 0 -265 -110t-110 -267zM350 1249q-21 24 2 54q8 8 25 8q18 0 31 -13l135 -155l143 155q20 23 49 5q27 -27 4 -54l-168 -184q-8 -14 -28 -14q-19 0 -27 14z" />
    <glyph glyph-name="uni01D3" unicode="&#x1d3;" horiz-adv-x="1388" 
d="M694 -6q-156 0 -288 77t-208.5 209t-76.5 287v813q0 23 16 39.5t39 16.5t39 -16.5t16 -39.5v-813q0 -126 62.5 -233t169 -169.5t231.5 -62.5q127 0 233.5 62.5t168 169.5t61.5 233v813q0 23 17 39.5t40 16.5q22 0 39 -16.5t17 -39.5v-813q0 -155 -77.5 -287t-210 -209
t-288.5 -77zM506 1716q-20 23 2 53q9 9 24 9q18 0 31 -13l135 -155l144 155q9 10 23 11t26 -7q27 -27 4 -53l-168 -184q-8 -14 -29 -14q-18 0 -26 14z" />
    <glyph glyph-name="uni01D4" unicode="&#x1d4;" 
d="M143 969q24 0 40 -16t16 -40v-493q0 -128 90.5 -218.5t218.5 -90.5t218.5 90.5t90.5 218.5v493q0 25 15.5 40.5t39.5 15.5t40 -16t16 -40v-493q0 -173 -123.5 -296.5t-296.5 -123.5t-296.5 123.5t-123.5 296.5v493q0 25 16 40.5t39 15.5zM317 1249q-21 24 2 54q8 8 25 8
q18 0 31 -13l135 -155l143 155q20 23 49 5q28 -28 5 -54l-168 -184q-8 -14 -29 -14q-19 0 -27 14z" />
    <glyph glyph-name="Gcaron" unicode="&#x1e6;" horiz-adv-x="1361" 
d="M811 -12q-198 0 -366 97.5t-265.5 264.5t-97.5 363q0 148 57.5 283t155.5 233t233 155.5t283 57.5q215 0 406 -123q19 -12 23.5 -35.5t-7.5 -42.5q-14 -19 -36.5 -23t-41.5 9q-152 102 -344 102q-125 0 -239 -48.5t-196.5 -130.5t-131.5 -196t-49 -241
q0 -165 82.5 -307.5t224.5 -226t309 -83.5q180 0 340 109v452h-375q-22 0 -37.5 16.5t-15.5 39.5q0 25 15.5 42t37.5 17h430q23 0 38.5 -17t15.5 -42v-539q0 -31 -23 -45q-187 -141 -426 -141zM618 1731q-20 23 3 53q8 8 24 8q19 0 31 -12l135 -156l143 156q9 10 23.5 11
t26.5 -7q27 -27 4 -53l-168 -185q-8 -14 -29 -14q-19 0 -27 14z" />
    <glyph glyph-name="gcaron" unicode="&#x1e7;" horiz-adv-x="1134" 
d="M555 -4q-132 0 -243.5 65t-176.5 176t-65 242t65 242.5t176.5 176.5t243.5 65q198 0 340.5 -142.5t142.5 -341.5v-405q0 -190 -127.5 -327t-324.5 -159q-11 0 -35.5 -1t-38.5 -1q-164 0 -283 84q-21 10 -27.5 31t1.5 41q11 20 32 27.5t41 -2.5q129 -88 299 -66
q154 14 252.5 117.5t98.5 255.5v94q-69 -80 -166 -126t-205 -46zM180 479q0 -155 110 -264t265 -109q154 0 262.5 109t108.5 264t-108.5 265t-262.5 110q-155 0 -265 -110t-110 -265zM362 1243q-20 23 3 53q9 9 24 9q18 0 31 -13l135 -155l143 155q9 10 23.5 11t26.5 -7
q27 -27 4 -53l-168 -184q-9 -15 -29 -15q-18 0 -27 15z" />
    <glyph glyph-name="uni0218" unicode="&#x218;" horiz-adv-x="1191" 
d="M608 -10q-96 0 -182.5 24t-149 64t-105 79t-73.5 81q-17 13 -17.5 35.5t13.5 37.5q15 17 38 18t38 -14q26 -37 62.5 -71t89.5 -69t127.5 -56t158.5 -21q98 0 175 24.5t123 66t70.5 90t27.5 102.5q7 123 -93.5 199.5t-306.5 107.5q-316 49 -432 205q-72 100 -51 240
q13 66 51.5 123t100 101t150.5 67.5t193 19.5q241 -10 390 -207q17 -15 18 -38t-14 -40q-16 -16 -38 -16.5t-38 16.5q-126 166 -326 176q-162 7 -263 -61t-116 -160q-12 -70 12.5 -125t81 -92.5t129.5 -61t169 -38.5q104 -15 186.5 -42.5t135.5 -63.5t89 -75t53.5 -83
t23.5 -82t3 -78q-4 -71 -35 -136.5t-89.5 -122t-156.5 -90.5t-223 -34zM494 -229l53 139q11 28 39 29.5t46 -19.5t3 -49l-80 -127q-15 -29 -44 -15.5t-17 42.5z" />
    <glyph glyph-name="uni0219" unicode="&#x219;" horiz-adv-x="874" 
d="M455 -4q-114 -1 -209 35.5t-156 79.5q-20 9 -26.5 30t2.5 41q11 20 32 27.5t41 -2.5q64 -49 142 -76t149.5 -28t132 15t96.5 53.5t37 88.5q1 62 -65 108.5t-189 73.5q-89 20 -156 50.5t-102.5 61.5t-56 67.5t-25.5 64t-2 55.5q8 103 108.5 167.5t246.5 58.5
q153 -6 282 -93q21 -10 28.5 -31t-3.5 -40q-11 -20 -32.5 -27.5t-41.5 2.5q-74 53 -160 72t-152 6.5t-111 -46.5t-48 -79q-3 -14 0 -30.5t18 -39t41 -42.5t75 -40.5t114 -33.5q87 -20 152 -49t101.5 -58t59 -63.5t29 -60.5t6.5 -54q0 -49 -21.5 -94.5t-63.5 -84t-113 -61.5
t-160 -24zM340 -215l53 139q11 28 39 29.5t46 -19.5t3 -49l-80 -127q-15 -29 -44 -15.5t-17 42.5z" />
    <glyph glyph-name="uni021A" unicode="&#x21a;" horiz-adv-x="1218" 
d="M1085 1434q22 0 38 -16.5t16 -39.5t-16 -39t-38 -16h-421v-1268q0 -23 -16.5 -39t-39.5 -16q-22 0 -38.5 16t-16.5 39v1268h-418q-23 0 -39 16t-16 39t16 39.5t39 16.5h950zM492 -217l53 139q11 28 39 29.5t46 -19.5t3 -49l-80 -127q-15 -29 -44 -15.5t-17 42.5z" />
    <glyph glyph-name="uni021B" unicode="&#x21b;" horiz-adv-x="700" 
d="M154 1434q23 0 39 -16.5t16 -39.5v-415h321q22 0 37 -15t15 -37q0 -23 -15 -38t-37 -15h-321v-366q0 -186 99 -282.5t249 -96.5l33 -2q23 0 39 -16.5t16 -39.5t-16 -39t-39 -16h-33q-85 0 -163.5 28t-146 84t-108.5 154t-41 226v886q0 24 16 40t40 16zM483 -186l54 139
q11 28 39 29.5t46 -19.5t3 -49l-80 -127q-15 -29 -44.5 -15.5t-17.5 42.5z" />
    <glyph glyph-name="uni0228" unicode="&#x228;" horiz-adv-x="1150" 
d="M1018 111q23 0 40 -16.5t17 -39.5t-17 -39t-40 -16h-141l-41 -90q48 11 101 -2t81 -47q40 -45 33 -113q-3 -32 -22 -62.5t-48 -50.5q-106 -69 -248 -32q-35 9 -31 45q9 33 50 26q119 -25 184 23q36 24 43 59t-16 56q-25 28 -78 28q-56 0 -99 -22q-23 -9 -42 7.5t-7 41.5
l60 133h-602q-23 0 -39.5 16t-16.5 39v1323q0 23 16.5 39.5t39.5 16.5h823q23 0 40 -16.5t17 -39.5t-17 -39t-40 -16h-770v-551h665q23 0 39.5 -16t16.5 -39t-16.5 -39t-39.5 -16h-665v-551h770z" />
    <glyph glyph-name="uni0229" unicode="&#x229;" horiz-adv-x="1095" 
d="M516 4q-196 19 -321 155t-125 326q0 131 64.5 242t175 175.5t241.5 64.5q198 0 336.5 -137.5t138.5 -333.5q0 -18 -11.5 -32.5t-29.5 -19.5q-4 -2 -12 -2l-793 -2q15 -135 110.5 -225.5t239.5 -105.5q218 -22 363 118q18 10 39 7t31 -21q10 -19 4 -38.5t-25 -31.5
q-120 -129 -313 -141l-41 -90q48 11 101 -2t81 -47q40 -45 33 -113q-6 -68 -70 -112q-107 -70 -248 -33q-34 9 -30 45q9 33 49 26q119 -25 184 23q36 24 43 59t-16 56q-25 28 -78 28q-55 0 -98 -22q-23 -9 -42.5 7.5t-7.5 41.5l60 133q-23 0 -33 2zM180 528h735
q-12 142 -115.5 239t-248.5 97q-143 0 -249.5 -96t-121.5 -240z" />
    <glyph glyph-name="circumflex" unicode="&#x2c6;" horiz-adv-x="548" 
d="M469 1434q10 -12 9 -27.5t-13 -26.5q-12 -9 -26 -8.5t-23 10.5l-144 156l-135 -156q-11 -11 -27 -11.5t-28 9.5q-10 11 -11 26t9 28l166 184q11 13 27.5 12.5t27.5 -12.5z" />
    <glyph glyph-name="caron" unicode="&#x2c7;" horiz-adv-x="548" 
d="M301 1350q-10 -13 -29 -13q-16 0 -26 13l-166 186q-10 11 -9 25.5t11 25.5q8 8 24 8q21 0 31 -10l135 -155l144 155q9 10 23 10.5t26 -8.5q12 -11 13 -25.5t-9 -25.5z" />
    <glyph glyph-name="breve" unicode="&#x2d8;" horiz-adv-x="550" 
d="M276 1386q-85 0 -145.5 57t-60.5 140q0 15 12 26t27 11t26.5 -11t11.5 -26q0 -51 37 -86t92 -35q53 0 91.5 35t38.5 86q0 16 9.5 26.5t26.5 10.5q15 0 26 -11t11 -26q0 -83 -59 -140t-144 -57z" />
    <glyph glyph-name="dotaccent" unicode="&#x2d9;" horiz-adv-x="239" 
d="M119 1456q-22 0 -37.5 16t-15.5 39q0 22 15.5 38t37.5 16t37.5 -16t15.5 -38q0 -23 -15.5 -39t-37.5 -16z" />
    <glyph glyph-name="ring" unicode="&#x2da;" horiz-adv-x="438" 
d="M219 1593q63 0 106.5 -42t43.5 -101q0 -60 -43.5 -102.5t-106.5 -42.5q-60 0 -104.5 42.5t-44.5 102.5q0 58 44.5 100.5t104.5 42.5zM143 1450q0 -31 21.5 -50.5t54.5 -19.5q30 0 51 20t21 50q0 29 -21.5 49.5t-50.5 20.5q-32 0 -54 -20.5t-22 -49.5z" />
    <glyph glyph-name="ogonek" unicode="&#x2db;" horiz-adv-x="536" 
d="M283 -444q-26 0 -50 4q-51 13 -88 46.5t-49 76.5q-10 31 -10 61.5t6.5 54t22.5 52.5t29.5 47.5t37.5 48.5q47 63 74 110q8 14 22.5 18t28.5 -5q14 -6 18 -21.5t-3 -30.5q-30 -53 -78 -116q-18 -24 -28 -37t-23 -32.5t-18.5 -32.5t-10 -30t-3.5 -32.5t7 -32.5
q7 -23 31 -42.5t53 -27.5q77 -15 133 46q10 12 26.5 12.5t26.5 -10.5q11 -12 11.5 -28.5t-9.5 -27.5q-68 -71 -157 -71z" />
    <glyph glyph-name="tilde" unicode="&#x2dc;" horiz-adv-x="550" 
d="M354 1599q46 0 81 -27.5t44 -70.5q4 -18 -3.5 -30t-20.5 -15q-14 -5 -28.5 2t-20.5 25q-4 20 -20 31.5t-38 9.5q-19 -5 -45.5 -26t-54 -38.5t-53.5 -17.5q-44 0 -78.5 25t-44.5 67q-3 15 4 28.5t22 16.5q13 4 27 -3t20 -20q13 -41 56 -38q18 3 42.5 23.5t53 39t57.5 18.5
z" />
    <glyph glyph-name="hungarumlaut" unicode="&#x2dd;" horiz-adv-x="436" 
d="M119 1632q13 29 41.5 30.5t45.5 -20.5t1 -51l-78 -118q-9 -18 -27 -18.5t-29.5 13.5t-4.5 31zM221 1499l51 131q12 29 39.5 31t44.5 -19.5t2 -50.5l-75 -118q-11 -19 -29 -19.5t-29 13.5t-4 32z" />
    <glyph glyph-name="gravecomb" unicode="&#x300;" horiz-adv-x="0" 
d="M78 1573q-15 29 1.5 50.5t44.5 19.5t40 -31l55 -139q9 -18 -2.5 -31.5t-30.5 -12.5t-28 19z" />
    <glyph glyph-name="acutecomb" unicode="&#x301;" horiz-adv-x="0" 
d="M127 1597q13 28 41 30t45 -19.5t2 -51.5l-80 -124q-9 -18 -28 -19t-30.5 13t-2.5 32z" />
    <glyph glyph-name="uni0302" unicode="&#x302;" horiz-adv-x="0" 
d="M469 1434q15 -17 7.5 -36.5t-25 -24t-35.5 10.5l-144 156l-135 -156q-16 -17 -37 -11t-27.5 24t7.5 37l166 186q10 12 28 12t27 -12z" />
    <glyph glyph-name="tildecomb" unicode="&#x303;" horiz-adv-x="0" 
d="M354 1599q46 0 81 -27.5t44 -70.5q4 -18 -3.5 -30t-20.5 -15q-14 -5 -28.5 2t-20.5 25q-4 20 -20 31.5t-38 9.5q-19 -5 -45.5 -26t-54 -38.5t-53.5 -17.5q-44 0 -78.5 25t-44.5 67q-3 15 4 28.5t22 16.5q13 4 27 -3t20 -20q13 -41 56 -38q18 3 42.5 23.5t53 39t57.5 18.5
z" />
    <glyph glyph-name="uni0304" unicode="&#x304;" horiz-adv-x="0" 
d="M92 1501q-23 0 -32.5 19t0 38t32.5 19h301q23 0 33 -19t0.5 -38t-33.5 -19h-301z" />
    <glyph glyph-name="uni0306" unicode="&#x306;" horiz-adv-x="0" 
d="M276 1386q-85 0 -145.5 57t-60.5 140q0 15 12 26t27 11t26.5 -11t11.5 -26q0 -51 37 -86t92 -35q53 0 91.5 35t38.5 86q0 16 9.5 26.5t26.5 10.5q15 0 26 -11t11 -26q0 -83 -59 -140t-144 -57z" />
    <glyph glyph-name="uni0307" unicode="&#x307;" horiz-adv-x="0" 
d="M119 1456q-22 0 -37.5 16t-15.5 39q0 22 15.5 38t37.5 16t37.5 -16t15.5 -38q0 -23 -15.5 -39t-37.5 -16z" />
    <glyph glyph-name="uni0308" unicode="&#x308;" horiz-adv-x="0" 
d="M121 1423q-23 0 -38 17t-15 39q0 23 15 38t38 15q22 0 37.5 -15t15.5 -38q0 -22 -16 -39t-37 -17zM262 1479q0 23 15.5 38t37.5 15q24 0 40 -15t16 -38q0 -22 -16.5 -39t-39.5 -17q-21 0 -37 17t-16 39z" />
    <glyph glyph-name="uni030A" unicode="&#x30a;" horiz-adv-x="0" 
d="M219 1585q63 0 106.5 -42t43.5 -101q0 -60 -43.5 -103t-106.5 -43q-60 0 -104.5 43t-44.5 103q0 58 44.5 100.5t104.5 42.5zM143 1442q0 -31 21.5 -50.5t54.5 -19.5q30 0 51 20t21 50q0 29 -21 49t-51 20q-32 0 -54 -20t-22 -49z" />
    <glyph glyph-name="uni030B" unicode="&#x30b;" horiz-adv-x="0" 
d="M123 1632q13 29 41.5 30.5t45.5 -20.5t1 -51l-76 -118q-17 -28 -44.5 -14.5t-18.5 40.5zM225 1499l51 131q12 29 40.5 31t46 -19.5t2.5 -50.5l-78 -118q-9 -19 -27.5 -20t-30 13.5t-4.5 32.5z" />
    <glyph glyph-name="uni030C" unicode="&#x30c;" horiz-adv-x="0" 
d="M301 1333q-8 -14 -29 -14q-18 0 -26 14l-166 185q-20 23 2 53q8 8 24 8q19 0 31 -12l135 -156l144 156q9 10 23 11t26 -7q27 -27 4 -53z" />
    <glyph glyph-name="uni0312" unicode="&#x312;" horiz-adv-x="0" 
d="M164 1444q-12 -29 -40 -31t-44.5 19.5t-1.5 50.5l80 125q9 19 28 20t30.5 -13t2.5 -32z" />
    <glyph glyph-name="uni0326" unicode="&#x326;" horiz-adv-x="0" 
d="M135 -248q-15 -29 -44 -15.5t-17 42.5l53 139q11 28 39 29.5t46 -19.5t3 -49z" />
    <glyph glyph-name="uni0327" unicode="&#x327;" horiz-adv-x="0" 
d="M96 -406q-34 9 -30 46q9 33 49 26q119 -25 184 23q36 24 43 58.5t-16 55.5q-26 29 -78 29q-55 0 -98 -22q-23 -9 -42.5 7.5t-7.5 41.5l76 170q6 16 21 21.5t28 -1.5t19 -20t0 -29l-45 -98q48 11 101 -2t81 -47q40 -45 33 -113q-3 -32 -22 -62.5t-48 -50.5
q-107 -70 -248 -33z" />
    <glyph glyph-name="uni0328" unicode="&#x328;" horiz-adv-x="0" 
d="M283 -444q-26 0 -50 4q-51 13 -88 46.5t-49 76.5q-10 31 -10 61.5t6.5 54t22.5 52.5t29.5 47.5t37.5 48.5q47 63 74 110q8 14 22.5 18t28.5 -5q14 -6 18 -21.5t-3 -30.5q-30 -53 -78 -116q-18 -24 -28 -37t-23 -32.5t-18.5 -32.5t-10 -30t-3.5 -32.5t7 -32.5
q7 -23 31 -42.5t53 -27.5q77 -15 133 46q10 12 26.5 12.5t26.5 -10.5q11 -12 11.5 -28.5t-9.5 -27.5q-68 -71 -157 -71z" />
    <glyph glyph-name="uni1E3E" unicode="&#x1e3e;" horiz-adv-x="1718" 
d="M195 0q-23 0 -39.5 16t-16.5 39v1325q0 42 39 56q38 10 62 -21l620 -846l619 846q27 30 63 21q37 -13 37 -56v-1325q0 -23 -16 -39t-39 -16q-22 0 -39 16t-17 39v1157l-563 -768q-19 -24 -47 -24t-43 24l-565 768v-1157q0 -23 -16 -39t-39 -16zM827 1470l54 140
q13 28 41 30t45 -19.5t2 -51.5l-80 -125q-9 -18 -28 -19t-31 13t-3 32z" />
    <glyph glyph-name="uni1E3F" unicode="&#x1e3f;" horiz-adv-x="1624" 
d="M813 0q-24 0 -39.5 15.5t-15.5 39.5v527q0 115 -81 195.5t-194 80.5q-114 0 -194 -80.5t-80 -195.5v-527q0 -23 -16 -39t-39 -16q-24 0 -40 16t-16 39v527q0 161 112.5 273t272.5 112q103 0 190.5 -50t139.5 -135q52 85 139.5 135t190.5 50q159 0 272 -112t113 -273v-527
q0 -23 -16 -39t-39 -16q-25 0 -41.5 16t-16.5 39v527q0 115 -79.5 195.5t-192.5 80.5q-115 0 -195 -80t-80 -196v-527q0 -23 -16 -39t-39 -16zM778 1085l53 140q13 28 41 30t45.5 -19.5t2.5 -51.5l-80 -125q-9 -18 -28 -19t-31 13t-3 32z" />
    <glyph glyph-name="Wgrave" unicode="&#x1e80;" horiz-adv-x="1951" 
d="M1853 1438q22 -8 32 -28.5t1 -41.5l-487 -1331q-16 -37 -53 -37q-17 0 -31.5 10t-20.5 25l-317 807l-320 -807q-14 -35 -51 -35t-53 37l-487 1331q-9 22 0.5 42t31.5 28q23 6 43 -3.5t27 -31.5l442 -1188l316 797q7 22 27 31t42 1q25 -13 31 -30v-2l315 -797l443 1188
q7 21 27 31t42 4zM866 1659q-15 29 1.5 50.5t44.5 19.5t40 -31l54 -135q9 -18 -3 -31.5t-31 -12.5t-28 19z" />
    <glyph glyph-name="wgrave" unicode="&#x1e81;" horiz-adv-x="1667" 
d="M463 0q-36 0 -51 33l-359 858q-8 21 1 42t30 30q22 9 42.5 0t31.5 -31l305 -733l319 735q7 21 29.5 29.5t44.5 -0.5q6 -3 12 -9q13 -10 19 -22l305 -733l319 735q7 21 29.5 29.5t44.5 -0.5q21 -9 29 -30.5t-2 -41.5l-369 -858q-18 -33 -51 -33q-36 0 -51 33l-310 739
l-317 -739q-18 -33 -51 -33zM719 1192q-15 29 1.5 50.5t44.5 19.5t40 -31l53 -135q9 -18 -2.5 -31.5t-30.5 -12.5t-28 19z" />
    <glyph glyph-name="Wacute" unicode="&#x1e82;" horiz-adv-x="1951" 
d="M1853 1438q22 -8 32 -28.5t1 -41.5l-487 -1331q-16 -37 -53 -37q-17 0 -31.5 10t-20.5 25l-317 807l-320 -807q-14 -35 -51 -35t-53 37l-487 1331q-9 22 0.5 42t31.5 28q23 6 43 -3.5t27 -31.5l442 -1188l316 797q7 22 27 31t42 1q25 -13 31 -30v-2l315 -797l443 1188
q7 21 27 31t42 4zM946 1550l53 136q11 29 38.5 30.5t45.5 -20t4 -49.5l-77 -123q-14 -26 -43.5 -14.5t-20.5 40.5z" />
    <glyph glyph-name="wacute" unicode="&#x1e83;" horiz-adv-x="1667" 
d="M463 0q-36 0 -51 33l-359 858q-8 21 1 42t30 30q22 9 42.5 0t31.5 -31l305 -733l319 735q7 21 29.5 29.5t44.5 -0.5q6 -3 12 -9q13 -10 19 -22l305 -733l319 735q7 21 29.5 29.5t44.5 -0.5q21 -9 29 -30.5t-2 -41.5l-369 -858q-18 -33 -51 -33q-36 0 -51 33l-310 739
l-317 -739q-18 -33 -51 -33zM799 1083l53 136q11 29 38.5 30.5t45.5 -20t4 -49.5l-78 -123q-14 -26 -43 -14.5t-20 40.5z" />
    <glyph glyph-name="Wdieresis" unicode="&#x1e84;" horiz-adv-x="1951" 
d="M1853 1438q22 -8 32 -28.5t1 -41.5l-487 -1331q-16 -37 -53 -37q-17 0 -31.5 10t-20.5 25l-317 807l-320 -807q-14 -35 -51 -35t-53 37l-487 1331q-9 22 0.5 42t31.5 28q23 6 43 -3.5t27 -31.5l442 -1188l316 797q7 22 27 31t42 1q25 -13 31 -30v-2l315 -797l443 1188
q7 21 27 31t42 4zM827 1569q0 23 15.5 38t38.5 15q22 0 37.5 -15t15.5 -38q0 -22 -16 -39t-37 -17q-23 0 -38.5 17t-15.5 39zM1024 1569q0 23 15 38t38 15q22 0 37.5 -15t15.5 -38q0 -22 -16 -39t-37 -17q-23 0 -38 17t-15 39z" />
    <glyph glyph-name="wdieresis" unicode="&#x1e85;" horiz-adv-x="1667" 
d="M463 0q-36 0 -51 33l-359 858q-8 21 1 42t30 30q22 9 42.5 0t31.5 -31l305 -733l319 735q7 21 29.5 29.5t44.5 -0.5q6 -3 12 -9q13 -10 19 -22l305 -733l319 735q7 21 29.5 29.5t44.5 -0.5q21 -9 29 -30.5t-2 -41.5l-369 -858q-18 -33 -51 -33q-36 0 -51 33l-310 739
l-317 -739q-18 -33 -51 -33zM680 1102q0 23 15 38t38 15q22 0 37.5 -15t15.5 -38q0 -22 -15.5 -38.5t-37.5 -16.5q-23 0 -38 16.5t-15 38.5zM877 1102q0 23 15 38t38 15q22 0 37.5 -15t15.5 -38q0 -22 -15.5 -38.5t-37.5 -16.5q-23 0 -38 16.5t-15 38.5z" />
    <glyph glyph-name="uni1EBC" unicode="&#x1ebc;" horiz-adv-x="1150" 
d="M1018 111q23 0 40 -16.5t17 -39.5t-17 -39t-40 -16h-823q-23 0 -39.5 16t-16.5 39v1323q0 23 16.5 39.5t39.5 16.5h823q23 0 40 -16.5t17 -39.5t-17 -39t-40 -16h-770v-551h665q23 0 39.5 -16t16.5 -39t-16.5 -39t-39.5 -16h-665v-551h770zM391 1640q-3 15 4.5 29
t22.5 17q13 4 27 -3t20 -20q13 -42 55 -39q18 3 43 24t53.5 39.5t57.5 18.5q46 0 81 -27.5t44 -70.5q4 -17 -4 -29.5t-21 -15.5q-15 -5 -29 1.5t-20 24.5q-10 44 -57 41q-19 -5 -46 -26t-54.5 -38.5t-53.5 -17.5q-44 0 -78.5 25t-44.5 67z" />
    <glyph glyph-name="uni1EBD" unicode="&#x1ebd;" horiz-adv-x="1095" 
d="M516 4q-196 19 -321 155t-125 326q0 131 64.5 242t175 175.5t241.5 64.5q198 0 336.5 -137.5t138.5 -333.5q0 -18 -11.5 -32.5t-29.5 -19.5q-4 -2 -12 -2l-793 -2q15 -135 110.5 -225.5t239.5 -105.5q218 -22 363 118q18 10 39 7t31 -21q10 -19 4 -38.5t-25 -31.5
q-151 -164 -426 -139zM180 528h735q-12 142 -115.5 239t-248.5 97q-143 0 -249.5 -96t-121.5 -240zM334 1157q-3 15 4 28.5t22 16.5q13 4 27.5 -3t20.5 -19q13 -42 55 -39q18 3 42.5 24t53 39.5t57.5 18.5q46 0 81 -28t44 -71q4 -18 -3.5 -30t-20.5 -15q-14 -5 -28.5 2
t-20.5 25q-4 20 -20 31.5t-38 9.5q-19 -5 -45.5 -26t-54 -38.5t-53.5 -17.5q-44 0 -78.5 25t-44.5 67z" />
    <glyph glyph-name="Ygrave" unicode="&#x1ef2;" horiz-adv-x="1243" 
d="M1159 1425q20 -12 25 -33.5t-6 -41.5l-500 -795l-2 -500q0 -23 -16 -39t-39 -16t-38.5 16t-15.5 39l2 500l-503 795q-12 20 -7.5 41.5t23.5 33.5q20 12 43 7.5t33 -23.5l465 -735l460 735q12 19 34 23.5t42 -7.5zM512 1659q-15 29 1.5 50.5t44.5 19.5t40 -31l53 -135
q9 -18 -2.5 -31.5t-30.5 -12.5t-28 19z" />
    <glyph glyph-name="ygrave" unicode="&#x1ef3;" horiz-adv-x="964" 
d="M342 -348q-17 0 -25 4q-20 9 -27.5 31.5t1.5 42.5l137 317l-375 836q-9 22 -1 44t28 29q22 10 42.5 3t31.5 -27l333 -746l324 744q11 22 32 29t44 -3q19 -8 26.5 -29t-2.5 -44l-520 -1198q-6 -15 -20 -24t-29 -9zM373 1192q-15 29 1.5 50.5t44.5 19.5t40 -31l53 -135
q9 -18 -2.5 -31.5t-30.5 -12.5t-28 19z" />
    <glyph glyph-name="uni1EF8" unicode="&#x1ef8;" horiz-adv-x="1243" 
d="M1159 1425q20 -12 25 -33.5t-6 -41.5l-500 -795l-2 -500q0 -23 -16 -39t-39 -16t-38.5 16t-15.5 39l2 500l-503 795q-12 20 -7.5 41.5t23.5 33.5q20 12 43 7.5t33 -23.5l465 -735l460 735q12 19 34 23.5t42 -7.5zM406 1628q-3 15 4 28.5t22 16.5q13 4 27 -2.5t20 -19.5
q13 -42 56 -39q18 3 42.5 24t53 39.5t57.5 18.5q46 0 81 -28t44 -71q4 -17 -4 -29.5t-21 -15.5q-14 -5 -28.5 2t-20.5 25q-10 44 -57 41q-19 -5 -46 -26t-54.5 -38.5t-53.5 -17.5q-44 0 -78 25t-44 67z" />
    <glyph glyph-name="uni1EF9" unicode="&#x1ef9;" horiz-adv-x="964" 
d="M342 -348q-17 0 -25 4q-20 9 -27.5 31.5t1.5 42.5l137 317l-375 836q-9 22 -1 44t28 29q22 10 42.5 3t31.5 -27l333 -746l324 744q11 22 32 29t44 -3q19 -8 26.5 -29t-2.5 -44l-520 -1198q-6 -15 -20 -24t-29 -9zM266 1161q-3 15 4.5 28.5t22.5 16.5q13 4 27 -3t20 -19
q13 -42 55 -39q18 3 43 24t53.5 39.5t57.5 18.5q46 0 81 -28t44 -71q4 -17 -4 -29.5t-21 -15.5q-14 -5 -28.5 2t-20.5 25q-10 44 -57 41q-19 -5 -46 -26t-54.5 -38.5t-53.5 -17.5q-44 0 -78.5 25t-44.5 67z" />
    <glyph glyph-name="endash" unicode="&#x2013;" horiz-adv-x="1085" 
d="M82 604q0 23 16 39t39 16h811q23 0 39.5 -16t16.5 -39t-16.5 -39t-39.5 -16h-811q-23 0 -39 16t-16 39z" />
    <glyph glyph-name="emdash" unicode="&#x2014;" horiz-adv-x="1427" 
d="M82 739q0 22 16 39t39 17h1153q23 0 39.5 -17t16.5 -39q0 -23 -16.5 -40t-39.5 -17h-1153q-23 0 -39 17t-16 40z" />
    <glyph glyph-name="quoteleft" unicode="&#x2018;" horiz-adv-x="292" 
d="M223 1485q14 -5 22 -19.5t5 -29.5l-39 -209q-6 -28 -27.5 -42t-48.5 -9q-27 3 -43 25t-8 54l74 207q8 19 27 26t38 -3z" />
    <glyph glyph-name="quoteright" unicode="&#x2019;" horiz-adv-x="292" 
d="M109 1180q-12 5 -20 19.5t-5 29.5l39 209q6 28 27 42t47 9q27 -3 43.5 -25.5t7.5 -54.5l-72 -207q-8 -19 -28 -25.5t-39 3.5z" />
    <glyph glyph-name="quotesinglbase" unicode="&#x201a;" horiz-adv-x="1228" 
d="M49 -156q-13 7 -18.5 24t0.5 30l75 200q10 25 34.5 35t47.5 2q26 -8 38 -31.5t-1 -56.5l-108 -190q-10 -17 -31.5 -21t-36.5 8z" />
    <glyph glyph-name="quotedblleft" unicode="&#x201c;" horiz-adv-x="487" 
d="M424 1485q14 -5 21.5 -19.5t3.5 -29.5l-39 -209q-6 -27 -28 -40.5t-46 -10.5q-27 3 -43 25t-8 54l71 207q9 19 29 26t39 -3zM84 1255l74 207q8 19 27 26t38 -3q14 -5 22 -19.5t5 -29.5l-39 -209q-6 -28 -28.5 -41t-47.5 -10q-27 3 -43 25t-8 54z" />
    <glyph glyph-name="quotedblright" unicode="&#x201d;" horiz-adv-x="487" 
d="M109 1180q-12 5 -20 19.5t-5 29.5l39 209q6 27 28 40.5t46 10.5q27 -3 43.5 -25.5t7.5 -54.5l-72 -207q-8 -19 -28 -25.5t-39 3.5zM285 1229l39 209q6 28 27 41t46 10q27 -3 43.5 -25.5t8.5 -54.5l-74 -207q-8 -19 -27.5 -25.5t-38.5 3.5q-14 5 -21 19.5t-3 29.5z" />
    <glyph glyph-name="quotedblbase" unicode="&#x201e;" horiz-adv-x="1228" 
d="M49 -156q-13 7 -18.5 24t0.5 30l75 200q10 25 34.5 35t47.5 2q26 -8 38 -31.5t-1 -56.5l-108 -190q-10 -17 -31.5 -21t-36.5 8z" />
    <glyph glyph-name="dagger" unicode="&#x2020;" horiz-adv-x="731" 
d="M362 711q-22 0 -36.5 14.5t-14.5 36.5v547h-194q-21 0 -36 15t-15 36q0 22 14.5 37.5t36.5 15.5h194v158q0 22 14.5 36.5t36.5 14.5t37 -14.5t15 -36.5v-158h200q22 0 37 -15.5t15 -37.5q0 -20 -15 -35.5t-37 -15.5h-200v-547q0 -22 -15 -36.5t-37 -14.5z" />
    <glyph glyph-name="daggerdbl" unicode="&#x2021;" horiz-adv-x="731" 
d="M362 711q-22 0 -36.5 14.5t-14.5 36.5v199h-194q-21 0 -36 15t-15 36q0 22 14.5 37.5t36.5 15.5h194v244h-194q-21 0 -36 15t-15 36q0 22 14.5 37.5t36.5 15.5h194v158q0 22 14.5 36.5t36.5 14.5t37 -14.5t15 -36.5v-158h200q22 0 37 -15.5t15 -37.5q0 -20 -15 -35.5
t-37 -15.5h-200v-244h200q22 0 37 -15.5t15 -37.5q0 -20 -15 -35.5t-37 -15.5h-200v-199q0 -22 -15 -36.5t-37 -14.5z" />
    <glyph glyph-name="bullet" unicode="&#x2022;" horiz-adv-x="600" 
d="M301 559q-74 0 -126 54t-52 128q0 75 51.5 127t126.5 52q74 0 125 -52t51 -127q0 -74 -51.5 -128t-124.5 -54z" />
    <glyph glyph-name="ellipsis" unicode="&#x2026;" horiz-adv-x="776" 
d="M684 -2q-32 0 -55 24t-23 58q0 32 23 55t55 23q34 0 57 -23t23 -55q0 -34 -23 -58t-57 -24zM78 80q0 32 23 55t55 23q34 0 57 -23t23 -55q0 -34 -23 -58t-57 -24q-32 0 -55 24t-23 58zM344 80q0 32 23 55t55 23q34 0 57 -23t23 -55q0 -34 -23 -58t-57 -24q-32 0 -55 24
t-23 58z" />
    <glyph glyph-name="perthousand" unicode="&#x2030;" horiz-adv-x="1527" 
d="M129 0q-15 0 -27 6q-19 12 -24.5 33.5t6.5 40.5l733 1331q10 20 33 26t43 -5q19 -11 24.5 -31.5t-4.5 -40.5l-735 -1333q-17 -27 -49 -27zM61 1135q0 99 64 170t154 71q89 0 153 -71.5t64 -169.5q0 -100 -64 -171t-153 -71q-91 0 -154.5 71t-63.5 171zM150 1135
q0 -64 38 -109t91 -45t90 45t37 109q0 63 -37 107t-90 44t-91 -44t-38 -107zM504 281q0 99 63.5 170t153.5 71q89 0 152 -71t63 -170q0 -100 -63 -171t-152 -71q-90 0 -153.5 71t-63.5 171zM594 281q0 -64 37 -109t90 -45t90 45t37 109q0 63 -37 107t-90 44t-90 -44
t-37 -107zM1014 279q0 100 63 170.5t154 70.5q89 0 152 -70.5t63 -170.5t-63 -171t-152 -71q-90 0 -153.5 71t-63.5 171zM1102 279q0 -64 37.5 -109t91.5 -45q53 0 90 45t37 109q0 63 -37 107t-90 44q-54 0 -91.5 -44t-37.5 -107z" />
    <glyph glyph-name="guilsinglleft" unicode="&#x2039;" horiz-adv-x="718" 
d="M594 145q-17 0 -31 11l-467 317q-26 16 -26 47q0 27 24 41l469 332q19 13 40 9.5t34 -19.5q14 -18 11 -41.5t-23 -36.5l-406 -283l406 -276q19 -12 22.5 -36t-10.5 -44q-21 -21 -43 -21z" />
    <glyph glyph-name="guilsinglright" unicode="&#x203a;" horiz-adv-x="718" 
d="M125 145q-26 0 -43 21q-14 20 -10.5 44t22.5 36l406 276l-406 283q-20 13 -23 36.5t11 41.5q13 16 34 19.5t40 -9.5l469 -332q22 -13 22 -41q0 -32 -24 -47l-467 -317q-14 -11 -31 -11z" />
    <glyph glyph-name="fraction" unicode="&#x2044;" horiz-adv-x="497" 
d="M-213 -18q-15 8 -20 25t4 34l880 1393q10 15 27.5 18t32.5 -8q17 -7 21 -26t-7 -34l-879 -1392q-15 -27 -59 -10z" />
    <glyph glyph-name="uni2070" unicode="&#x2070;" horiz-adv-x="872" 
d="M436 848q-155 0 -265 110t-110 265t110 264.5t265 109.5t265 -109.5t110 -264.5t-110 -265t-265 -110zM139 1223q0 -123 87 -211t210 -88q122 0 210.5 88t88.5 211q0 121 -88.5 210t-210.5 89t-209.5 -88.5t-87.5 -210.5z" />
    <glyph glyph-name="uni2074" unicode="&#x2074;" horiz-adv-x="600" 
d="M403 860q-13 0 -24.5 11.5t-11.5 25.5v119h-306q-18 0 -30 12q-10 17 -4 33l127 510q4 13 19 21t30 5q14 -6 21.5 -20t4.5 -27l-116 -458h254v215q0 15 11 27t25 12q17 0 29 -12t12 -27v-215h76q17 0 28 -12t11 -29q0 -14 -11 -24.5t-28 -10.5h-76v-119q0 -14 -12 -25.5
t-29 -11.5z" />
    <glyph glyph-name="uni2075" unicode="&#x2075;" horiz-adv-x="577" 
d="M270 842q-78 0 -143 37t-100 102q-8 14 -4.5 28.5t16.5 22.5t29.5 3.5t23.5 -17.5q28 -45 76 -72.5t102 -27.5q80 0 136.5 53t56.5 129q0 78 -55.5 122t-145.5 44h-143q-21 0 -31 14q-12 19 -6 33l63 254q7 30 35 30h236q17 0 27 -10.5t10 -27.5q0 -16 -10 -27.5
t-27 -11.5h-203l-45 -179h94q124 0 199.5 -66.5t75.5 -174.5q0 -109 -77 -183.5t-190 -74.5z" />
    <glyph glyph-name="uni2076" unicode="&#x2076;" horiz-adv-x="616" 
d="M307 854q-110 0 -188 79t-78 189q0 19 2 34.5t5 29.5t13.5 35t19.5 38.5t31.5 53.5t41 65.5t57 89.5t70.5 111q12 20 34.5 20t32.5 -16t0 -39l-108 -170q82 25 160.5 -4t126.5 -97t48 -151q0 -110 -79 -189t-189 -79zM117 1122q0 -78 56 -134t134 -56q80 0 137.5 56
t57.5 134t-57.5 134.5t-137.5 56.5q-78 0 -134 -56.5t-56 -134.5z" />
    <glyph glyph-name="uni2077" unicode="&#x2077;" horiz-adv-x="528" 
d="M106 864q-7 0 -16 6q-12 8 -16.5 22.5t2.5 29.5l330 600h-347q-15 0 -27 11.5t-12 25.5q0 15 12 26.5t27 11.5h412q20 0 33 -20q6 -19 0 -37l-361 -655q-15 -21 -37 -21z" />
    <glyph glyph-name="uni2078" unicode="&#x2078;" horiz-adv-x="589" 
d="M295 866q-105 0 -179.5 69t-74.5 167q0 66 38 120.5t101 84.5q-65 48 -65 123q0 69 52 118t126 49t127 -49t53 -118q0 -76 -63 -123q63 -28 101 -83.5t38 -121.5q0 -98 -74.5 -167t-179.5 -69zM117 1102q0 -66 52.5 -113t125.5 -47q74 0 128 47t54 113t-54 113t-128 47
q-73 0 -125.5 -47t-52.5 -113zM188 1430q0 -39 31.5 -67t73.5 -28q45 0 75.5 27.5t30.5 67.5q0 39 -30.5 66.5t-75.5 27.5q-42 0 -73.5 -28t-31.5 -66z" />
    <glyph glyph-name="uni2079" unicode="&#x2079;" horiz-adv-x="616" 
d="M309 1597q110 0 188 -78t78 -188q0 -17 -1 -29.5t-5.5 -29t-8 -28t-16 -34.5t-21.5 -39t-31.5 -52.5t-40 -63.5t-52.5 -82.5t-63 -100.5q-14 -18 -34.5 -18.5t-33.5 17t0 38.5l109 170q-82 -25 -160.5 4t-127 97t-48.5 151q0 110 79 188t189 78zM117 1331
q0 -79 56.5 -135.5t135.5 -56.5q78 0 134.5 56.5t56.5 135.5q0 78 -56.5 134.5t-134.5 56.5q-79 0 -135.5 -56.5t-56.5 -134.5z" />
    <glyph glyph-name="uni2080" unicode="&#x2080;" horiz-adv-x="872" 
d="M436 -123q-155 0 -265 110t-110 265q0 154 110 264.5t265 110.5t265 -110.5t110 -264.5q0 -155 -110 -265t-265 -110zM139 252q0 -123 87 -211t210 -88q122 0 210.5 88t88.5 211q0 121 -88.5 209t-210.5 88q-123 0 -210 -87.5t-87 -209.5z" />
    <glyph glyph-name="uni2081" unicode="&#x2081;" horiz-adv-x="241" 
d="M154 -123q-15 0 -27 12t-12 27v625l-35 -15q-33 -10 -49 23q-5 15 1 30t19 21l88 37q23 7 37 -4q17 -14 17 -33v-684q0 -16 -11 -27.5t-28 -11.5z" />
    <glyph glyph-name="uni2082" unicode="&#x2082;" horiz-adv-x="561" 
d="M72 -123q-28 0 -35 23q-11 22 4 41l354 385q54 71 15 145q-20 37 -56 57.5t-82 16.5q-99 -6 -155 -94q-6 -12 -21 -17t-30 2q-13 7 -18 23.5t1 29.5q66 113 217 129q69 3 124.5 -26.5t84.5 -87.5q30 -56 23 -117t-47 -111q-44 -52 -293 -323h325q17 0 27 -11.5t10 -29.5
q0 -15 -10 -25t-27 -10h-411z" />
    <glyph glyph-name="uni2083" unicode="&#x2083;" horiz-adv-x="528" 
d="M240 -125q-63 0 -121 29t-92 76q-7 12 -5 28t13 25q14 7 28.5 4.5t24.5 -12.5q52 -76 152 -76q72 0 123 42.5t51 98.5q0 64 -49.5 105t-131.5 41q-43 0 -43 36q0 37 41 37q64 0 104 32.5t40 78.5t-42.5 76.5t-103.5 29.5q-65 0 -112 -37q-27 -20 -54 7q-8 10 -5.5 25
t14.5 24q67 57 155 57q92 1 157 -53t65 -129q0 -89 -89 -141q59 -30 93 -79t34 -110q0 -88 -72.5 -151.5t-174.5 -63.5z" />
    <glyph glyph-name="uni2084" unicode="&#x2084;" horiz-adv-x="600" 
d="M403 -123q-15 0 -25.5 11.5t-10.5 25.5v119h-306q-18 0 -30 12q-11 14 -4 31l127 510q5 14 19.5 21t29.5 3q13 -5 20.5 -18.5t3.5 -26.5l-114 -459h254v218q0 14 10.5 25t25.5 11t28 -11.5t13 -24.5v-218h76q15 0 27 -11.5t12 -26.5t-12 -25t-27 -10h-76v-119
q0 -14 -13 -25.5t-28 -11.5z" />
    <glyph glyph-name="uni2085" unicode="&#x2085;" horiz-adv-x="579" 
d="M270 -125q-77 0 -142.5 37.5t-100.5 103.5q-8 12 -4.5 27.5t16.5 24.5q13 6 29.5 1t23.5 -18q28 -45 75.5 -71.5t102.5 -26.5q82 0 137.5 52t55.5 128q0 80 -55 123t-146 43h-143q-21 0 -31 14q-11 19 -6 35l63 254q3 13 13 22t22 9h236q17 0 27 -11t10 -30
q0 -14 -10.5 -25.5t-26.5 -11.5h-203l-45 -178h94q124 0 200.5 -67.5t76.5 -176.5q0 -108 -78 -183t-191 -75z" />
    <glyph glyph-name="uni2086" unicode="&#x2086;" horiz-adv-x="616" 
d="M307 -123q-110 0 -188 78t-78 188q0 19 2.5 34.5t5 29.5t13.5 36t19.5 38.5t31.5 53.5t41 65t57 89.5t70 110.5q12 20 34.5 20t32.5 -16t0 -39l-108 -170q82 25 160.5 -4t126.5 -97t48 -151q0 -110 -79 -188t-189 -78zM117 143q0 -78 56 -134t134 -56q80 0 137.5 56
t57.5 134q0 79 -57.5 135t-137.5 56q-78 0 -134 -56t-56 -135z" />
    <glyph glyph-name="uni2087" unicode="&#x2087;" horiz-adv-x="528" 
d="M106 -125q-7 0 -16 6q-14 8 -17.5 22t3.5 29l330 600h-347q-15 0 -27 11t-12 24q0 17 12 29t27 12h412q17 0 33 -20q7 -20 0 -37l-363 -655q-12 -21 -35 -21z" />
    <glyph glyph-name="uni2088" unicode="&#x2088;" horiz-adv-x="589" 
d="M295 -123q-105 0 -179.5 69t-74.5 167q0 66 38 120t101 82q-65 48 -65 125q0 69 52.5 118.5t125.5 49.5q74 0 127 -49.5t53 -118.5q0 -76 -63 -123q63 -28 101 -83t38 -121q0 -98 -74.5 -167t-179.5 -69zM117 113q0 -67 52 -113.5t126 -46.5t128 46.5t54 113.5
q0 66 -54 112.5t-128 46.5t-126 -46.5t-52 -112.5zM188 440q0 -39 31.5 -67.5t73.5 -28.5q45 0 75.5 28t30.5 68q0 39 -30.5 67t-75.5 28q-41 0 -73 -28.5t-32 -66.5z" />
    <glyph glyph-name="uni2089" unicode="&#x2089;" horiz-adv-x="616" 
d="M309 621q110 0 188 -79t78 -190q0 -19 -2 -34.5t-5 -29t-13.5 -35t-19.5 -38.5t-31.5 -53.5t-40.5 -65t-56.5 -89t-70.5 -111.5q-14 -19 -34.5 -20.5t-33.5 16t0 38.5l109 170q-82 -25 -160.5 4t-127 97t-48.5 151q0 110 79 189.5t189 79.5zM117 352q0 -78 56.5 -134
t135.5 -56q78 0 134.5 56t56.5 134t-56.5 134.5t-134.5 56.5q-79 0 -135.5 -56.5t-56.5 -134.5z" />
    <glyph glyph-name="franc" unicode="&#x20a3;" horiz-adv-x="1236" 
d="M315 0q-22 0 -37.5 15.5t-15.5 39.5v291h-153q-20 0 -34 13.5t-14 33.5t13.5 32.5t34.5 12.5h153v938q0 23 15.5 39.5t37.5 16.5h807q23 0 38.5 -16.5t15.5 -39.5q0 -22 -15.5 -38.5t-38.5 -16.5h-751v-551h692q22 0 37.5 -16t15.5 -39q0 -22 -15.5 -37.5t-37.5 -15.5
h-692v-224h180q20 0 32.5 -12.5t12.5 -32.5t-12.5 -33.5t-32.5 -13.5h-180v-291q0 -24 -16 -39.5t-40 -15.5z" />
    <glyph glyph-name="Euro" unicode="&#x20ac;" horiz-adv-x="1267" 
d="M981 0q-242 0 -431.5 144t-256.5 370h-187q-19 0 -32 13.5t-13 33.5q0 19 13 33t32 14h166q-8 47 -8 109q0 45 6 92h-164q-19 0 -32 12.5t-13 32.5q0 19 13 32t32 13h181q62 233 255 384t439 151q71 0 160 -21q23 -5 35 -22t6 -39q-4 -24 -23 -36t-43 -7q-60 14 -135 14
q-202 0 -362 -119t-218 -305h426q19 0 32 -13t13 -32q0 -20 -13 -32.5t-32 -12.5h-448q-6 -47 -6 -92q0 -51 10 -109h444q19 0 32 -14t13 -33q0 -20 -13 -33.5t-32 -13.5h-419q64 -179 220.5 -291t352.5 -112q73 0 139 14q21 5 40.5 -7t25.5 -36q3 -21 -9.5 -39.5
t-33.5 -22.5q-88 -20 -162 -20z" />
    <glyph glyph-name="uni2116" unicode="&#x2116;" horiz-adv-x="2469" 
d="M176 0q-22 0 -37.5 16.5t-15.5 40.5v1325q0 18 10 33t27 19q38 13 61 -17l934 -1200v1165q0 23 15.5 39.5t37.5 16.5q25 0 41.5 -16.5t16.5 -39.5v-1325q0 -43 -37 -53q-6 -4 -21 -4q-28 0 -41 23l-934 1198v-1164q0 -25 -16 -41t-41 -16zM1399 952q0 131 65 242.5
t176.5 176.5t243.5 65q131 0 242 -65t176 -176.5t65 -242.5q0 -133 -65 -245t-176 -177t-242 -65q-201 0 -343 142.5t-142 344.5zM1507 952q0 -157 110 -267t267 -110q155 0 265 110t110 267q0 155 -110 265t-265 110q-157 0 -267 -110t-110 -265z" />
    <glyph glyph-name="trademark" unicode="&#x2122;" horiz-adv-x="2895" 
d="M1085 1434q22 0 38 -16.5t16 -39.5t-16 -39t-38 -16h-421v-1268q0 -23 -16.5 -39t-39.5 -16q-22 0 -38.5 16t-16.5 39v1268h-418q-23 0 -39 16t-16 39t16 39.5t39 16.5h950zM1317 55v1325q0 42 39 56q37 10 61 -21l621 -846l618 846q27 31 64 21q37 -13 37 -56v-1325
q0 -23 -16.5 -39t-39.5 -16q-22 0 -38.5 16t-16.5 39v1157l-563 -768q-19 -24 -47 -24t-43 24l-566 768v-1157q0 -23 -16 -39t-39 -16t-39 16t-16 39z" />
    <glyph glyph-name="oneeighth" unicode="&#x215b;" horiz-adv-x="1316" 
d="M150 674q-15 0 -27 12t-12 27v624l-35 -14q-15 -6 -29 1t-20 22t-0.5 29.5t20.5 21.5l88 37q21 7 35 -4q18 -12 18 -33v-684q0 -15 -11.5 -27t-26.5 -12zM2 41l881 1393q10 15 27 18t32 -8q17 -7 21 -26t-7 -34l-878 -1392q-15 -28 -60 -10q-15 8 -20 25t4 34zM770 236
q0 66 38 120t101 82q-65 48 -65 125q0 69 52.5 118.5t125.5 49.5q74 0 127 -49.5t53 -118.5q0 -76 -63 -123q63 -28 101 -83t38 -121q0 -98 -74.5 -167t-179.5 -69t-179.5 69t-74.5 167zM846 236q0 -67 52 -113.5t126 -46.5t128 46.5t54 113.5q0 66 -54 112.5t-128 46.5
t-126 -46.5t-52 -112.5zM918 563q0 -39 31 -67.5t73 -28.5q45 0 75.5 28t30.5 68q0 39 -30.5 66.5t-75.5 27.5q-41 0 -72.5 -28t-31.5 -66z" />
    <glyph glyph-name="threeeighths" unicode="&#x215c;" horiz-adv-x="1624" 
d="M248 705q-64 0 -122.5 28.5t-92.5 75.5q-7 12 -5 28t13 25q14 7 29 5t24 -11q26 -37 67.5 -57.5t86.5 -20.5q72 0 123 43t51 101q0 63 -49 103t-131 40q-43 0 -43 37q0 39 41 39q64 0 103.5 31.5t39.5 78.5q0 46 -42 77t-103 30q-66 0 -113 -37q-12 -9 -27 -8t-26 12
q-9 12 -7.5 27t13.5 24q76 58 158 58q91 1 156 -53t65 -130q0 -45 -23.5 -82t-64.5 -61q59 -28 93 -77t34 -109q0 -89 -72.5 -153t-175.5 -64zM309 41l881 1393q10 15 27 18t32 -8q17 -7 21.5 -26t-6.5 -34l-879 -1392q-15 -27 -59 -10q-15 8 -20.5 25t3.5 34zM1077 236
q0 66 38.5 120t101.5 82q-66 49 -66 125q0 69 52.5 118.5t125.5 49.5q74 0 127 -49.5t53 -118.5q0 -76 -63 -123q63 -28 101 -83t38 -121q0 -98 -74.5 -167t-179.5 -69t-179.5 69t-74.5 167zM1153 236q0 -67 52 -113.5t126 -46.5t128 46.5t54 113.5q0 66 -54 112.5
t-128 46.5t-126 -46.5t-52 -112.5zM1225 563q0 -39 31 -67.5t73 -28.5q45 0 76 28t31 68q0 39 -31 66.5t-76 27.5q-41 0 -72.5 -28t-31.5 -66z" />
    <glyph glyph-name="fiveeighths" unicode="&#x215d;" horiz-adv-x="1669" 
d="M274 678q-77 0 -142.5 37.5t-100.5 101.5q-8 14 -4.5 28.5t16.5 22.5q15 8 30.5 3.5t22.5 -17.5q28 -45 76 -72.5t102 -27.5q82 0 137.5 52.5t55.5 129.5q0 78 -55.5 122t-145.5 44h-143q-17 0 -31 14q-12 19 -6 33l64 254q3 14 12.5 22.5t21.5 8.5h236q17 0 27 -11
t10 -28q0 -16 -10 -27.5t-27 -11.5h-203l-45 -178h94q124 0 200.5 -67t76.5 -175q0 -109 -77.5 -183.5t-191.5 -74.5zM354 41l881 1393q10 15 27 18t32 -8q17 -7 21.5 -26t-6.5 -34l-879 -1392q-15 -27 -59 -10q-15 8 -20.5 25t3.5 34zM1120 236q0 66 38.5 120t101.5 82
q-66 49 -66 125q0 69 52.5 118.5t125.5 49.5q74 0 127 -49.5t53 -118.5q0 -76 -63 -123q63 -28 101 -83t38 -121q0 -98 -74.5 -167t-179.5 -69t-179.5 69t-74.5 167zM1196 236q0 -67 52 -113.5t126 -46.5t128 46.5t54 113.5q0 66 -54 112.5t-128 46.5t-126 -46.5t-52 -112.5
zM1268 563q0 -39 31 -67.5t73 -28.5q45 0 76 28t31 68q0 39 -31 66.5t-76 27.5q-41 0 -72.5 -28t-31.5 -66z" />
    <glyph glyph-name="seveneighths" unicode="&#x215e;" horiz-adv-x="1617" 
d="M106 700q-6 0 -16 7q-14 8 -18 21.5t4 27.5l330 602h-347q-15 0 -27 11.5t-12 25.5q0 15 12 27t27 12h412q19 0 33 -21q6 -19 0 -37l-361 -655q-15 -21 -37 -21zM303 41l881 1393q10 15 27 18t32 -8q17 -7 21 -26t-7 -34l-878 -1392q-15 -28 -60 -10q-15 8 -20 25t4 34z
M1071 236q0 66 38 120t101 82q-65 48 -65 125q0 69 52.5 118.5t125.5 49.5q74 0 127 -49.5t53 -118.5q0 -76 -63 -123q63 -28 101 -83t38 -121q0 -98 -74.5 -167t-179.5 -69t-179.5 69t-74.5 167zM1147 236q0 -67 52 -113.5t126 -46.5t128 46.5t54 113.5q0 66 -54 112.5
t-128 46.5t-126 -46.5t-52 -112.5zM1219 563q0 -39 31 -67.5t73 -28.5q45 0 76 28t31 68q0 39 -31 66.5t-76 27.5q-41 0 -72.5 -28t-31.5 -66z" />
    <glyph glyph-name="arrowleft" unicode="&#x2190;" horiz-adv-x="1554" 
d="M78 678q-15 15 -15 38t15 38l262 264q17 17 39 17t39 -17q15 -17 15 -39t-15 -39l-172 -170h1194q23 0 38.5 -16t14.5 -39q1 -22 -14.5 -37.5t-38.5 -15.5h-1192l170 -173q15 -15 15 -37.5t-15 -39.5q-17 -14 -39 -14t-39 14z" />
    <glyph glyph-name="arrowup" unicode="&#x2191;" horiz-adv-x="759" 
d="M76 1077q-15 15 -15 38t15 38l266 262q15 17 38 17t38 -17l264 -262q15 -15 15 -38t-15 -38q-17 -15 -39 -15t-39 15l-170 172v-1194q0 -24 -15.5 -39.5t-39.5 -15.5q-22 0 -37.5 15.5t-15.5 39.5v1192l-172 -170q-15 -17 -38 -17t-40 17z" />
    <glyph glyph-name="arrowright" unicode="&#x2192;" horiz-adv-x="1554" 
d="M1139 1020q15 15 37.5 15t37.5 -15l263 -264q17 -17 17 -39t-17 -39l-263 -264q-15 -15 -37.5 -15t-37.5 15q-15 17 -15 39t15 39l174 172h-1196q-25 0 -40.5 15t-15.5 38q0 22 16 38.5t40 16.5h1190l-168 170q-17 15 -17 38t17 40z" />
    <glyph glyph-name="arrowdown" unicode="&#x2193;" horiz-adv-x="759" 
d="M76 279q-15 17 -15 38.5t15 38.5q17 15 40 15t38 -15l170 -170v1192q0 23 16.5 39.5t38.5 14.5q23 1 38 -14.5t15 -39.5v-1194l172 172q17 15 39 15t39 -15q15 -17 15 -38.5t-15 -38.5l-264 -263q-15 -15 -38 -15t-38 15z" />
    <glyph glyph-name="arrowboth" unicode="&#x2194;" horiz-adv-x="1642" 
d="M78 647q-16 16 -16.5 37t16.5 39l262 264q17 15 39 15t39 -15q15 -17 15 -39t-15 -39l-172 -172l1149 2l-170 172q-15 15 -15 38t15 38q17 15 39 15t39 -15l262 -264q15 -17 15 -39t-15 -37l-262 -264q-17 -17 -39 -17t-39 17q-15 15 -15 38t15 38l172 172l-1149 -2
l170 -170q15 -15 15 -38t-15 -40q-17 -15 -39 -15t-39 15z" />
    <glyph glyph-name="arrowupdn" unicode="&#x2195;" horiz-adv-x="759" 
d="M342 1425q16 16 38 16.5t38 -16.5l264 -262q17 -15 17 -38t-17 -38q-17 -17 -39 -17t-39 17l-170 170v-1138l172 168q15 17 38 17t40 -17q15 -15 15 -38t-15 -38l-266 -262q-15 -17 -38 -17t-38 17l-264 262q-17 18 -16.5 39t16.5 37q17 17 39 17t39 -17l170 -172v1140
l-172 -168q-15 -17 -38 -17t-40 17q-14 15 -14.5 36.5t14.5 39.5z" />
    <glyph glyph-name="uni2196" unicode="&#x2196;" horiz-adv-x="1169" 
d="M545 1178q0 -23 -15.5 -39.5t-37.5 -16.5l-242 -2l842 -841q17 -18 16.5 -40t-16.5 -38q-15 -15 -37 -15t-39 15l-846 846v-244q0 -23 -15.5 -38t-37.5 -15q-24 0 -40 15t-16 38l2 371q0 23 15.5 39t38.5 16l375 4q22 -2 37.5 -17.5t15.5 -37.5z" />
    <glyph glyph-name="uni2197" unicode="&#x2197;" horiz-adv-x="1169" 
d="M623 1178q1 22 17 38t38 17l373 -4q23 0 39 -16t16 -39l2 -371q0 -23 -16 -38t-39 -15t-38.5 15t-15.5 38v246l-845 -848q-17 -15 -39 -15t-39 15q-15 15 -15 38t15 40l844 841l-242 2q-22 0 -38.5 16.5t-16.5 39.5z" />
    <glyph glyph-name="uni2198" unicode="&#x2198;" horiz-adv-x="1169" 
d="M623 240q0 22 16.5 38t38.5 15l242 4l-844 842q-15 17 -15 39t15 36q17 17 39 17t39 -17l845 -845v245q0 22 15.5 38t38.5 16t39 -15.5t16 -38.5l-2 -372q0 -23 -16 -38.5t-39 -15.5l-373 -4q-22 1 -37.5 17.5t-17.5 38.5z" />
    <glyph glyph-name="uni2199" unicode="&#x2199;" horiz-adv-x="1169" 
d="M545 240q0 -22 -15.5 -38t-37.5 -18l-375 4q-23 0 -38.5 15.5t-15.5 38.5l-2 372q0 23 16.5 38.5t39.5 15.5q22 0 37.5 -16t15.5 -38v-243l846 843q17 17 39 17t37 -17q16 -14 16.5 -35.5t-16.5 -39.5l-842 -842l242 -4q21 1 37 -15t16 -38z" />
    <glyph glyph-name="minus" unicode="&#x2212;" horiz-adv-x="907" 
d="M147 655q-17 0 -31 15t-14 35q0 18 13.5 31.5t31.5 13.5h613q19 0 32 -13t13 -32q0 -20 -13 -35t-32 -15h-613z" />
    <glyph glyph-name="approxequal" unicode="&#x2248;" horiz-adv-x="1171" 
d="M393 659q-97 0 -175 55t-116 150q-9 20 -0.5 39t27.5 27q19 6 38.5 -2.5t25.5 -26.5q29 -65 81 -104t119 -39q30 0 60 12t49 25t53 39q38 30 64 47t73.5 34t98.5 17q94 0 169.5 -52.5t110.5 -144.5q6 -19 -2.5 -38.5t-28.5 -26.5q-20 -6 -38.5 1.5t-24.5 26.5
q-22 61 -71.5 98.5t-114.5 37.5q-35 0 -68.5 -13t-52.5 -25t-56 -40q-35 -29 -62 -47t-70.5 -34t-88.5 -16zM102 461q-9 20 -0.5 39.5t27.5 25.5q19 8 38.5 0t25.5 -26q29 -65 81 -104.5t119 -39.5q43 0 79 18.5t83 57.5q38 30 64 47t73.5 34t98.5 17q94 0 169.5 -52.5
t110.5 -143.5q6 -19 -2.5 -39t-28.5 -29q-20 -5 -38.5 3.5t-24.5 27.5q-22 61 -71.5 98t-114.5 37q-35 0 -68 -12.5t-53.5 -26t-55.5 -41.5q-54 -45 -105 -70.5t-116 -25.5q-96 0 -174.5 55.5t-116.5 149.5z" />
    <glyph glyph-name="lessequal" unicode="&#x2264;" horiz-adv-x="786" 
d="M651 338q-15 0 -30 12l-500 318q-25 18 -25 47q0 22 23 41l502 331q19 12 40 8.5t33 -20.5q14 -18 11 -41t-23 -35l-438 -284l438 -277q19 -10 22.5 -34t-10.5 -44q-15 -22 -43 -22zM68 158q0 19 12 32t31 13h565q18 0 31.5 -13.5t13.5 -31.5q0 -20 -13.5 -33.5
t-31.5 -13.5h-565q-19 0 -31 13.5t-12 33.5z" />
    <glyph glyph-name="greaterequal" unicode="&#x2265;" horiz-adv-x="786" 
d="M135 338q-25 0 -43 22q-14 20 -10.5 44t22.5 34l439 277l-439 284q-20 12 -23 35t11 41q14 17 35 20.5t41 -8.5l500 -331q22 -16 22 -41q0 -32 -24 -47l-498 -318q-18 -12 -33 -12zM68 158q0 19 13 32t30 13h565q20 0 32.5 -13t12.5 -32q0 -20 -12.5 -33.5t-32.5 -13.5
h-565q-18 0 -30.5 13.5t-12.5 33.5z" />
    <glyph glyph-name="lozenge" unicode="&#x25ca;" horiz-adv-x="972" 
d="M106 725q0 13 11 31l319 467q15 24 47 24q25 0 41 -22l332 -469q8 -13 8 -31t-8 -31l-332 -469q-18 -22 -41 -22q-30 0 -47 24l-319 465q-11 18 -11 31v2zM227 725l256 -373l262 375l-262 373z" />
    <glyph glyph-name="A.ss01" horiz-adv-x="1386" 
d="M147 33q-15 -31 -46 -32.5t-50 22.5t-4 55l594 1327q14 33 49.5 33t50.5 -33l598 -1327q15 -31 -4.5 -55.5t-50.5 -23t-45 33.5l-549 1214z" />
    <glyph glyph-name="B.ss01" horiz-adv-x="1263" 
d="M188 0q-23 0 -38 16t-15 39v1325q0 22 15 39t38 17h474q163 0 274 -99.5t111 -246.5q0 -124 -89 -226q-51 -63 -51 -106q15 -36 80 -72q207 -106 207 -301q0 -160 -113.5 -272.5t-273.5 -112.5h-619zM244 111h563q115 0 195.5 80t80.5 194q0 152 -178 227
q-103 43 -117 119q-17 85 72 178q76 79 76 181q0 101 -79 168t-195 67h-418v-1214z" />
    <glyph glyph-name="D.ss01" horiz-adv-x="1456" 
d="M594 965q0 12 -10 21t-23 9q-12 0 -21.5 -9t-9.5 -21t9.5 -21.5t21.5 -9.5q13 0 23 9.5t10 21.5zM143 168v14q15 -8 15 -26q0 -9 -8 -21q-3 6 -3 10l-2 9q-2 9 -2 14zM143 254v53q15 -11 15 -26q0 -16 -15 -27zM143 379v53q15 -11 15 -26q0 -16 -15 -27zM143 504v51
q15 -7 15 -25t-15 -26zM143 627v53q15 -11 15 -27q0 -15 -15 -26zM143 752v53q15 -11 15 -27q0 -15 -15 -26zM143 877v53q15 -11 15 -27q0 -15 -15 -26zM143 1001v52q15 -7 15 -27q0 -18 -15 -25zM143 1124v54q15 -11 15 -27t-15 -27zM143 1249v19q0 12 4 32q11 -11 11 -24
q0 -16 -15 -27zM158 219q0 12 9 21.5t21 9.5q13 0 22 -9.5t9 -21.5q0 -13 -8.5 -22t-22.5 -9q-12 0 -21 9t-9 22zM158 344q0 12 9 21.5t21 9.5q13 0 22 -9.5t9 -21.5q0 -14 -9 -23.5t-22 -9.5q-12 0 -21 10t-9 23zM158 467q0 13 9 22t21 9q14 0 22.5 -9t8.5 -22
q0 -12 -9 -21.5t-22 -9.5q-12 0 -21 9.5t-9 21.5zM158 592q0 12 9 21.5t21 9.5q13 0 22 -9.5t9 -21.5t-9 -21.5t-22 -9.5q-12 0 -21 9.5t-9 21.5zM158 717q0 12 9 21.5t21 9.5q13 0 22 -9.5t9 -21.5q0 -14 -9 -23.5t-22 -9.5q-12 0 -21 10t-9 23zM158 840q0 13 9 22.5
t21 9.5q13 0 22 -9t9 -23q0 -12 -9 -21.5t-22 -9.5q-12 0 -21 9.5t-9 21.5zM158 965q0 12 9 21t21 9q13 0 22 -9t9 -21t-9 -21.5t-22 -9.5q-12 0 -21 9.5t-9 21.5zM158 1090q0 12 9 21t21 9q13 0 22 -9t9 -21q0 -14 -8.5 -22.5t-22.5 -8.5q-12 0 -21 9t-9 22zM158 1212
q0 13 9 23t21 10q13 0 22 -9.5t9 -23.5q0 -12 -9 -21t-22 -9q-12 0 -21 9t-9 21zM158 1335q7 17 18 31q4 2 12 2q14 0 22.5 -9t8.5 -22q0 -12 -9 -21t-22 -9q-26 0 -30 28zM160 102q2 9 10 16t18 7q14 0 22.5 -8.5t8.5 -22.5q0 -12 -9 -21.5t-22 -9.5h-6q-15 22 -22 39z
M219 33q0 12 10 21t23 9q12 0 21.5 -9t9.5 -21q0 -14 -13 -27q-26 9 -49 25zM219 156q0 13 9.5 22.5t23.5 9.5q12 0 21.5 -9.5t9.5 -22.5q0 -12 -9.5 -21.5t-21.5 -9.5q-13 0 -23 9.5t-10 21.5zM219 281q0 13 9.5 21.5t23.5 8.5q12 0 21.5 -8.5t9.5 -21.5q0 -12 -9.5 -21.5
t-21.5 -9.5q-13 0 -23 9.5t-10 21.5zM219 406q0 12 10 21t23 9q12 0 21.5 -9t9.5 -21t-9.5 -21.5t-21.5 -9.5q-13 0 -23 9.5t-10 21.5zM219 530q0 12 10 21.5t23 9.5q12 0 21.5 -9.5t9.5 -21.5q0 -13 -9.5 -22.5t-21.5 -9.5q-14 0 -23.5 9.5t-9.5 22.5zM219 653q0 13 9.5 22
t23.5 9q12 0 21.5 -9t9.5 -22q0 -12 -9.5 -21t-21.5 -9q-13 0 -23 9t-10 21zM219 778q0 12 10 21.5t23 9.5q12 0 21.5 -9.5t9.5 -21.5t-9.5 -21t-21.5 -9q-13 0 -23 9t-10 21zM219 903q0 12 10 21.5t23 9.5q12 0 21.5 -9.5t9.5 -21.5q0 -13 -9.5 -22t-21.5 -9q-14 0 -23.5 9
t-9.5 22zM219 1026q0 14 9.5 23.5t23.5 9.5q12 0 21.5 -10t9.5 -23q0 -12 -9.5 -21.5t-21.5 -9.5q-13 0 -23 9.5t-10 21.5zM219 1151q0 12 10 21.5t23 9.5q12 0 21.5 -9.5t9.5 -21.5t-9.5 -21.5t-21.5 -9.5q-13 0 -23 9.5t-10 21.5zM219 1276q0 12 10 21.5t23 9.5
q12 0 21.5 -9.5t9.5 -21.5q0 -13 -9.5 -22t-21.5 -9q-14 0 -23.5 9t-9.5 22zM219 1401q0 1 1 3.5t1 4.5q21 12 45 18q17 -10 17 -26q0 -13 -9.5 -23t-21.5 -10q-14 0 -23.5 10t-9.5 23zM283 94q0 13 9 22t21 9t21.5 -9t9.5 -22q0 -12 -9.5 -21.5t-21.5 -9.5t-21 9.5t-9 21.5
zM283 219q0 12 9 21.5t21 9.5t21.5 -9.5t9.5 -21.5q0 -13 -9.5 -22t-21.5 -9t-21 9t-9 22zM283 344q0 12 9 21.5t21 9.5t21.5 -9.5t9.5 -21.5q0 -13 -9.5 -23t-21.5 -10t-21 10t-9 23zM283 467q0 13 9 22t21 9t21.5 -9t9.5 -22q0 -12 -9.5 -21.5t-21.5 -9.5t-21 9.5t-9 21.5
zM283 592q0 12 9 21.5t21 9.5t21.5 -9.5t9.5 -21.5t-9.5 -21.5t-21.5 -9.5t-21 9.5t-9 21.5zM283 717q0 12 9 21.5t21 9.5t21.5 -9.5t9.5 -21.5q0 -13 -9.5 -23t-21.5 -10t-21 10t-9 23zM283 840q0 13 9 22.5t21 9.5t21.5 -9.5t9.5 -22.5q0 -12 -9.5 -21.5t-21.5 -9.5
t-21 9.5t-9 21.5zM283 965q0 12 9 21t21 9t21.5 -9t9.5 -21t-9.5 -21.5t-21.5 -9.5t-21 9.5t-9 21.5zM283 1090q0 12 9 21t21 9t21.5 -9t9.5 -21q0 -13 -9.5 -22t-21.5 -9t-21 9t-9 22zM283 1212q0 13 9 23t21 10t21.5 -10t9.5 -23q0 -12 -9.5 -21t-21.5 -9t-21 9t-9 21z
M283 1337q0 13 9 22t21 9t21.5 -9t9.5 -22q0 -12 -9.5 -21t-21.5 -9t-21 9t-9 21zM301 1434h10h15q-4 -2 -13 -2q-8 0 -12 2zM305 0q2 0 4.5 1t3.5 1l9 -2h-13h-4zM344 33q0 12 9.5 21t21.5 9q13 0 23 -9t10 -21q0 -13 -9.5 -22t-23.5 -9q-12 0 -21.5 9t-9.5 22zM344 156
q0 13 9.5 22.5t21.5 9.5q14 0 23.5 -9.5t9.5 -22.5q0 -12 -10 -21.5t-23 -9.5q-12 0 -21.5 9.5t-9.5 21.5zM344 281q0 13 9.5 21.5t21.5 8.5q14 0 23.5 -8.5t9.5 -21.5q0 -12 -10 -21.5t-23 -9.5q-12 0 -21.5 9.5t-9.5 21.5zM344 406q0 12 9.5 21t21.5 9q13 0 23 -9t10 -21
t-10 -21.5t-23 -9.5q-12 0 -21.5 9.5t-9.5 21.5zM344 530q0 12 9.5 21.5t21.5 9.5q13 0 23 -9.5t10 -21.5q0 -13 -9.5 -22.5t-23.5 -9.5q-12 0 -21.5 9.5t-9.5 22.5zM344 653q0 13 9.5 22t21.5 9q14 0 23.5 -9t9.5 -22q0 -12 -10 -21t-23 -9q-12 0 -21.5 9t-9.5 21zM344 778
q0 12 9.5 21.5t21.5 9.5q13 0 23 -9.5t10 -21.5t-10 -21t-23 -9q-12 0 -21.5 9t-9.5 21zM344 903q0 12 9.5 21.5t21.5 9.5q13 0 23 -9.5t10 -21.5q0 -13 -9.5 -22t-23.5 -9q-12 0 -21.5 9t-9.5 22zM344 1026q0 13 9.5 23t21.5 10q13 0 23 -9.5t10 -23.5q0 -12 -10 -21.5
t-23 -9.5q-12 0 -21.5 9.5t-9.5 21.5zM344 1151q0 12 9.5 21.5t21.5 9.5q13 0 23 -9.5t10 -21.5t-10 -21.5t-23 -9.5q-12 0 -21.5 9.5t-9.5 21.5zM344 1276q0 12 9.5 21.5t21.5 9.5q13 0 23 -9.5t10 -21.5q0 -13 -9.5 -22t-23.5 -9q-12 0 -21.5 9t-9.5 22zM344 1401
q0 12 9.5 21.5t21.5 9.5q13 0 23 -9.5t10 -21.5q0 -13 -10 -23t-23 -10q-12 0 -21.5 10t-9.5 23zM408 94q0 14 8.5 22.5t21.5 8.5q12 0 21.5 -9t9.5 -22q0 -12 -9.5 -21.5t-21.5 -9.5q-13 0 -21.5 9.5t-8.5 21.5zM408 219q0 12 8.5 21.5t21.5 9.5q12 0 21.5 -9.5t9.5 -21.5
q0 -13 -9.5 -22t-21.5 -9q-13 0 -21.5 8.5t-8.5 22.5zM408 344q0 12 8.5 21.5t21.5 9.5q12 0 21.5 -9.5t9.5 -21.5q0 -13 -9.5 -23t-21.5 -10q-13 0 -21.5 9.5t-8.5 23.5zM408 467q0 14 8.5 22.5t21.5 8.5q12 0 21.5 -9t9.5 -22q0 -12 -9.5 -21.5t-21.5 -9.5
q-13 0 -21.5 9.5t-8.5 21.5zM408 592q0 12 8.5 21.5t21.5 9.5q12 0 21.5 -9.5t9.5 -21.5t-9.5 -21.5t-21.5 -9.5q-13 0 -21.5 9.5t-8.5 21.5zM408 717q0 12 8.5 21.5t21.5 9.5q12 0 21.5 -9.5t9.5 -21.5q0 -13 -9.5 -23t-21.5 -10q-13 0 -21.5 9.5t-8.5 23.5zM408 840
q0 14 8.5 23t21.5 9q12 0 21.5 -9.5t9.5 -22.5q0 -12 -9.5 -21.5t-21.5 -9.5q-13 0 -21.5 9.5t-8.5 21.5zM408 965q0 12 8.5 21t21.5 9q12 0 21.5 -9t9.5 -21t-9.5 -21.5t-21.5 -9.5q-13 0 -21.5 9.5t-8.5 21.5zM408 1090q0 12 8.5 21t21.5 9q12 0 21.5 -9t9.5 -21
q0 -13 -9.5 -22t-21.5 -9q-13 0 -21.5 8.5t-8.5 22.5zM408 1212q0 14 8.5 23.5t21.5 9.5q12 0 21.5 -10t9.5 -23q0 -12 -9.5 -21t-21.5 -9q-13 0 -21.5 9t-8.5 21zM408 1337q0 14 8.5 22.5t21.5 8.5q12 0 21.5 -9t9.5 -22q0 -12 -9.5 -21t-21.5 -9q-13 0 -21.5 9t-8.5 21z
M426 1434h25q-4 -2 -13 -2q-10 0 -12 2zM430 0q1 0 3.5 1t4.5 1l8 -2h-16zM469 33q0 12 9.5 21t21.5 9t21 -9t9 -21q0 -13 -9 -22t-21 -9t-21.5 9t-9.5 22zM469 156q0 13 9.5 22.5t21.5 9.5t21 -9.5t9 -22.5q0 -12 -9 -21.5t-21 -9.5t-21.5 9.5t-9.5 21.5zM469 281
q0 13 9.5 21.5t21.5 8.5t21 -8.5t9 -21.5q0 -12 -9 -21.5t-21 -9.5t-21.5 9.5t-9.5 21.5zM469 406q0 12 9.5 21t21.5 9t21 -9t9 -21t-9 -21.5t-21 -9.5t-21.5 9.5t-9.5 21.5zM469 530q0 12 9.5 21.5t21.5 9.5t21 -9.5t9 -21.5q0 -13 -9 -22.5t-21 -9.5t-21.5 9.5t-9.5 22.5z
M469 653q0 13 9.5 22t21.5 9t21 -9t9 -22q0 -12 -9 -21t-21 -9t-21.5 9t-9.5 21zM469 778q0 12 9.5 21.5t21.5 9.5t21 -9.5t9 -21.5t-9 -21t-21 -9t-21.5 9t-9.5 21zM469 903q0 12 9.5 21.5t21.5 9.5t21 -9.5t9 -21.5q0 -13 -9 -22t-21 -9t-21.5 9t-9.5 22zM469 1026
q0 13 9.5 23t21.5 10t21 -10t9 -23q0 -12 -9 -21.5t-21 -9.5t-21.5 9.5t-9.5 21.5zM469 1151q0 12 9.5 21.5t21.5 9.5t21 -9.5t9 -21.5t-9 -21.5t-21 -9.5t-21.5 9.5t-9.5 21.5zM469 1276q0 12 9.5 21.5t21.5 9.5t21 -9.5t9 -21.5q0 -13 -9 -22t-21 -9t-21.5 9t-9.5 22z
M469 1401q0 12 9.5 21.5t21.5 9.5t21 -9.5t9 -21.5q0 -13 -9 -23t-21 -10t-21.5 10t-9.5 23zM530 94q0 13 9.5 22t21.5 9q14 0 23.5 -9t9.5 -22q0 -12 -10 -21.5t-23 -9.5q-12 0 -21.5 9.5t-9.5 21.5zM530 219q0 12 9.5 21.5t21.5 9.5q13 0 23 -9.5t10 -21.5q0 -13 -9.5 -22
t-23.5 -9q-12 0 -21.5 9t-9.5 22zM530 344q0 12 9.5 21.5t21.5 9.5q13 0 23 -9.5t10 -21.5q0 -14 -10 -23.5t-23 -9.5q-12 0 -21.5 10t-9.5 23zM530 467q0 13 9.5 22t21.5 9q14 0 23.5 -9t9.5 -22q0 -12 -10 -21.5t-23 -9.5q-12 0 -21.5 9.5t-9.5 21.5zM530 592
q0 12 9.5 21.5t21.5 9.5q13 0 23 -9.5t10 -21.5t-10 -21.5t-23 -9.5q-12 0 -21.5 9.5t-9.5 21.5zM530 717q0 12 9.5 21.5t21.5 9.5q13 0 23 -9.5t10 -21.5q0 -13 -10 -23t-23 -10q-12 0 -21.5 10t-9.5 23zM530 840q0 13 9.5 22.5t21.5 9.5q14 0 23.5 -9.5t9.5 -22.5
q0 -12 -10 -21.5t-23 -9.5q-12 0 -21.5 9.5t-9.5 21.5zM530 1090q0 12 9.5 21t21.5 9q13 0 23 -9t10 -21q0 -13 -9.5 -22t-23.5 -9q-12 0 -21.5 9t-9.5 22zM530 1212q0 13 9.5 23t21.5 10q13 0 23 -9.5t10 -23.5q0 -12 -10 -21t-23 -9q-12 0 -21.5 9t-9.5 21zM530 1337
q0 13 9.5 22t21.5 9q14 0 23.5 -9t9.5 -22q0 -12 -10 -21t-23 -9q-12 0 -21.5 9t-9.5 21zM549 1434h26q-4 -2 -14 -2q-8 0 -12 2zM553 0q2 0 4.5 1t3.5 1q2 0 5 -1t5 -1h-18zM594 33q0 12 9 21t22 9q12 0 21 -9t9 -21q0 -13 -9 -22t-21 -9q-13 0 -22 9t-9 22zM594 156
q0 14 9 23t22 9q12 0 21 -9.5t9 -22.5q0 -12 -9 -21.5t-21 -9.5q-13 0 -22 9.5t-9 21.5zM594 281q0 13 8.5 21.5t22.5 8.5q12 0 21 -8.5t9 -21.5q0 -12 -9 -21.5t-21 -9.5q-13 0 -22 9.5t-9 21.5zM594 406q0 12 9 21t22 9q12 0 21 -9t9 -21t-9 -21.5t-21 -9.5q-13 0 -22 9.5
t-9 21.5zM594 530q0 12 9 21.5t22 9.5q12 0 21 -9.5t9 -21.5q0 -13 -9 -22.5t-21 -9.5q-13 0 -22 9t-9 23zM594 653q0 13 9 22t22 9q12 0 21 -9t9 -22q0 -12 -9 -21t-21 -9q-13 0 -22 9t-9 21zM594 778q0 12 9 21.5t22 9.5q12 0 21 -9.5t9 -21.5t-9 -21t-21 -9q-13 0 -22 9
t-9 21zM594 903q0 12 9 21.5t22 9.5q12 0 21 -9.5t9 -21.5q0 -13 -9 -22t-21 -9q-13 0 -22 9t-9 22zM594 1026q0 14 9 23.5t22 9.5q12 0 21 -10t9 -23q0 -12 -9 -21.5t-21 -9.5q-13 0 -22 9.5t-9 21.5zM594 1151q0 12 9 21.5t22 9.5q12 0 21 -9.5t9 -21.5t-9 -21.5t-21 -9.5
q-13 0 -22 9.5t-9 21.5zM594 1276q0 12 9 21.5t22 9.5q12 0 21 -9.5t9 -21.5q0 -13 -9 -22t-21 -9q-13 0 -22 8.5t-9 22.5zM594 1401q0 12 9 21.5t22 9.5q12 0 21 -9.5t9 -21.5q0 -13 -9 -23t-21 -10q-13 0 -22 9.5t-9 23.5zM655 94q0 13 9.5 22t21.5 9t21.5 -9t9.5 -22
q0 -12 -9.5 -21.5t-21.5 -9.5t-21.5 9.5t-9.5 21.5zM655 219q0 12 9.5 21.5t21.5 9.5t21.5 -9.5t9.5 -21.5q0 -13 -9.5 -22t-21.5 -9t-21.5 9t-9.5 22zM655 344q0 12 9.5 21.5t21.5 9.5t21.5 -9.5t9.5 -21.5q0 -13 -9.5 -23t-21.5 -10t-21.5 10t-9.5 23zM655 467
q0 13 9.5 22t21.5 9t21.5 -9t9.5 -22q0 -12 -9.5 -21.5t-21.5 -9.5t-21.5 9.5t-9.5 21.5zM655 592q0 12 9.5 21.5t21.5 9.5t21.5 -9.5t9.5 -21.5t-9.5 -21.5t-21.5 -9.5t-21.5 9.5t-9.5 21.5zM655 717q0 12 9.5 21.5t21.5 9.5t21.5 -9.5t9.5 -21.5q0 -13 -9.5 -23t-21.5 -10
t-21.5 10t-9.5 23zM655 840q0 13 9.5 22.5t21.5 9.5t21.5 -9.5t9.5 -22.5q0 -12 -9.5 -21.5t-21.5 -9.5t-21.5 9.5t-9.5 21.5zM655 965q0 12 9.5 21t21.5 9t21.5 -9t9.5 -21t-9.5 -21.5t-21.5 -9.5t-21.5 9.5t-9.5 21.5zM655 1090q0 12 9.5 21t21.5 9t21.5 -9t9.5 -21
q0 -13 -9.5 -22t-21.5 -9t-21.5 9t-9.5 22zM655 1212q0 13 9.5 23t21.5 10t21.5 -10t9.5 -23q0 -12 -9.5 -21t-21.5 -9t-21.5 9t-9.5 21zM655 1337q0 13 9.5 22t21.5 9t21.5 -9t9.5 -22q0 -12 -9.5 -21t-21.5 -9t-21.5 9t-9.5 21zM674 1434q14 0 22 -2h-10q-8 0 -12 2z
M680 0q1 0 3 1t3 1q2 0 4 -2h-10zM717 33q0 12 9.5 21t21.5 9q13 0 22.5 -9t9.5 -21q0 -15 -10 -25q-15 0 -35 -4q-18 11 -18 29zM717 156q0 13 9.5 22.5t21.5 9.5q14 0 23 -9t9 -23q0 -12 -9.5 -21.5t-22.5 -9.5q-12 0 -21.5 9.5t-9.5 21.5zM717 281q0 13 9.5 21.5
t21.5 8.5q14 0 23 -8.5t9 -21.5q0 -12 -9.5 -21.5t-22.5 -9.5q-12 0 -21.5 9.5t-9.5 21.5zM717 406q0 12 9.5 21t21.5 9q13 0 22.5 -9t9.5 -21t-9.5 -21.5t-22.5 -9.5q-12 0 -21.5 9.5t-9.5 21.5zM717 530q0 12 9.5 21.5t21.5 9.5q13 0 22.5 -9.5t9.5 -21.5q0 -14 -9 -23
t-23 -9q-12 0 -21.5 9.5t-9.5 22.5zM717 653q0 13 9.5 22t21.5 9q14 0 23 -9t9 -22q0 -12 -9.5 -21t-22.5 -9q-12 0 -21.5 9t-9.5 21zM717 778q0 12 9.5 21.5t21.5 9.5q13 0 22.5 -9.5t9.5 -21.5t-9.5 -21t-22.5 -9q-12 0 -21.5 9t-9.5 21zM717 903q0 12 9.5 21.5t21.5 9.5
q13 0 22.5 -9.5t9.5 -21.5q0 -13 -9 -22t-23 -9q-12 0 -21.5 9t-9.5 22zM717 1026q0 13 9.5 23t21.5 10q13 0 22.5 -9.5t9.5 -23.5q0 -12 -9.5 -21.5t-22.5 -9.5q-12 0 -21.5 9.5t-9.5 21.5zM717 1151q0 12 9.5 21.5t21.5 9.5q13 0 22.5 -9.5t9.5 -21.5t-9.5 -21.5
t-22.5 -9.5q-12 0 -21.5 9.5t-9.5 21.5zM717 1276q0 12 9.5 21.5t21.5 9.5q13 0 22.5 -9.5t9.5 -21.5q0 -13 -9 -22t-23 -9q-12 0 -21.5 9t-9.5 22zM717 1401q0 19 20 29q25 -5 29 -5q14 -11 14 -24q0 -14 -9.5 -23.5t-22.5 -9.5q-12 0 -21.5 10t-9.5 23zM780 94
q0 14 9 22.5t22 8.5q12 0 21.5 -9t9.5 -22q0 -12 -9.5 -21.5t-21.5 -9.5q-13 0 -22 9.5t-9 21.5zM780 219q0 12 9 21.5t22 9.5q12 0 21.5 -9.5t9.5 -21.5q0 -13 -9.5 -22t-21.5 -9q-13 0 -22 9t-9 22zM780 344q0 12 9 21.5t22 9.5q12 0 21.5 -9.5t9.5 -21.5q0 -13 -9.5 -23
t-21.5 -10q-13 0 -22 9.5t-9 23.5zM780 467q0 13 9 22t22 9q12 0 21.5 -9t9.5 -22q0 -12 -9.5 -21.5t-21.5 -9.5q-13 0 -22 9.5t-9 21.5zM780 592q0 12 9 21.5t22 9.5q12 0 21.5 -9.5t9.5 -21.5t-9.5 -21.5t-21.5 -9.5q-13 0 -22 9.5t-9 21.5zM780 717q0 12 9 21.5t22 9.5
q12 0 21.5 -9.5t9.5 -21.5q0 -13 -9.5 -23t-21.5 -10q-13 0 -22 9.5t-9 23.5zM780 840q0 14 9 23t22 9q12 0 21.5 -9.5t9.5 -22.5q0 -12 -9.5 -21.5t-21.5 -9.5q-13 0 -22 9.5t-9 21.5zM780 965q0 12 9 21t22 9q12 0 21.5 -9t9.5 -21t-9.5 -21.5t-21.5 -9.5q-13 0 -22 9.5
t-9 21.5zM780 1090q0 12 9 21t22 9q12 0 21.5 -9t9.5 -21q0 -13 -9.5 -22t-21.5 -9q-13 0 -22 8.5t-9 22.5zM780 1212q0 14 9 23.5t22 9.5q12 0 21.5 -10t9.5 -23q0 -12 -9.5 -21t-21.5 -9q-13 0 -22 9t-9 21zM780 1337q0 13 9 22t22 9q12 0 21.5 -9t9.5 -22q0 -12 -9.5 -21
t-21.5 -9q-13 0 -22 9t-9 21zM842 25v8q0 12 9 21t21 9q22 0 29 -20zM842 156q0 13 9 22.5t21 9.5q13 0 22 -9t9 -23q0 -12 -9 -21.5t-22 -9.5q-12 0 -21 9.5t-9 21.5zM842 281q0 13 9 21.5t21 8.5q14 0 22.5 -8.5t8.5 -21.5q0 -12 -9 -21.5t-22 -9.5q-12 0 -21 9.5t-9 21.5
zM842 406q0 12 9 21t21 9q13 0 22 -9t9 -21t-9 -21.5t-22 -9.5q-12 0 -21 9.5t-9 21.5zM842 530q0 12 9 21.5t21 9.5q13 0 22 -9.5t9 -21.5q0 -14 -9 -23t-22 -9q-12 0 -21 9.5t-9 22.5zM842 653q0 13 9 22t21 9q14 0 22.5 -9t8.5 -22q0 -12 -9 -21t-22 -9q-12 0 -21 9
t-9 21zM842 778q0 12 9 21.5t21 9.5q13 0 22 -9.5t9 -21.5t-9 -21t-22 -9q-12 0 -21 9t-9 21zM842 903q0 12 9 21.5t21 9.5q13 0 22 -9.5t9 -21.5q0 -13 -8.5 -22t-22.5 -9q-12 0 -21 9t-9 22zM842 1026q0 13 9 23t21 10q13 0 22 -9.5t9 -23.5q0 -12 -9 -21.5t-22 -9.5
q-12 0 -21 9.5t-9 21.5zM842 1151q0 12 9 21.5t21 9.5q13 0 22 -9.5t9 -21.5t-9 -21.5t-22 -9.5q-12 0 -21 9.5t-9 21.5zM842 1276q0 12 9 21.5t21 9.5q13 0 22 -9.5t9 -21.5q0 -14 -8.5 -22.5t-22.5 -8.5q-12 0 -21 9t-9 22zM842 1401q0 4 2 8l59 -18q-8 -23 -31 -23
q-12 0 -21 10t-9 23zM903 94q0 13 9.5 22t23.5 9q12 0 21.5 -9t9.5 -22q0 -12 -9.5 -21.5t-21.5 -9.5q-13 0 -23 9.5t-10 21.5zM903 219q0 12 10 21.5t23 9.5q12 0 21.5 -9.5t9.5 -21.5q0 -13 -9.5 -22t-21.5 -9q-14 0 -23.5 9t-9.5 22zM903 344q0 12 10 21.5t23 9.5
q12 0 21.5 -9.5t9.5 -21.5q0 -13 -9.5 -23t-21.5 -10q-14 0 -23.5 9.5t-9.5 23.5zM903 467q0 13 9.5 22t23.5 9q12 0 21.5 -9t9.5 -22q0 -12 -9.5 -21.5t-21.5 -9.5q-13 0 -23 9.5t-10 21.5zM903 592q0 12 10 21.5t23 9.5q12 0 21.5 -9.5t9.5 -21.5t-9.5 -21.5t-21.5 -9.5
q-13 0 -23 9.5t-10 21.5zM903 717q0 12 10 21.5t23 9.5q12 0 21.5 -9.5t9.5 -21.5q0 -13 -9.5 -23t-21.5 -10q-14 0 -23.5 10t-9.5 23zM903 840q0 13 9.5 22.5t23.5 9.5q12 0 21.5 -9.5t9.5 -22.5q0 -12 -9.5 -21.5t-21.5 -9.5q-13 0 -23 9.5t-10 21.5zM903 965q0 12 10 21
t23 9q12 0 21.5 -9t9.5 -21t-9.5 -21.5t-21.5 -9.5q-13 0 -23 9.5t-10 21.5zM903 1090q0 12 10 21t23 9q12 0 21.5 -9t9.5 -21q0 -13 -9.5 -22t-21.5 -9q-14 0 -23.5 9t-9.5 22zM903 1212q0 14 9.5 23.5t23.5 9.5q12 0 21.5 -10t9.5 -23q0 -12 -9.5 -21t-21.5 -9
q-13 0 -23 9t-10 21zM903 1337q0 13 9.5 22t23.5 9q12 0 21.5 -9t9.5 -22q0 -12 -9.5 -21t-21.5 -9q-13 0 -23 9t-10 21zM967 156q0 14 8.5 23t21.5 9q12 0 21.5 -9.5t9.5 -22.5q0 -12 -9.5 -21.5t-21.5 -9.5q-13 0 -21.5 9.5t-8.5 21.5zM967 281q0 13 8.5 21.5t21.5 8.5
q12 0 21.5 -8.5t9.5 -21.5q0 -12 -9.5 -21.5t-21.5 -9.5q-13 0 -21.5 9.5t-8.5 21.5zM967 406q0 12 8.5 21t21.5 9q12 0 21.5 -9t9.5 -21t-9.5 -21.5t-21.5 -9.5q-13 0 -21.5 9.5t-8.5 21.5zM967 530q0 12 8.5 21.5t21.5 9.5q12 0 21.5 -9.5t9.5 -21.5q0 -13 -9.5 -22.5
t-21.5 -9.5q-13 0 -21.5 9t-8.5 23zM967 653q0 14 8.5 22.5t21.5 8.5q12 0 21.5 -9t9.5 -22q0 -12 -9.5 -21t-21.5 -9q-13 0 -21.5 9t-8.5 21zM967 778q0 12 8.5 21.5t21.5 9.5q12 0 21.5 -9.5t9.5 -21.5t-9.5 -21t-21.5 -9q-13 0 -21.5 9t-8.5 21zM967 903q0 12 8.5 21.5
t21.5 9.5q12 0 21.5 -9.5t9.5 -21.5q0 -13 -9.5 -22t-21.5 -9q-13 0 -21.5 8.5t-8.5 22.5zM967 1026q0 14 8.5 23.5t21.5 9.5q12 0 21.5 -10t9.5 -23q0 -12 -9.5 -21.5t-21.5 -9.5q-13 0 -21.5 9.5t-8.5 21.5zM967 1151q0 12 8.5 21.5t21.5 9.5q12 0 21.5 -9.5t9.5 -21.5
t-9.5 -21.5t-21.5 -9.5q-13 0 -21.5 9.5t-8.5 21.5zM967 1276q0 12 8.5 21.5t21.5 9.5q12 0 21.5 -9.5t9.5 -21.5q0 -13 -9.5 -22t-21.5 -9q-13 0 -21.5 8.5t-8.5 22.5zM1028 219q0 12 9.5 21.5t21.5 9.5q13 0 22 -9.5t9 -21.5q0 -13 -9 -22t-22 -9q-12 0 -21.5 9t-9.5 22z
M1028 344q0 12 9.5 21.5t21.5 9.5q13 0 22 -9.5t9 -21.5q0 -14 -9 -23.5t-22 -9.5q-12 0 -21.5 10t-9.5 23zM1028 467q0 13 9.5 22t21.5 9q13 0 22 -9t9 -22q0 -12 -9 -21.5t-22 -9.5q-12 0 -21.5 9.5t-9.5 21.5zM1028 592q0 12 9.5 21.5t21.5 9.5q13 0 22 -9.5t9 -21.5
t-9 -21.5t-22 -9.5q-12 0 -21.5 9.5t-9.5 21.5zM1028 717q0 12 9.5 21.5t21.5 9.5q13 0 22 -9.5t9 -21.5q0 -14 -9 -23.5t-22 -9.5q-12 0 -21.5 10t-9.5 23zM1028 840q0 13 9.5 22.5t21.5 9.5q13 0 22 -9t9 -23q0 -12 -9 -21.5t-22 -9.5q-12 0 -21.5 9.5t-9.5 21.5z
M1028 965q0 12 9.5 21t21.5 9q13 0 22 -9t9 -21t-9 -21.5t-22 -9.5q-12 0 -21.5 9.5t-9.5 21.5zM1028 1090q0 12 9.5 21t21.5 9q13 0 22 -9t9 -21q0 -14 -9 -22.5t-22 -8.5q-12 0 -21.5 9t-9.5 22zM1028 1212q0 13 9.5 23t21.5 10q13 0 22 -9.5t9 -23.5q0 -12 -9 -21t-22 -9
q-12 0 -21.5 9t-9.5 21zM1030 106q8 19 29 19h2q-5 -3 -15.5 -9.5t-15.5 -9.5zM1030 1329q5 -4 16.5 -11t16.5 -11h-4q-23 0 -29 22zM1090 156q0 14 9 23t23 9q3 0 15 -4l-45 -37q0 2 -1 5t-1 4zM1090 281q0 13 9 21.5t23 8.5q12 0 21.5 -8.5t9.5 -21.5q0 -12 -9.5 -21.5
t-21.5 -9.5q-13 0 -22.5 9.5t-9.5 21.5zM1090 406q0 12 9.5 21t22.5 9q12 0 21.5 -9t9.5 -21t-9.5 -21.5t-21.5 -9.5q-13 0 -22.5 9.5t-9.5 21.5zM1090 530q0 12 9.5 21.5t22.5 9.5q12 0 21.5 -9.5t9.5 -21.5q0 -13 -9.5 -22.5t-21.5 -9.5q-14 0 -23 9t-9 23zM1090 653
q0 13 9 22t23 9q12 0 21.5 -9t9.5 -22q0 -12 -9.5 -21t-21.5 -9q-13 0 -22.5 9t-9.5 21zM1090 778q0 12 9.5 21.5t22.5 9.5q12 0 21.5 -9.5t9.5 -21.5t-9.5 -21t-21.5 -9q-13 0 -22.5 9t-9.5 21zM1090 903q0 12 9.5 21.5t22.5 9.5q12 0 21.5 -9.5t9.5 -21.5q0 -13 -9.5 -22
t-21.5 -9q-14 0 -23 9t-9 22zM1090 1026q0 14 9.5 23.5t22.5 9.5q12 0 21.5 -10t9.5 -23q0 -12 -9.5 -21.5t-21.5 -9.5q-13 0 -22.5 9.5t-9.5 21.5zM1090 1151q0 12 9.5 21.5t22.5 9.5q12 0 21.5 -9.5t9.5 -21.5t-9.5 -21.5t-21.5 -9.5q-13 0 -22.5 9.5t-9.5 21.5z
M1090 1276q0 2 1 5t1 5q15 -11 45 -37q-4 -4 -15 -4q-14 0 -23 9t-9 22zM1153 219q0 12 9.5 21.5t21.5 9.5q6 0 14 -4l-41 -43q-4 6 -4 16zM1153 344q0 12 9.5 21.5t21.5 9.5t21 -9.5t9 -21.5q0 -13 -9 -23t-21 -10t-21.5 10t-9.5 23zM1153 467q0 13 9.5 22t21.5 9t21 -9
t9 -22q0 -12 -9 -21.5t-21 -9.5t-21.5 9.5t-9.5 21.5zM1153 592q0 12 9.5 21.5t21.5 9.5t21 -9.5t9 -21.5t-9 -21.5t-21 -9.5t-21.5 9.5t-9.5 21.5zM1153 717q0 12 9.5 21.5t21.5 9.5t21 -9.5t9 -21.5q0 -13 -9 -23t-21 -10t-21.5 10t-9.5 23zM1153 840q0 13 9.5 22.5
t21.5 9.5t21 -9.5t9 -22.5q0 -12 -9 -21.5t-21 -9.5t-21.5 9.5t-9.5 21.5zM1153 965q0 12 9.5 21t21.5 9t21 -9t9 -21t-9 -21.5t-21 -9.5t-21.5 9.5t-9.5 21.5zM1153 1090q0 12 9.5 21t21.5 9t21 -9t9 -21q0 -13 -9 -22t-21 -9t-21.5 9t-9.5 22zM1153 1212q0 9 4 17
q24 -21 41 -43q-8 -4 -14 -4q-12 0 -21.5 9t-9.5 21zM1214 281q0 13 9.5 21.5t21.5 8.5h2q-25 -35 -30 -41q-3 6 -3 11zM1214 406q0 12 9.5 21t21.5 9q13 0 22 -9t9 -21t-9 -21.5t-22 -9.5q-12 0 -21.5 9.5t-9.5 21.5zM1214 530q0 12 9.5 21.5t21.5 9.5q13 0 22 -9.5
t9 -21.5q0 -14 -9 -23t-22 -9q-12 0 -21.5 9.5t-9.5 22.5zM1214 653q0 13 9.5 22t21.5 9q13 0 22 -9t9 -22q0 -12 -9 -21t-22 -9q-12 0 -21.5 9t-9.5 21zM1214 778q0 12 9.5 21.5t21.5 9.5q13 0 22 -9.5t9 -21.5t-9 -21t-22 -9q-12 0 -21.5 9t-9.5 21zM1214 903
q0 12 9.5 21.5t21.5 9.5q13 0 22 -9.5t9 -21.5q0 -13 -9 -22t-22 -9q-12 0 -21.5 9t-9.5 22zM1214 1026q0 13 9.5 23t21.5 10q13 0 22 -9.5t9 -23.5q0 -12 -9 -21.5t-22 -9.5q-12 0 -21.5 9.5t-9.5 21.5zM1214 1151q0 2 1.5 6t1.5 6q8 -9 32 -43h-4q-12 0 -21.5 9.5
t-9.5 21.5zM1276 467q0 13 9.5 22t23.5 9q15 0 26 -15l-18 -45q-2 -2 -8 -2q-13 0 -23 9.5t-10 21.5zM1276 592q0 12 10 21.5t23 9.5q12 0 21 -9.5t9 -21.5t-9 -21.5t-21 -9.5q-13 0 -23 9.5t-10 21.5zM1276 717q0 12 10 21.5t23 9.5q12 0 21 -9.5t9 -21.5q0 -13 -9 -23
t-21 -10q-13 0 -23 10t-10 23zM1276 840q0 13 9.5 22.5t23.5 9.5q12 0 21 -9.5t9 -22.5q0 -12 -9 -21.5t-21 -9.5q-13 0 -23 9.5t-10 21.5zM1276 965q0 12 10 21t23 9q6 0 10 -2q11 -26 16 -43q-10 -16 -26 -16q-13 0 -23 9.5t-10 21.5zM1339 530q0 20 17 27l-13 -45
q-4 12 -4 18zM1339 653q0 13 9.5 22t21.5 9h4q-1 -10 -3 -30.5t-3 -30.5q-12 2 -20.5 10t-8.5 20zM1339 778q0 12 8.5 21.5t20.5 9.5l6 -61h-4q-12 0 -21.5 9t-9.5 21zM1339 903q0 10 7 17q8 -26 10 -46q-17 7 -17 29z" />
    <glyph glyph-name="E.ss01" horiz-adv-x="1122" 
d="M195 0q-25 0 -40.5 16t-15.5 39v381q0 139 99 239t237 97h443q23 0 39 -16t16 -39t-16 -39t-39 -16h-443q-94 0 -159.5 -66t-65.5 -160v-325h741q23 0 39.5 -16.5t16.5 -39.5t-16.5 -39t-39.5 -16h-796zM139 852v526q0 24 16 40t40 16h796q23 0 39.5 -16.5t16.5 -39.5
t-16.5 -39t-39.5 -16h-741v-471q0 -22 -16 -38.5t-39 -16.5q-24 0 -40 16.5t-16 38.5z" />
    <glyph glyph-name="H.ss01" horiz-adv-x="1331" 
d="M139 831q0 -22 16.5 -38.5t39.5 -16.5t39 16.5t16 38.5v549q0 22 -16 39t-39 17t-39.5 -17t-16.5 -39v-549zM139 55v391q0 136 95 232t229 94h405q89 0 151 62.5t62 150.5v395q0 22 16.5 39t39.5 17t39 -17t16 -39v-1325q0 -23 -16 -39t-39 -16t-39.5 16t-16.5 39v717
q-36 -52 -92.5 -82.5t-120.5 -30.5h-405q-89 0 -151 -62t-62 -151v-391q0 -23 -16 -39t-39 -16t-39.5 16t-16.5 39z" />
    <glyph glyph-name="J.ss01" horiz-adv-x="1298" 
d="M623 0q-203 0 -362 130t-200 329q-4 23 8.5 42t36.5 25q23 5 43.5 -8.5t24.5 -36.5q32 -159 159.5 -262.5t289.5 -103.5q125 0 230.5 61t166.5 166.5t61 230.5v803q0 24 17 41t41 17q23 0 40 -17t17 -41v-803q0 -155 -76.5 -287t-208.5 -209t-288 -77z" />
    <glyph glyph-name="K.ss01" horiz-adv-x="1175" 
d="M1042 0q-20 0 -36 16l-486 476q-92 95 -92 225.5t92 224.5l486 477q14 15 37 15t38 -15q17 -17 17 -40t-15 -38l-483 -475q-62 -62 -62 -149t62 -148l483 -475q15 -17 15 -40t-17 -40q-14 -14 -39 -14zM135 55v1323q0 24 15.5 40t39.5 16t40 -16t16 -40v-1323
q0 -23 -16.5 -39t-39.5 -16t-39 16t-16 39z" />
    </font>
</defs>
</svg>
