<?xml version="1.0" standalone="no"?>
<!DOCTYPE svg PUBLIC "-//W3C//DTD SVG 1.1//EN" "http://www.w3.org/Graphics/SVG/1.1/DTD/svg11.dtd" >
<svg xmlns="http://www.w3.org/2000/svg" xmlns:xlink="http://www.w3.org/1999/xlink" version="1.1">
<metadata>
Created by FontForge 20170731 at Thu Jan 26 18:25:50 2023
 By Aleksey,,,
Copyright (c) 2019 by Andrew Footit. All rights reserved.
</metadata>
<defs>
<font id="ModulusProEDO-Medium" horiz-adv-x="1017" >
  <font-face 
    font-family="Modulus Pro EDO Medium"
    font-weight="500"
    font-stretch="normal"
    units-per-em="2048"
    panose-1="0 0 0 0 0 0 0 0 0 0"
    ascent="1638"
    descent="-410"
    x-height="961.5"
    cap-height="1438"
    bbox="-252 -469 2765 1880"
    underline-thickness="102"
    underline-position="-358"
    unicode-range="U+0020-25CA"
  />
<missing-glyph horiz-adv-x="1044" 
d="M856 1679v-2089h-661v2089h661zM348 -266h348v69h-213l146 99h67v69h-348v-69h148l-148 -99v-69zM348 18h348v236h-348v-236zM348 381h348v235h-209v-116h70v47h70v-98h-209v167h-70v-235zM348 662h348v208h-69v-137h-279v-71zM348 780h209v148h139v67h-348v-67h139v-78
h-139v-70zM348 1053h348v71h-139v146h-209v-217zM348 1325h348v68h-139v77h139v70h-346v-70h137v-77h-139v-68zM418 88v98h209v-98h-209zM418 1124v74h69v-74h-69z" />
    <glyph glyph-name=".notdef" horiz-adv-x="1044" 
d="M856 1679v-2089h-661v2089h661zM348 -266h348v69h-213l146 99h67v69h-348v-69h148l-148 -99v-69zM348 18h348v236h-348v-236zM348 381h348v235h-209v-116h70v47h70v-98h-209v167h-70v-235zM348 662h348v208h-69v-137h-279v-71zM348 780h209v148h139v67h-348v-67h139v-78
h-139v-70zM348 1053h348v71h-139v146h-209v-217zM348 1325h348v68h-139v77h139v70h-346v-70h137v-77h-139v-68zM418 88v98h209v-98h-209zM418 1124v74h69v-74h-69z" />
    <glyph glyph-name=".null" horiz-adv-x="0" 
 />
    <glyph glyph-name="nonmarkingreturn" horiz-adv-x="682" 
 />
    <glyph glyph-name="space" unicode=" " horiz-adv-x="702" 
 />
    <glyph glyph-name="space" unicode="&#xa0;" horiz-adv-x="702" 
 />
    <glyph glyph-name="exclam" unicode="!" horiz-adv-x="382" 
d="M193 0q-38 0 -65.5 28t-27.5 66t27.5 65t65.5 27t65 -27t27 -65t-27 -66t-65 -28zM115 340v1016q0 32 22 55t53 23q32 0 56 -23t24 -55v-1016q0 -32 -23.5 -54t-56.5 -22q-31 0 -53 22t-22 54z" />
    <glyph glyph-name="quotedbl" unicode="&#x22;" horiz-adv-x="557" 
d="M117 1145q-18 8 -27.5 26.5t-5.5 38.5l37 217q6 34 34 53.5t60 14.5q36 -5 57 -33t11 -67l-78 -221q-11 -24 -37 -33t-51 4zM322 1210l36 217q6 34 34.5 53.5t60.5 14.5q35 -5 56 -33t11 -67l-80 -221q-11 -24 -36 -33t-50 4q-19 7 -28 26t-4 39z" />
    <glyph glyph-name="numbersign" unicode="#" horiz-adv-x="1359" 
d="M41 489q0 29 21.5 51.5t50.5 22.5h213l63 309h-194q-29 0 -50.5 21.5t-21.5 50.5q0 30 21 51t51 23h223l74 358q6 31 32.5 48.5t57.5 11.5t48 -32.5t11 -57.5l-66 -328h351l71 358q6 31 32.5 48.5t57.5 11.5q32 -6 50 -32.5t12 -57.5l-66 -328h164q30 0 51 -21t21 -51
t-21 -52t-51 -22h-194l-64 -309h178q29 0 49.5 -21t20.5 -50q0 -31 -20.5 -52.5t-49.5 -21.5h-206l-74 -361q-6 -28 -27 -44.5t-49 -16.5q-37 0 -59.5 27.5t-16.5 64.5l68 330h-350l-74 -361q-4 -27 -25.5 -44t-48.5 -17q-37 0 -59.5 27.5t-16.5 64.5l68 330h-184
q-28 0 -50 21t-22 50zM481 563h350l64 309h-350z" />
    <glyph glyph-name="dollar" unicode="$" horiz-adv-x="1232" 
d="M612 -131q-26 0 -42.5 16.5t-16.5 44.5v60q-262 21 -447 225q-24 19 -27.5 50.5t15.5 56.5q20 25 52 28.5t55 -16.5q147 -169 352 -189v531q-273 52 -381 196q-77 109 -53 252q26 132 141 221t293 99v55q0 27 16.5 44.5t42.5 17.5t44 -18t18 -44v-57q195 -27 340 -189
q25 -22 28 -52.5t-18 -55.5q-20 -25 -51.5 -27.5t-54.5 19.5q-50 56 -107.5 95t-136.5 52v-473q116 -21 202.5 -60t134.5 -83t76 -98t35 -98.5t4 -90.5q-4 -69 -32.5 -133.5t-81.5 -120t-140 -92.5t-198 -45v-60q0 -27 -17.5 -44t-44.5 -17zM270 1098q-18 -104 58.5 -169
t224.5 -98v461q-122 -8 -196.5 -65.5t-86.5 -128.5zM674 143q143 13 217.5 83t81.5 165q12 197 -299 262v-510z" />
    <glyph glyph-name="percent" unicode="%" horiz-adv-x="1087" 
d="M176 0q-21 0 -37 8q-27 18 -35 47.5t9 57.5l714 1288q13 27 44 35.5t59 -6.5q27 -15 36 -45t-5 -58l-717 -1288q-22 -39 -68 -39zM78 1141q0 102 66 175t161 73q94 0 160.5 -73t66.5 -175q0 -103 -66.5 -176.5t-160.5 -73.5q-95 0 -161 73.5t-66 176.5zM195 1141
q0 -55 32 -93t78 -38q45 0 78 38t33 93q0 53 -33 91t-78 38q-46 0 -78 -37.5t-32 -91.5zM543 281q0 102 67 174.5t162 72.5q94 0 160.5 -73t66.5 -174q0 -103 -66.5 -175.5t-160.5 -72.5q-95 0 -162 72.5t-67 175.5zM662 281q0 -55 32 -93t78 -38q45 0 77 38t32 93
q0 54 -32 91.5t-77 37.5q-46 0 -78 -37.5t-32 -91.5z" />
    <glyph glyph-name="ampersand" unicode="&#x26;" horiz-adv-x="1312" 
d="M592 -14q-131 0 -244 59t-182 162t-74 227q-6 148 59 263.5t205 213.5q-110 194 -49 336q32 77 99.5 129.5t152.5 65.5q110 17 218.5 -33t183.5 -152q19 -24 16 -55t-27 -51q-25 -20 -55 -17.5t-49 27.5q-56 77 -125.5 108.5t-138.5 20.5q-42 -6 -80 -33.5t-56 -66.5
q-38 -96 54 -229q40 -54 113 -144.5t182.5 -223.5t158.5 -194q28 44 52 97t35.5 91t20 69.5t9.5 33.5q9 31 36 45.5t56 5.5q33 -9 48 -37t6 -59q0 -1 -4 -15t-10 -34t-15 -47.5t-21.5 -60t-28 -66.5t-36 -71.5t-43.5 -71.5q137 -150 137 -156q23 -24 20.5 -54t-26.5 -51
q-24 -18 -53 -18q-35 0 -56 27q-4 3 -118 133q-160 -174 -371 -174zM244 442q5 -127 105 -217t243 -90q151 0 272 139q-79 94 -422 512q-108 -76 -156 -157.5t-42 -186.5z" />
    <glyph glyph-name="quotesingle" unicode="'" horiz-adv-x="270" 
d="M68 1182q-18 8 -27.5 26.5t-5.5 38.5l37 217q6 34 34 53.5t60 14.5q36 -3 57 -32t10 -68l-77 -220q-10 -25 -36.5 -33.5t-51.5 3.5z" />
    <glyph glyph-name="parenleft" unicode="(" horiz-adv-x="464" 
d="M344 -35q-24 0 -41 17q-114 109 -178 312.5t-64 424.5q0 211 60 410.5t166 308.5q17 19 42 19t44 -17q17 -17 17 -41t-17 -43q-83 -88 -137 -263.5t-54 -373.5q0 -207 57.5 -385.5t145.5 -263.5q17 -19 18 -43t-16 -43q-19 -19 -43 -19z" />
    <glyph glyph-name="parenright" unicode=")" horiz-adv-x="464" 
d="M121 -35q-24 0 -43 19q-34 37 2 86q84 90 143.5 269t59.5 380q0 199 -52.5 370t-140.5 267q-15 18 -15 42.5t17 41.5q19 17 44 17t42 -19q105 -109 165 -308t60 -411q0 -220 -64.5 -423.5t-176.5 -313.5q-17 -17 -41 -17z" />
    <glyph glyph-name="asterisk" unicode="*" horiz-adv-x="573" 
d="M240 1040v90l-99 -63q-24 -17 -48 -3.5t-25.5 38t22.5 43.5l113 76l-111 65q-26 15 -23 40t24 35.5t46 -1.5l101 -60v93q0 27 22.5 38.5t45 0.5t22.5 -39v-93l102 60q15 9 30 9t24.5 -10t14 -22t-1 -26.5t-20.5 -24.5l-110 -65l114 -78q27 -17 24 -44t-26.5 -37t-52.5 5
l-98 63v-90q0 -31 -22.5 -44.5t-45 -0.5t-22.5 45z" />
    <glyph glyph-name="plus" unicode="+" horiz-adv-x="925" 
d="M164 637q-25 0 -43.5 18.5t-18.5 44.5q0 25 18.5 43.5t43.5 18.5h239v237q0 24 17.5 42t44.5 18q24 0 41.5 -18t17.5 -42v-237h238q26 0 43.5 -18.5t17.5 -43.5q0 -26 -17.5 -44.5t-43.5 -18.5h-238v-238q0 -25 -17 -42t-42 -17q-27 0 -44.5 17t-17.5 42v238h-239z" />
    <glyph glyph-name="comma" unicode="," horiz-adv-x="325" 
d="M53 -170q-17 10 -23.5 30.5t1.5 39.5l73 206q12 33 43.5 48t61.5 4q34 -10 50 -41.5t-1 -71.5l-117 -201q-13 -23 -40.5 -27t-47.5 13z" />
    <glyph glyph-name="hyphen" unicode="-" horiz-adv-x="872" 
d="M82 606q0 31 23 53.5t55 22.5h553q32 0 55 -22.5t23 -53.5q0 -32 -23 -55t-55 -23h-553q-32 0 -55 23t-23 55z" />
    <glyph glyph-name="period" unicode="." horiz-adv-x="356" 
d="M178 -2q-40 0 -68 29.5t-28 70.5q0 38 28 66.5t68 28.5t68 -28.5t28 -66.5q0 -41 -28 -70.5t-68 -29.5z" />
    <glyph glyph-name="slash" unicode="/" horiz-adv-x="577" 
d="M352 1405q6 32 33 49.5t59 11.5q29 -6 46.5 -33t11.5 -59l-273 -1343q-6 -28 -26.5 -45t-48.5 -17q-37 0 -59.5 27.5t-16.5 64.5z" />
    <glyph glyph-name="zero" unicode="0" horiz-adv-x="1466" 
d="M733 -10q-132 0 -250.5 57.5t-202.5 154.5t-133 231.5t-49 283.5t49 283.5t133 231.5t202.5 154.5t250.5 57.5t250.5 -57.5t202.5 -154.5t133 -231.5t49 -283.5t-49 -283.5t-133 -231.5t-202.5 -154.5t-250.5 -57.5zM252 717q0 -157 62 -288t173 -207.5t246 -76.5
q134 0 244.5 76.5t172.5 207.5t62 288t-62 287.5t-172.5 207t-244.5 76.5q-135 0 -246 -76.5t-173 -207t-62 -287.5z" />
    <glyph glyph-name="one" unicode="1" horiz-adv-x="491" 
d="M311 0q-32 0 -55 23t-23 55v1167l-75 -33q-29 -9 -57 5t-38 43q-11 29 3 58.5t43 39.5l176 72q36 12 71 -9q33 -26 33 -65v-1278q0 -32 -23 -55t-55 -23z" />
    <glyph glyph-name="two" unicode="2" horiz-adv-x="1163" 
d="M184 0q-24 0 -43 12.5t-26 34.5q-22 43 12 82q30 33 199.5 220.5t316 349.5t160.5 178q50 60 58 135.5t-25 140.5q-35 67 -104.5 104t-160.5 33q-215 -15 -319 -213q-15 -27 -44.5 -37.5t-57.5 2.5q-29 13 -39 44.5t4 60.5q135 273 446 297q133 9 243 -50t167 -171
q57 -109 43 -231t-92 -216q-60 -69 -564 -620h621q32 0 55 -23t23 -55t-23 -55t-55 -23h-795z" />
    <glyph glyph-name="three" unicode="3" horiz-adv-x="1050" 
d="M473 -6q-132 0 -246.5 55t-183.5 152q-19 26 -14 58t30 52q28 19 59 13.5t50 -31.5q51 -71 133.5 -108.5t171.5 -37.5q140 0 238 82t98 199q0 118 -101.5 197.5t-240.5 79.5q-49 0 -69.5 23t-20.5 56q0 76 84 76q122 4 195 68t73 145q0 91 -82.5 153t-197.5 60
q-124 0 -228 -80q-26 -19 -56.5 -13t-49.5 32t-13.5 56.5t31.5 49.5q130 106 309 109q120 3 222 -45t161.5 -133.5t59.5 -188.5q0 -86 -49 -160.5t-131 -119.5q117 -50 187.5 -147.5t70.5 -217.5q0 -119 -66 -219t-178.5 -157.5t-245.5 -57.5z" />
    <glyph glyph-name="four" unicode="4" horiz-adv-x="1165" 
d="M131 299q-40 0 -63 33q-24 30 -11 67l269 987q11 30 39.5 44t58.5 4q29 -9 43.5 -37.5t5.5 -59.5l-237 -884h481v415q0 31 24 53.5t56 22.5q31 0 53 -22.5t22 -53.5v-415h148q32 0 54 -23t22 -55q0 -31 -22 -53.5t-54 -22.5h-148v-223q0 -31 -22 -53.5t-53 -22.5
q-32 0 -56 22.5t-24 53.5v223h-586z" />
    <glyph glyph-name="five" unicode="5" horiz-adv-x="1124" 
d="M526 -6q-148 0 -273 70.5t-194 193.5q-17 28 -8 60t37 47q27 15 59.5 6.5t47.5 -37.5q47 -86 136.5 -135t194.5 -49q151 0 255 96.5t104 236.5q0 101 -50.5 173.5t-133 106.5t-187.5 34h-276q-39 0 -62 30q-23 32 -14 66l121 483q6 26 26.5 43t48.5 17h445q32 0 54 -23
t22 -55t-22 -55t-54 -23h-383l-82 -328h176q237 0 382.5 -128.5t145.5 -340.5q0 -205 -149.5 -347t-366.5 -142z" />
    <glyph glyph-name="six" unicode="6" horiz-adv-x="1144" 
d="M567 -6q-139 0 -257.5 69.5t-187.5 188.5t-69 258q0 157 92 293l365 598q15 28 45.5 36t58.5 -7q27 -15 35.5 -46t-6.5 -57l-192 -317q52 14 116 14q141 0 260 -69t187.5 -187.5t68.5 -257.5t-68.5 -258t-187.5 -188.5t-260 -69.5zM207 510q0 -151 105.5 -257t254.5 -106
q151 0 257 106t106 257q0 150 -106 256t-257 106q-149 0 -254.5 -106.5t-105.5 -255.5z" />
    <glyph glyph-name="seven" unicode="7" horiz-adv-x="1069" 
d="M213 -2q-20 0 -37 10q-29 15 -37.5 46t6.5 59l643 1167h-669q-32 0 -55 22t-23 54t23 55t55 23h801q46 0 65 -37q21 -38 2 -78l-706 -1280q-24 -41 -68 -41z" />
    <glyph glyph-name="eight" unicode="8" horiz-adv-x="1118" 
d="M559 -8q-134 0 -248.5 62.5t-182 170t-67.5 234.5q0 128 69 234.5t185 166.5q-112 98 -112 246q0 140 103 238t249 98q147 0 249.5 -98t102.5 -238q0 -148 -108 -242q118 -60 188 -167.5t70 -237.5q0 -127 -67 -234.5t-181.5 -170t-249.5 -62.5zM215 459
q0 -129 101.5 -221.5t242.5 -92.5t242.5 92.5t101.5 221.5t-101.5 220t-242.5 91t-242.5 -91t-101.5 -220zM352 1106q0 -77 59.5 -131.5t143.5 -54.5q85 0 145 54.5t60 131.5t-60 131.5t-145 54.5q-84 0 -143.5 -54.5t-59.5 -131.5z" />
    <glyph glyph-name="nine" unicode="9" horiz-adv-x="1136" 
d="M569 428q-138 0 -255 67.5t-185 184t-68 254.5q0 137 68 254t185 185.5t255 68.5q137 0 253.5 -68.5t184.5 -185.5t68 -254q0 -139 -67 -254l-7 -12l-383 -631q-17 -29 -46 -37t-58 6q-27 15 -35.5 47t6.5 58l199 329q-56 -12 -115 -12zM215 934q0 -146 104 -249
t250 -103t249.5 103t103.5 249t-103.5 250t-249.5 104t-250 -104t-104 -250z" />
    <glyph glyph-name="colon" unicode=":" horiz-adv-x="366" 
d="M182 -2q-38 0 -66 29.5t-28 70.5q0 38 28 66.5t66 28.5q40 0 69.5 -28.5t29.5 -66.5q0 -41 -29.5 -70.5t-69.5 -29.5zM88 782q0 40 28 68.5t66 28.5q40 0 69.5 -28.5t29.5 -68.5t-29.5 -69t-69.5 -29q-38 0 -66 29t-28 69z" />
    <glyph glyph-name="semicolon" unicode=";" horiz-adv-x="344" 
d="M41 -170q-17 10 -24 30.5t1 39.5l74 206q12 33 43.5 48t61.5 4q34 -10 50 -41.5t-1 -71.5l-117 -201q-13 -23 -40.5 -27t-47.5 13zM90 782q0 40 28 68.5t68 28.5t68.5 -28.5t28.5 -68.5t-28.5 -69t-68.5 -29t-68 29t-28 69z" />
    <glyph glyph-name="less" unicode="&#x3c;" horiz-adv-x="761" 
d="M610 260q-23 0 -43 14l-456 314q-33 23 -33 63q0 37 31 58l458 327q27 18 56 13t47 -29q19 -25 14 -55.5t-31 -49.5l-374 -264l374 -256q25 -17 30 -48.5t-13 -57.5q-22 -29 -60 -29z" />
    <glyph glyph-name="equal" unicode="=" horiz-adv-x="923" 
d="M162 467q-24 0 -42 18.5t-18 44.5q0 25 18.5 43.5t41.5 18.5h600q24 0 41.5 -18.5t17.5 -43.5q0 -26 -17 -44.5t-42 -18.5h-600zM102 836q0 24 18 42.5t42 18.5h600q25 0 42 -18t17 -43q0 -26 -17 -44t-42 -18h-600q-24 0 -42 18t-18 44z" />
    <glyph glyph-name="greater" unicode="&#x3e;" horiz-adv-x="761" 
d="M152 260q-38 0 -60 29q-18 26 -13 57.5t30 48.5l374 256l-374 264q-26 19 -31 49.5t14 55.5q18 24 47 29t56 -13l458 -327q31 -21 31 -58q0 -40 -33 -63l-456 -314q-20 -14 -43 -14z" />
    <glyph glyph-name="question" unicode="?" horiz-adv-x="1015" 
d="M469 0q-38 0 -65 28t-27 66t27 65t65 27t65 -27t27 -65t-27 -66t-65 -28zM86 1143q-9 -31 5 -59t44 -35q29 -9 56 5.5t38 43.5q10 27 25.5 53t45 58.5t80 54.5t114.5 26q106 5 174.5 -47t93.5 -121q17 -40 18.5 -82.5t-22.5 -95t-76 -94.5q-42 -34 -61.5 -50t-56 -50
t-54.5 -57.5t-43.5 -62.5t-38 -76.5t-23 -87.5t-12.5 -106q-3 -33 17.5 -57t58.5 -24q63 0 76 63q4 76 23.5 136.5t61.5 112.5t69.5 78.5t88.5 76.5q13 11 19 16q93 78 118.5 190.5t-22.5 229.5q-53 126 -167 196t-253 60q-147 -10 -253 -89t-144 -206z" />
    <glyph glyph-name="at" unicode="@" horiz-adv-x="1628" 
d="M829 -23q-181 0 -341 83.5t-264.5 230.5t-127.5 327q-20 160 25.5 311t150.5 271q104 120 249 186t304 68h4q162 -2 302.5 -57t236.5 -156q183 -195 168 -493q-16 -195 -43 -281q-27 -80 -88.5 -118.5t-130.5 -29.5q-51 8 -93 42.5t-63 91.5q-63 -80 -156.5 -126
t-201.5 -46q-85 0 -161.5 32.5t-131.5 92.5q-114 126 -102 305q11 115 75 211t165.5 152t217.5 56q176 0 293 -126q25 -28 43 -58q17 41 33 66q12 17 32.5 20.5t37.5 -8.5q18 -12 21 -33t-9 -39q-31 -46 -48.5 -172.5t-15.5 -244.5q0 -51 23 -80.5t55 -34.5q31 -3 62 16.5
t45 63.5q12 32 23 111.5t14 142.5q15 257 -140 415q-82 87 -202.5 135t-260.5 48h-4q-135 -2 -259.5 -59t-213.5 -160q-93 -105 -132.5 -234t-20.5 -268q31 -239 221 -398.5t434 -150.5q100 3 190 37q21 6 40.5 -2.5t25.5 -28.5q7 -20 -1.5 -38.5t-27.5 -26.5
q-52 -19 -115.5 -30.5t-92.5 -13.5t-44 -2zM502 698q-12 -114 65 -200q76 -82 191 -82q128 -1 220 87.5t103 203.5q15 119 -67 204q-73 82 -191 82q-122 0 -216.5 -86t-104.5 -209z" />
    <glyph glyph-name="A" unicode="A" horiz-adv-x="1394" 
d="M190 45q-20 -43 -64 -45t-70.5 32t-6.5 77l576 1282q22 45 70.5 45t70.5 -45l580 -1282q20 -43 -7.5 -77t-71.5 -32.5t-63 45.5l-145 328h-723zM406 528h581l-293 641z" />
    <glyph glyph-name="B" unicode="B" horiz-adv-x="1284" 
d="M221 0q-32 0 -55 23t-23 55v1278v2q0 32 23 54t55 22h455q164 0 280.5 -116t116.5 -280q0 -84 -36.5 -156.5t-98.5 -121.5q120 -30 199.5 -132t79.5 -231q0 -164 -117 -280.5t-281 -116.5h-598zM299 154h520q100 0 172 71t72 172q0 100 -72 171t-172 71h-520v-485z
M299 797h377q100 0 171 70.5t71 170.5t-71 171t-171 71h-377v-483z" />
    <glyph glyph-name="C" unicode="C" horiz-adv-x="1351" 
d="M811 -12q-197 0 -365 98t-266 266.5t-98 366.5q0 196 98 363.5t266 265.5t365 98q230 0 410 -125q27 -19 32.5 -50t-12.5 -59q-17 -28 -49.5 -33.5t-58.5 13.5q-149 98 -322 98q-155 0 -286.5 -77t-208 -208.5t-76.5 -285.5q0 -156 76.5 -288.5t208 -210t286.5 -77.5
q185 0 340 111q26 20 57.5 15t51.5 -31q19 -26 14 -58t-31 -51q-187 -141 -432 -141z" />
    <glyph glyph-name="D" unicode="D" horiz-adv-x="1386" 
d="M600 1434q146 0 279 -56.5t229 -152.5t152.5 -229t56.5 -279q0 -145 -56.5 -277.5t-152.5 -229t-229 -153.5t-279 -57h-379q-30 2 -52.5 22.5t-23.5 49.5q-2 4 -2 8v1245v35q0 30 23.5 52t56.5 22h377zM297 156l303 -2q153 0 282.5 76t205 205.5t75.5 281.5
q0 154 -75.5 283.5t-205 204.5t-282.5 75h-303v-1124z" />
    <glyph glyph-name="E" unicode="E" horiz-adv-x="1167" 
d="M1016 154q31 0 54.5 -22t23.5 -54t-23.5 -55t-54.5 -23h-803q-32 0 -55 23t-23 55v1278q0 32 23 55t55 23h803q31 0 54.5 -23t23.5 -55t-23.5 -54t-54.5 -22h-727v-485h620q31 0 53.5 -23t22.5 -55t-22.5 -55t-53.5 -23h-620v-485h727z" />
    <glyph glyph-name="F" unicode="F" horiz-adv-x="1167" 
d="M213 0q-32 0 -55 23t-23 55v1278q0 32 23 55t55 23h817q31 0 53.5 -23t22.5 -55q0 -31 -22.5 -53.5t-53.5 -22.5h-739v-485h643q32 0 54 -23t22 -55t-22 -55t-54 -23h-643v-561q0 -32 -23 -55t-55 -23z" />
    <glyph glyph-name="G" unicode="G" horiz-adv-x="1372" 
d="M811 -12q-198 0 -366 97.5t-265.5 265t-97.5 364.5t97.5 364.5t265.5 265t366 97.5q220 0 406 -123q26 -17 32.5 -50t-10.5 -59q-20 -27 -51.5 -32.5t-57.5 12.5q-146 96 -319 96q-155 0 -286.5 -76t-208 -207.5t-76.5 -287.5q0 -115 45.5 -221t121.5 -183t182 -122.5
t222 -45.5q158 0 305 93v401h-321q-32 0 -54 23t-22 55q0 33 22 56.5t54 23.5h399q32 0 54 -23.5t22 -56.5v-522q0 -42 -31 -64q-195 -141 -428 -141z" />
    <glyph glyph-name="H" unicode="H" horiz-adv-x="1345" 
d="M1124 1436q32 0 55 -23t23 -55v-1282q0 -32 -23 -55t-55 -23q-31 0 -54 23t-23 55v557h-750v-557q0 -32 -23 -55t-55 -23t-54 23t-22 55v1282q0 32 22 55t54 23t55 -23t23 -55v-570h750v570q0 32 23 55t54 23z" />
    <glyph glyph-name="I" unicode="I" horiz-adv-x="385" 
d="M193 -4q-32 0 -55 23t-23 55v1288q0 32 23 54t55 22t54.5 -22t22.5 -54v-1288q0 -32 -22.5 -55t-54.5 -23z" />
    <glyph glyph-name="J" unicode="J" horiz-adv-x="1212" 
d="M543 0q-133 0 -248.5 60t-188.5 163q-31 34 -22.5 72.5t43.5 54.5q47 21 94 -26q54 -78 139 -124t183 -46q164 0 280.5 116.5t116.5 282.5v727h-393q-32 0 -55 23t-23 55q0 31 23 54.5t55 23.5h469q32 0 55 -23.5t23 -54.5v-805q0 -150 -74 -277.5t-201 -201.5t-276 -74z
" />
    <glyph glyph-name="K" unicode="K" horiz-adv-x="1177" 
d="M1118 127q22 -23 19.5 -55t-27.5 -54q-21 -18 -51 -18q-34 0 -58 27l-542 628l-180 -200v-377q0 -32 -23 -55t-55 -23t-55 23t-23 55v1278q0 32 23 55t55 23t55 -23t23 -55v-672l661 723q20 25 52 26.5t57 -20.5q23 -22 24.5 -52.5t-18.5 -55.5l-494 -535z" />
    <glyph glyph-name="L" unicode="L" horiz-adv-x="1193" 
d="M219 0q-31 0 -53.5 22.5t-22.5 53.5v1282q0 31 22.5 53.5t53.5 22.5q32 0 55 -22.5t23 -53.5v-1204h752q32 0 53.5 -22t21.5 -56q0 -31 -21.5 -53.5t-53.5 -22.5h-830z" />
    <glyph glyph-name="M" unicode="M" horiz-adv-x="1712" 
d="M213 0q-32 0 -55 23t-23 55v1282q0 26 15 46t40 28q23 8 47 0.5t39 -27.5l580 -793l580 793q36 43 88 27q24 -8 38.5 -28t14.5 -46v-1282q0 -32 -23 -55t-55 -23q-31 0 -54.5 23t-23.5 55v1044l-501 -684q-25 -33 -64 -32t-61 32l-504 684v-1044q0 -32 -23 -55t-55 -23z
" />
    <glyph glyph-name="N" unicode="N" horiz-adv-x="1425" 
d="M211 0q-31 0 -53.5 23.5t-22.5 56.5v1282q0 25 14.5 45t38.5 27q23 8 47 1.5t39 -26.5l861 -1104v1057q0 32 22 55t53 23q34 0 57 -23t23 -55v-1282q0 -26 -15 -47t-38 -29q-8 -4 -27 -4q-39 0 -61 31l-858 1104v-1055q0 -34 -23 -57t-57 -23z" />
    <glyph glyph-name="O" unicode="O" horiz-adv-x="1613" 
d="M809 -14q-200 0 -369 98t-267.5 266.5t-98.5 368.5q0 198 98.5 367t267.5 267.5t369 98.5q197 0 365.5 -98.5t267 -267.5t98.5 -367q0 -199 -98.5 -368t-267 -267t-365.5 -98zM231 719q0 -156 77.5 -289t210.5 -211t290 -78q156 0 288.5 78t209.5 211t77 289
q0 117 -45.5 223.5t-122.5 183.5t-183.5 122.5t-223.5 45.5q-157 0 -290 -77t-210.5 -209.5t-77.5 -288.5z" />
    <glyph glyph-name="P" unicode="P" horiz-adv-x="1316" 
d="M772 1434q128 0 236.5 -63t171.5 -171t63 -235q0 -195 -138 -333t-333 -138h-498v-416q0 -32 -23 -55t-54 -23q-32 0 -55 23t-23 55v1280q0 31 23 53.5t55 22.5h575zM274 647h498q131 0 224.5 93t93.5 225q0 130 -93.5 222.5t-224.5 92.5h-498v-633z" />
    <glyph glyph-name="Q" unicode="Q" horiz-adv-x="1636" 
d="M1481 121q20 -26 18.5 -58t-26.5 -55q-21 -18 -52 -18q-34 0 -59 28l-105 117q-191 -151 -440 -151q-200 0 -369 98.5t-267.5 267.5t-98.5 369t98.5 369t267.5 267.5t369 98.5t369.5 -98.5t268.5 -267.5t99 -369q0 -132 -47.5 -255t-132.5 -222zM240 719q0 -157 77 -290
t210 -210.5t290 -77.5q191 0 336 117l-147 170q-22 25 -19.5 58t27.5 53q25 22 56.5 19t53.5 -28l140 -161q131 147 131 350q0 157 -77.5 290t-210.5 210t-290 77q-118 0 -224.5 -45.5t-184 -123t-123 -184t-45.5 -224.5z" />
    <glyph glyph-name="R" unicode="R" horiz-adv-x="1325" 
d="M201 0q-32 0 -55 23t-23 55v1278q0 32 23 55t55 23h575q195 0 333 -138t138 -333q0 -163 -104 -288t-258 -155l342 -391q22 -25 19.5 -57t-25.5 -54q-21 -18 -52 -18q-36 0 -57 27l-407 467h-429v-416q0 -32 -22 -55t-53 -23zM276 647h500q130 0 223 92.5t93 223.5
t-93 224t-223 93h-500v-633z" />
    <glyph glyph-name="S" unicode="S" horiz-adv-x="1202" 
d="M612 -10q-301 0 -503 227q-25 19 -29 50.5t16 54.5q20 26 51 30t54 -16q160 -193 411 -193q171 0 262.5 73t96.5 177q8 107 -84 176t-281 97q-317 49 -434 208q-77 106 -53 248q27 146 162.5 237.5t339.5 84.5q236 -9 389 -193q25 -20 28 -51.5t-18 -56.5
q-20 -23 -51 -25.5t-54 17.5q-125 148 -303 155q-147 7 -238 -53t-104 -141q-38 -217 359 -279q127 -18 221.5 -56.5t146.5 -83t83 -100.5t39 -101.5t5 -92.5q-5 -74 -37 -141.5t-91.5 -125t-158.5 -92t-225 -34.5z" />
    <glyph glyph-name="T" unicode="T" horiz-adv-x="1228" 
d="M1073 1434q32 0 55 -23t23 -55t-23 -54t-55 -22h-383v-1202q0 -32 -23 -55t-55 -23q-31 0 -53 23t-22 55v1202h-381q-32 0 -55 22t-23 54t23 55t55 23h917z" />
    <glyph glyph-name="U" unicode="U" horiz-adv-x="1396" 
d="M698 -8q-117 0 -224.5 46t-185 124t-123.5 185t-46 224v787q0 32 23 55t55 23t54.5 -23t22.5 -55v-787q0 -175 124.5 -299.5t299.5 -124.5q176 0 299 124.5t123 299.5v787q0 32 24 55t56 23q31 0 54.5 -23t23.5 -55v-787q0 -156 -78 -289.5t-211.5 -211.5t-290.5 -78z
" />
    <glyph glyph-name="V" unicode="V" horiz-adv-x="1421" 
d="M713 0q-49 0 -72 45l-573 1278q-12 29 -0.5 59t41.5 43q29 13 58.5 1.5t41.5 -40.5l504 -1120l497 1120q14 29 44 40.5t59 -1.5q29 -12 40.5 -42.5t-1.5 -59.5l-570 -1278q-20 -45 -69 -45z" />
    <glyph glyph-name="W" unicode="W" horiz-adv-x="1943" 
d="M1831 1438q29 -11 43 -39.5t4 -59.5l-475 -1288q-20 -51 -72 -51h-2q-23 0 -43 13.5t-29 35.5l-284 725l-287 -725q-9 -22 -28.5 -35.5t-43.5 -13.5q-50 0 -73 51l-475 1288q-10 31 4 59.5t43 39.5q33 9 61 -5t37 -44l410 -1086l280 711q11 29 40 42t58 1q32 -11 43 -43
h2l279 -711l410 1086q10 30 38.5 44t59.5 5z" />
    <glyph glyph-name="X" unicode="X" horiz-adv-x="1269" 
d="M1194 121q19 -25 15 -55t-29 -50q-16 -16 -45 -16q-38 0 -64 29l-436 565l-438 -565q-23 -29 -60 -29q-28 0 -47 16q-25 20 -29 50t15 55l461 600l-461 598q-19 25 -15 55.5t29 50.5q26 20 57 16t50 -30l438 -565l436 565q20 26 52 30t57 -16t29 -50.5t-15 -55.5
l-461 -598z" />
    <glyph glyph-name="Y" unicode="Y" horiz-adv-x="1247" 
d="M1157 1423q27 -17 34 -48t-9 -58l-480 -764l-2 -477q0 -31 -22.5 -53.5t-54.5 -22.5t-54 23t-22 55l2 475l-483 764q-17 28 -10.5 58.5t34.5 47.5q26 18 58 10.5t47 -34.5l430 -678l426 678q17 27 47.5 34t58.5 -10z" />
    <glyph glyph-name="Z" unicode="Z" horiz-adv-x="1404" 
d="M1225 154q31 0 54.5 -22t23.5 -54t-23.5 -55t-54.5 -23h-1045q-50 0 -69 43q-21 40 6 82l903 1155h-817q-32 0 -54 23t-22 55t22 54t54 22h975q48 0 67 -43q21 -41 -8 -82l-901 -1155h889z" />
    <glyph glyph-name="bracketleft" unicode="[" horiz-adv-x="382" 
d="M123 -70q-25 0 -43.5 18t-18.5 44v1450q0 25 18.5 43t43.5 18h137q25 0 43.5 -18t18.5 -43q0 -26 -18.5 -44t-43.5 -18h-74v-1327h74q25 0 43.5 -17.5t18.5 -43.5t-18.5 -44t-43.5 -18h-137z" />
    <glyph glyph-name="backslash" unicode="\" horiz-adv-x="548" 
d="M487 61q6 -37 -16 -64.5t-59 -27.5q-28 0 -49 17t-27 45l-275 1343q-4 32 13.5 59t46.5 33q32 6 58 -11.5t34 -49.5z" />
    <glyph glyph-name="bracketright" unicode="]" horiz-adv-x="382" 
d="M123 -70q-25 0 -43.5 18t-18.5 44t18.5 43.5t43.5 17.5h74v1327h-74q-25 0 -43.5 18t-18.5 44q0 25 18.5 43t43.5 18h137q25 0 43.5 -18t18.5 -43v-1450q0 -26 -18.5 -44t-43.5 -18h-137z" />
    <glyph glyph-name="asciicircum" unicode="^" horiz-adv-x="641" 
d="M180 1006q-16 -29 -46.5 -28.5t-44 23t0.5 54.5l189 352q14 27 46 28t46 -28l180 -356q17 -29 0 -52t-46.5 -22.5t-45.5 29.5l-135 266z" />
    <glyph glyph-name="underscore" unicode="_" horiz-adv-x="940" 
d="M82 -102q0 32 23 54.5t55 22.5h622q32 0 54 -22.5t22 -54.5t-22 -55t-54 -23h-622q-32 0 -55 23t-23 55z" />
    <glyph glyph-name="grave" unicode="`" horiz-adv-x="313" 
d="M84 1587q-16 34 4 59t53 22t47 -38l52 -137q9 -21 -5 -37.5t-36 -15.5t-35 22z" />
    <glyph glyph-name="a" unicode="a" horiz-adv-x="1120" 
d="M553 -6q-132 0 -243.5 65t-176.5 176.5t-65 243.5t65 244.5t176.5 178t243.5 65.5t244 -65.5t177.5 -178t65.5 -244.5v-8v-4v-395q0 -31 -21 -52.5t-50 -21.5q-31 0 -51.5 21.5t-20.5 52.5v90q-151 -168 -344 -168zM221 479q0 -137 97.5 -234.5t234.5 -97.5
q138 0 236 97.5t98 234.5q0 138 -98 236t-236 98q-137 0 -234.5 -98t-97.5 -236z" />
    <glyph glyph-name="b" unicode="b" horiz-adv-x="1128" 
d="M580 967q133 0 245 -65t177 -177.5t65 -245.5q0 -131 -65 -242.5t-177 -177t-245 -65.5q-131 0 -243 65.5t-177.5 177t-65.5 242.5v8v5v866q0 32 21 54t51 22t51 -22t21 -54v-533q67 67 155.5 104.5t186.5 37.5zM248 479q0 -138 97.5 -235t234.5 -97q138 0 234.5 97
t96.5 235q0 137 -96.5 234.5t-234.5 97.5q-136 0 -234 -97.5t-98 -234.5z" />
    <glyph glyph-name="c" unicode="c" horiz-adv-x="954" 
d="M557 -6q-133 0 -245.5 65.5t-178 178t-65.5 245.5t65.5 246t178 178.5t245.5 65.5q169 0 299 -103q27 -21 31 -52t-17 -56t-52 -29.5t-56 15.5q-90 69 -205 69q-138 0 -236 -98t-98 -236t98 -235.5t236 -97.5q115 0 205 69q25 20 56.5 16t51.5 -30q20 -25 16 -57t-30 -52
q-129 -102 -299 -102z" />
    <glyph glyph-name="d" unicode="d" horiz-adv-x="1136" 
d="M547 967q98 0 187.5 -37.5t156.5 -104.5v533q0 32 20.5 54t51.5 22q29 0 50 -22t21 -54v-866v-5v-8q0 -131 -65.5 -242.5t-177.5 -177t-244 -65.5t-244 65.5t-177 177t-65 242.5q0 202 142.5 345t343.5 143zM215 479q0 -138 97.5 -235t234.5 -97q138 0 236 97t98 235
q0 137 -98 234.5t-236 97.5q-137 0 -234.5 -97.5t-97.5 -234.5z" />
    <glyph glyph-name="e" unicode="e" horiz-adv-x="1089" 
d="M514 4q-196 19 -321 155.5t-125 327.5q0 131 64.5 242t175.5 175.5t243 64.5q197 0 334 -135t137 -328q0 -27 -18.5 -48t-45.5 -26q-4 -2 -12 -2l-721 -2q19 -115 102 -189.5t208 -88.5q195 -21 331 98q27 12 56.5 5.5t40.5 -32.5q13 -27 2 -54t-39 -42
q-148 -148 -412 -121zM225 543h641q-12 122 -101 203t-214 81q-124 0 -215.5 -79t-110.5 -205z" />
    <glyph glyph-name="f" unicode="f" horiz-adv-x="724" 
d="M172 0q-32 0 -55 23t-23 55v866q0 126 41 224t109 154t147 84t164 28h31q32 0 55 -23t23 -55t-23 -55t-55 -23h-31q-131 0 -215 -82t-90 -231h285q29 0 50 -20.5t21 -51.5t-21 -52.5t-50 -21.5h-285v-741q0 -32 -23 -55t-55 -23z" />
    <glyph glyph-name="g" unicode="g" horiz-adv-x="1132" 
d="M553 -4q-131 0 -242.5 65t-177 176.5t-65.5 243.5q0 131 65.5 242.5t177 176.5t242.5 65t242.5 -65t177 -176.5t65.5 -242.5v-2v-403q0 -191 -128 -328.5t-324 -157.5q-23 -2 -74 -2q-157 0 -276 74q-30 13 -41 43t0 59q14 28 43 40t59 -1q116 -75 274 -57
q135 12 223.5 103.5t88.5 226.5v47q-137 -127 -330 -127zM223 481q0 -137 97 -234t233 -97q137 0 233.5 96.5t96.5 234.5q0 137 -96.5 233.5t-233.5 96.5q-135 0 -232.5 -97t-97.5 -233z" />
    <glyph glyph-name="h" unicode="h" horiz-adv-x="1032" 
d="M172 0q-32 0 -55 23t-23 55v1282q0 32 23 55t55 23t55 -23t23 -55v-486q118 97 270 97q174 0 299 -124t125 -300v-469q0 -32 -23 -55t-55 -23q-34 0 -57 23t-23 55v469q0 110 -78 189t-188 79q-112 0 -191 -78.5t-79 -189.5v-469q0 -32 -23 -55t-55 -23z" />
    <glyph glyph-name="i" unicode="i" horiz-adv-x="372" 
d="M184 0q-32 0 -53.5 22.5t-21.5 55.5v813q0 33 21.5 55.5t53.5 22.5t56 -23t24 -55v-813q0 -32 -24 -55t-56 -23zM88 1198q0 41 28.5 68.5t69.5 27.5q42 0 70.5 -27.5t28.5 -68.5q0 -42 -29 -72t-70 -30t-69.5 30t-28.5 72z" />
    <glyph glyph-name="j" unicode="j" horiz-adv-x="395" 
d="M-78 -408q-39 -3 -65 17.5t-29 52.5q-2 32 20 56.5t56 27.5q215 50 215 313l-2 828q0 30 16 50t39 24.5t46.5 0t39.5 -24t16 -48.5v-830q0 -180 -90 -306.5t-262 -160.5zM96 1198q0 41 29.5 68.5t69.5 27.5q41 0 69.5 -27.5t28.5 -68.5q0 -42 -28.5 -72t-69.5 -30
q-40 0 -69.5 30.5t-29.5 71.5z" />
    <glyph glyph-name="k" unicode="k" horiz-adv-x="913" 
d="M164 0q-31 0 -54.5 23.5t-23.5 54.5v1280q0 32 23.5 55t54.5 23q32 0 55 -23t23 -55v-785l487 375q27 21 58.5 17t52.5 -31q20 -27 15 -57.5t-32 -51.5l-362 -278l375 -418q20 -23 19 -55t-24 -54q-23 -20 -51 -20q-32 0 -57 25l-387 428l-94 -72v-303q0 -31 -23 -54.5
t-55 -23.5z" />
    <glyph glyph-name="l" unicode="l" horiz-adv-x="649" 
d="M520 0q-200 0 -317 123.5t-117 333.5v901q0 31 23 53.5t55 22.5t55 -22.5t23 -53.5v-901q0 -151 73 -226t205 -75q32 0 54 -23t22 -55t-22 -55t-54 -23z" />
    <glyph glyph-name="m" unicode="m" horiz-adv-x="1597" 
d="M799 0q-33 0 -55.5 22.5t-22.5 55.5v500q0 99 -69.5 168t-166.5 69t-165 -69t-68 -168v-500q0 -32 -24 -55t-56 -23t-55 23t-23 55v500q0 163 114 277t277 114q93 0 176 -42t138 -114q55 72 136.5 114t176.5 42q162 0 276.5 -114.5t114.5 -276.5v-500q0 -32 -23 -55
t-55 -23q-33 0 -56 23t-23 55v500q0 99 -69 168t-165 69q-98 0 -166.5 -68.5t-68.5 -168.5v-500q0 -32 -23 -55t-55 -23z" />
    <glyph glyph-name="n" unicode="n" 
d="M162 0q-32 0 -55 23t-23 55v469q0 177 124.5 300.5t301.5 123.5q174 0 299 -124t125 -300v-469q0 -32 -23 -55t-55 -23q-34 0 -57 23t-23 55v469q0 110 -78 189t-188 79q-112 0 -191 -78.5t-79 -189.5v-469q0 -32 -23 -55t-55 -23z" />
    <glyph glyph-name="o" unicode="o" horiz-adv-x="1095" 
d="M547 -6q-132 0 -244 65t-177 176.5t-65 243.5q0 99 38.5 189t103.5 155.5t155 104.5t189 39q132 0 244 -65.5t177.5 -178t65.5 -244.5t-65.5 -243.5t-177.5 -176.5t-244 -65zM215 479q0 -137 97.5 -234.5t234.5 -97.5q138 0 236 97.5t98 234.5q0 138 -98 236t-236 98
q-137 0 -234.5 -98t-97.5 -236z" />
    <glyph glyph-name="p" unicode="p" horiz-adv-x="1122" 
d="M573 -2q-201 0 -342 141v-475q0 -32 -21 -54t-50 -22q-30 0 -51 22t-21 54v807v4v10q0 131 65.5 243t177 177.5t242.5 65.5q99 0 189.5 -39t156 -104t104 -155t38.5 -188q0 -133 -65 -245t-177.5 -177t-245.5 -65zM242 485q0 -138 97 -235.5t234 -97.5q138 0 235 97.5
t97 235.5q0 137 -97 234.5t-235 97.5q-136 0 -233.5 -97.5t-97.5 -234.5z" />
    <glyph glyph-name="q" unicode="q" horiz-adv-x="1116" 
d="M547 -2q-201 0 -343.5 142.5t-142.5 344.5q0 131 65 243t177 177.5t244 65.5t244 -65.5t177.5 -177.5t65.5 -243v-10v-4v-807q0 -32 -21 -54t-50 -22q-31 0 -51.5 22t-20.5 54v475q-67 -67 -156 -104t-188 -37zM215 485q0 -138 97.5 -235.5t234.5 -97.5q138 0 236 97.5
t98 235.5q0 137 -98 234.5t-236 97.5q-137 0 -234.5 -97.5t-97.5 -234.5z" />
    <glyph glyph-name="r" unicode="r" horiz-adv-x="962" 
d="M172 0q-31 0 -54.5 23t-23.5 55v471q0 175 124.5 299.5t299.5 124.5q135 0 245.5 -79t154.5 -208q11 -31 -3 -60t-45 -38q-31 -11 -60.5 3.5t-39.5 45.5q-28 82 -97 131t-155 49q-112 0 -190 -77.5t-78 -190.5v-471q0 -32 -23 -55t-55 -23z" />
    <glyph glyph-name="s" unicode="s" horiz-adv-x="886" 
d="M461 -4q-177 -2 -355 102q-29 12 -39.5 42t1.5 59t41.5 40.5t58.5 -1.5q74 -51 162 -73t159 -15.5t119 39t49 83.5q1 49 -56.5 88.5t-158.5 61.5q-108 26 -182.5 65t-108 83t-45 82t-8.5 77q7 109 111 177.5t250 62.5q149 -3 280 -84q29 -13 40 -43t-3 -58
q-13 -29 -43 -39.5t-59 3.5q-66 45 -140.5 61.5t-131.5 7t-96 -36.5t-42 -63q-3 -15 4.5 -33.5t27.5 -41.5t66 -44t111 -35q88 -22 154 -52t103 -59.5t59.5 -64t29 -61t6.5 -54.5q0 -110 -93.5 -191.5t-270.5 -84.5z" />
    <glyph glyph-name="t" unicode="t" horiz-adv-x="716" 
d="M172 1434q32 0 55 -23t23 -55v-391h285q29 0 50 -21.5t21 -50.5q0 -31 -21 -52.5t-50 -21.5h-285v-327q0 -158 84.5 -247t220.5 -89h31q32 0 55 -23t23 -55t-23 -55t-55 -23h-31q-67 0 -131.5 17t-124.5 55.5t-105.5 94t-72.5 139.5t-27 186v864q0 32 23 55t55 23z" />
    <glyph glyph-name="u" unicode="u" 
d="M162 971q33 0 55.5 -22.5t22.5 -55.5v-469q0 -111 79 -189.5t191 -78.5q110 0 188 79t78 189v469q0 34 23 56t57 22q33 0 55.5 -22.5t22.5 -55.5v-469q0 -174 -125 -299t-299 -125q-177 0 -301.5 124.5t-124.5 299.5v469q0 33 22.5 55.5t55.5 22.5z" />
    <glyph glyph-name="v" unicode="v" horiz-adv-x="942" 
d="M465 0q-24 0 -43.5 12.5t-28.5 34.5l-340 815q-12 30 0.5 60t42.5 43q30 11 60 -1.5t43 -41.5l268 -643l278 643q12 31 43 43t60 -2q29 -12 41.5 -43t-0.5 -60l-352 -813q-19 -47 -72 -47z" />
    <glyph glyph-name="w" unicode="w" horiz-adv-x="1636" 
d="M465 0q-24 0 -43.5 12.5t-28.5 34.5l-340 815q-12 30 0.5 60t42.5 43q30 11 60 -1.5t43 -41.5l268 -643l278 643q12 30 41 43h2q3 0 5 2q16 5 36 2q47 -7 62 -47l268 -643l281 643q10 30 41.5 42.5t60.5 -1.5q29 -12 41 -43t-2 -60l-350 -813q-9 -22 -28.5 -34.5
t-43.5 -12.5q-53 0 -72 47l-270 645l-280 -645q-19 -47 -72 -47z" />
    <glyph glyph-name="x" unicode="x" horiz-adv-x="925" 
d="M125 -2q-28 0 -49 18q-25 20 -28 52.5t18 58.5l296 356l-296 357q-21 25 -18 57.5t28 52.5t56.5 17.5t51.5 -27.5l279 -334l278 334q20 25 53 27.5t56 -17.5q26 -20 29 -52.5t-19 -57.5l-295 -357l295 -356q22 -26 19 -58.5t-29 -52.5q-21 -18 -49 -18q-40 0 -60 29
l-278 335l-279 -335q-20 -29 -59 -29z" />
    <glyph glyph-name="y" unicode="y" horiz-adv-x="983" 
d="M348 -358q-20 0 -35 6q-29 13 -40 44.5t1 59.5l138 314l-357 786q-13 31 -3 61.5t38 44.5q31 14 61.5 3.5t43.5 -39.5l301 -664l290 662q14 29 44 40t61 -2q28 -12 39 -42.5t-2 -61.5l-510 -1165q-23 -47 -70 -47z" />
    <glyph glyph-name="z" unicode="z" horiz-adv-x="964" 
d="M152 0q-51 0 -70 43q-20 45 8 84l535 682h-457q-32 0 -56 23t-24 55q0 33 23.5 55.5t56.5 22.5h616q50 0 72 -43q20 -44 -10 -82l-535 -684h504q32 0 54 -23t22 -55t-22 -55t-54 -23h-663z" />
    <glyph glyph-name="braceleft" unicode="{" horiz-adv-x="516" 
d="M260 -76q-25 0 -43 18t-18 44v532q0 26 -14 51.5t-35.5 43.5t-36.5 28t-27 16q-37 16 -37 56q0 42 35 57q21 12 43.5 28.5t47 49t24.5 63.5v531q0 26 18 43.5t43 17.5h133q25 0 43.5 -17.5t18.5 -43.5t-18.5 -44t-43.5 -18h-71v-469q0 -100 -109 -196q109 -96 109 -197
v-471h71q25 0 43.5 -17.5t18.5 -43.5t-18.5 -44t-43.5 -18h-133z" />
    <glyph glyph-name="bar" unicode="|" horiz-adv-x="337" 
d="M168 -215q-29 0 -49.5 20.5t-20.5 49.5v1699q0 31 20.5 51.5t49.5 20.5q30 0 51 -21t21 -51v-1699q0 -29 -21.5 -49.5t-50.5 -20.5z" />
    <glyph glyph-name="braceright" unicode="}" horiz-adv-x="516" 
d="M123 -76q-25 0 -43.5 18t-18.5 44t18.5 43.5t43.5 17.5h72v471q0 104 106 197q-106 97 -106 196v469h-72q-25 0 -43.5 18t-18.5 44t18.5 43.5t43.5 17.5h131q26 0 44.5 -17.5t18.5 -43.5v-531q0 -44 39 -83t76 -58q35 -15 35 -57q0 -40 -37 -56q-12 -6 -27 -16t-36.5 -28
t-35.5 -43.5t-14 -51.5v-532q0 -26 -18.5 -44t-44.5 -18h-131z" />
    <glyph glyph-name="asciitilde" unicode="~" horiz-adv-x="1198" 
d="M408 616q-102 0 -185 58t-123 157q-12 26 -0.5 53t37.5 36q26 11 52 0t36 -37q25 -58 72.5 -94.5t110.5 -36.5q37 0 69 17t80 54q40 31 65.5 48.5t76.5 36t104 18.5q100 0 179 -56t116 -153q10 -26 -1.5 -52.5t-37.5 -37.5q-27 -8 -53 3t-35 38q-20 54 -64.5 88.5
t-103.5 34.5q-32 0 -63 -12.5t-48 -24t-53 -39.5q-38 -30 -65 -48t-72.5 -34.5t-93.5 -16.5z" />
    <glyph glyph-name="exclamdown" unicode="&#xa1;" horiz-adv-x="382" 
d="M193 965q38 0 65 -28t27 -67q0 -38 -27 -65t-65 -27t-65.5 27t-27.5 65t27.5 66.5t65.5 28.5zM115 -391v1016q0 32 22 54.5t53 22.5q33 0 56.5 -22.5t23.5 -54.5v-1016q0 -32 -24 -55t-56 -23q-31 0 -53 23t-22 55z" />
    <glyph glyph-name="cent" unicode="&#xa2;" horiz-adv-x="962" 
d="M530 74q-19 0 -32 13.5t-13 33.5v102q-181 25 -302.5 163t-121.5 323t121.5 322.5t302.5 162.5v111q0 19 13 32t32 13q20 0 34 -13t14 -32v-107q150 -9 272 -102q27 -21 31 -52.5t-17 -56.5t-52 -29.5t-56 15.5q-83 61 -178 67v-663q95 6 178 67q25 20 56.5 16t51.5 -30
q20 -25 16 -56.5t-30 -51.5q-123 -94 -272 -103v-98q0 -20 -14 -33.5t-34 -13.5zM217 709q0 -121 76 -213t192 -115v655q-116 -23 -192 -114.5t-76 -212.5z" />
    <glyph glyph-name="sterling" unicode="&#xa3;" horiz-adv-x="1204" 
d="M168 0q-23 0 -44 13.5t-30 35.5q-16 51 25 86q4 4 11 13t25 40t32 67.5t25 95.5t11 124v115h-98q-26 0 -45 18.5t-19 44.5q0 25 19 43.5t45 18.5h98v278q0 183 131 313t314 130h14q132 0 242 -74t163 -197q12 -29 0.5 -58.5t-40.5 -41.5t-58 0t-43 41q-34 80 -106 129
t-158 49h-14q-120 0 -204.5 -85.5t-84.5 -205.5v-278h477q25 0 43.5 -18.5t18.5 -43.5q0 -26 -18.5 -44.5t-43.5 -18.5h-477v-62q0 -212 -76 -376h744q31 0 53 -22t22 -54t-22 -54t-53 -22h-879z" />
    <glyph glyph-name="yen" unicode="&#xa5;" horiz-adv-x="1220" 
d="M1145 1423q26 -17 32.5 -47.5t-8.5 -58.5l-403 -643h197q26 0 43.5 -17.5t17.5 -42.5q0 -27 -17 -44t-44 -17h-273v-145h273q26 0 43.5 -18.5t17.5 -43.5q0 -26 -17.5 -44.5t-43.5 -18.5h-275v-207q0 -31 -23 -53.5t-55 -22.5t-53.5 22.5t-21.5 55.5v205h-271
q-24 0 -41.5 18.5t-17.5 44.5q0 25 18 43.5t41 18.5h273v145h-273q-24 0 -41.5 17t-17.5 44q0 24 17.5 42t41.5 18h197l-408 643q-17 28 -10 58.5t35 47.5q26 18 57.5 10.5t46.5 -34.5l430 -678l424 678q19 27 50 34t59 -10z" />
    <glyph glyph-name="brokenbar" unicode="&#xa6;" horiz-adv-x="362" 
d="M180 807q-28 0 -48.5 21t-20.5 51v675q0 30 20.5 51t48.5 21q30 0 51 -21t21 -51v-675q0 -30 -21 -51t-51 -21zM111 -141v676q0 30 20.5 50.5t48.5 20.5q30 0 51 -20.5t21 -50.5v-676q0 -30 -21 -51t-51 -21q-28 0 -48.5 21t-20.5 51z" />
    <glyph glyph-name="section" unicode="&#xa7;" horiz-adv-x="970" 
d="M78 219q10 29 39 39.5t57 -2.5q74 -51 163.5 -73.5t161 -14.5t120 41t49.5 84q0 49 -57.5 87.5t-157.5 59.5q-88 18 -155 48t-105 62t-61.5 70t-31 69t-6.5 61q4 73 54.5 126t134.5 78q-128 70 -123 197q5 109 105.5 177.5t246.5 62.5q149 -3 283 -84q29 -14 42 -44
t1 -59q-10 -27 -38.5 -35.5t-60.5 5.5q-54 36 -114 54t-110 16t-92.5 -16t-67.5 -38t-27 -53q-3 -15 4.5 -33.5t28 -41t67 -43.5t111.5 -34q88 -18 155 -47t104.5 -59.5t61 -66t31 -63t8.5 -55.5q3 -73 -39.5 -136t-128.5 -95q103 -68 103 -170q2 -51 -18 -99t-61.5 -87.5
t-112.5 -64.5t-161 -26q-168 -2 -356 103q-29 12 -42.5 41t-4.5 59zM262 737q-6 -40 25 -74t83.5 -54t96.5 -31.5t80 -16.5q47 -11 107 27.5t69 87.5q14 48 -33 85.5t-158 63.5q-71 16 -130 8.5t-98.5 -34t-41.5 -62.5z" />
    <glyph glyph-name="dieresis" unicode="&#xa8;" horiz-adv-x="454" 
d="M121 1407q-26 0 -44 18.5t-18 44.5t18 45t44 19q25 0 43 -19t18 -45t-18 -44.5t-43 -18.5zM270 1470q0 27 18.5 45.5t45.5 18.5q25 0 43 -19t18 -45t-18 -44.5t-43 -18.5q-28 0 -46 18.5t-18 44.5z" />
    <glyph glyph-name="copyright" unicode="&#xa9;" horiz-adv-x="1576" 
d="M791 41q-139 0 -265 54t-217 145t-144.5 217t-53.5 264q0 137 53.5 262.5t144.5 216.5t217 145t265 54q183 0 338.5 -91t246 -247t90.5 -340t-90.5 -341t-246 -248t-338.5 -91zM231 721q0 -114 44.5 -217.5t119.5 -178.5t178.5 -119t217.5 -44q112 0 215 44t177.5 119
t118.5 178.5t44 217.5q0 112 -44 215t-118.5 177.5t-177.5 118.5t-215 44q-152 0 -281 -74.5t-204 -202.5t-75 -278zM430 721q0 154 108.5 262.5t262.5 108.5q114 0 209 -64q19 -14 23.5 -36t-7.5 -42q-14 -19 -37.5 -23t-42.5 9q-67 45 -145 45q-106 0 -182 -76.5
t-76 -183.5q0 -108 76 -184t182 -76q82 0 153 49q20 14 43.5 11t36.5 -21q12 -20 8.5 -43.5t-22.5 -36.5q-97 -72 -219 -72q-154 0 -262.5 109.5t-108.5 263.5z" />
    <glyph glyph-name="guillemotleft" unicode="&#xab;" horiz-adv-x="1312" 
d="M612 123q-23 0 -43 14l-458 316q-33 26 -33 63q0 33 31 57l460 328q27 18 55.5 14t47.5 -28q19 -25 14 -56.5t-31 -48.5l-376 -266l376 -256q25 -17 30 -48.5t-13 -57.5q-24 -31 -60 -31zM586 516q0 32 28 57l463 328q25 18 54 14t47 -28q20 -25 15 -56t-30 -49
l-377 -266l377 -256q25 -17 30 -48.5t-13 -57.5q-21 -31 -60 -31q-26 0 -43 14l-459 316q-32 26 -32 63z" />
    <glyph glyph-name="registered" unicode="&#xae;" horiz-adv-x="1507" 
d="M754 41q-137 0 -262 53.5t-215.5 144.5t-144.5 216.5t-54 263.5q0 137 54 262.5t144.5 216t215.5 144t262 53.5q138 0 263.5 -53.5t216.5 -144t144.5 -216t53.5 -262.5q0 -138 -53.5 -263.5t-144.5 -216.5t-216.5 -144.5t-263.5 -53.5zM201 719q0 -113 43.5 -216
t117.5 -178t176.5 -119t215.5 -44t216 44t177 119t118 178t44 216q0 112 -44 214.5t-118 176.5t-177 118t-216 44t-215.5 -44t-176.5 -118t-117.5 -176.5t-43.5 -214.5zM487 418v606q0 24 18 40.5t42 16.5h272q100 0 172 -71.5t72 -171.5q0 -75 -42.5 -136.5t-111.5 -89.5
l140 -157q17 -18 15 -42t-20 -38q-15 -15 -38 -15q-25 0 -41 19l-193 217h-172v-178q0 -25 -15.5 -41.5t-37.5 -16.5q-24 0 -42 17t-18 41zM600 707h195h16h8q54 0 92.5 38.5t38.5 92.5q0 55 -38.5 93t-92.5 38h-219v-262z" />
    <glyph glyph-name="macron" unicode="&#xaf;" horiz-adv-x="548" 
d="M133 1487q-30 0 -42 24t0 48t42 24h283q30 0 43 -24t0.5 -48t-43.5 -24h-283z" />
    <glyph glyph-name="degree" unicode="&#xb0;" horiz-adv-x="614" 
d="M305 1436q102 0 175 -72.5t73 -171.5q0 -98 -72 -171t-170 -73q-103 0 -176.5 72.5t-73.5 171.5t72.5 171.5t171.5 72.5zM164 1192q0 -60 41.5 -100.5t103.5 -40.5q60 0 101 40.5t41 100.5q0 61 -41 101t-101 40q-62 0 -103.5 -40t-41.5 -101z" />
    <glyph glyph-name="plusminus" unicode="&#xb1;" horiz-adv-x="925" 
d="M164 627q-25 0 -43.5 18.5t-18.5 44.5q0 25 18.5 43.5t43.5 18.5h237v237q0 24 18 42t44 18t43.5 -18t17.5 -42v-237h238q26 0 43.5 -18.5t17.5 -43.5q0 -26 -17.5 -44.5t-43.5 -18.5h-238v-238q0 -26 -17.5 -42.5t-43.5 -16.5q-27 0 -44.5 16.5t-17.5 42.5v238h-237z
M102 152q0 24 18 42.5t42 18.5h600q25 0 42 -18t17 -43q0 -26 -17 -45t-42 -19h-600q-24 0 -42 19t-18 45z" />
    <glyph glyph-name="uni00B2" unicode="&#xb2;" horiz-adv-x="569" 
d="M82 856q-33 0 -43 29q-11 30 6 51q48 53 134 146.5t144.5 157.5t65.5 71q22 28 25.5 62t-13.5 65q-18 33 -50.5 51t-74.5 14q-92 -3 -143 -88q-9 -16 -26.5 -21t-36.5 3q-17 9 -23 27.5t2 37.5q68 119 221 135q70 3 127 -27.5t86 -88.5q30 -56 23 -119t-49 -113
q-8 -11 -106 -119t-163 -178h293q20 0 33.5 -14.5t13.5 -36.5q0 -19 -13.5 -32t-33.5 -13h-399z" />
    <glyph glyph-name="uni00B3" unicode="&#xb3;" horiz-adv-x="544" 
d="M252 864q-66 0 -125 29t-94 78q-10 15 -7 34.5t17 30.5q17 10 36.5 8t31.5 -16q24 -35 62 -53.5t79 -18.5q67 0 113.5 38.5t46.5 90.5q0 58 -46 95t-120 37q-56 0 -56 47t52 47q61 0 96 28.5t35 69.5t-38.5 68.5t-92.5 25.5q-60 0 -107 -37q-15 -10 -34 -7t-31 18
q-11 15 -8 34t18 29q70 57 160 57q93 3 160 -53t67 -135q0 -42 -21 -78.5t-57 -60.5q54 -29 84.5 -78t30.5 -107q0 -91 -74 -156t-178 -65z" />
    <glyph glyph-name="acute" unicode="&#xb4;" horiz-adv-x="313" 
d="M154 1473q-11 -20 -32.5 -21t-35.5 15t-6 38l49 135q13 35 45.5 38t53.5 -22t5 -57z" />
    <glyph glyph-name="paragraph" unicode="&#xb6;" horiz-adv-x="1021" 
d="M518 553q-183 0 -311.5 129.5t-128.5 312.5q0 119 58.5 220.5t160 161t221.5 59.5h74q29 0 49.5 -20.5t20.5 -51.5v-1294q0 -31 -20.5 -51.5t-49.5 -20.5q-30 0 -51 21t-21 51v483h-2zM803 70v1294q0 30 20.5 51t50.5 21q29 0 49.5 -20.5t20.5 -51.5v-1294
q0 -31 -20.5 -51.5t-49.5 -20.5q-30 0 -50.5 21t-20.5 51z" />
    <glyph glyph-name="periodcentered" unicode="&#xb7;" horiz-adv-x="346" 
d="M174 602q-40 0 -68 29t-28 69t28 68.5t68 28.5q38 0 67 -28.5t29 -68.5t-29 -69t-67 -29z" />
    <glyph glyph-name="cedilla" unicode="&#xb8;" horiz-adv-x="516" 
d="M106 -424q-43 13 -36 57q4 21 21 30.5t38 4.5q117 -25 184 21q32 23 39 53.5t-14 50.5q-23 29 -72 29q-47 0 -100 -23q-29 -12 -53 10t-9 52l78 176q9 20 27.5 26t36.5 -2t24.5 -26t-2.5 -37l-39 -86q50 8 101.5 -6.5t79.5 -48.5q44 -50 34 -123q-6 -73 -75 -123
q-109 -72 -263 -35z" />
    <glyph glyph-name="uni00B9" unicode="&#xb9;" horiz-adv-x="258" 
d="M164 836q-19 0 -33 14.5t-14 34.5v592l-29 -11q-19 -6 -35 2t-24 27q-7 20 0 38t26 26l92 36q24 9 46 -6q20 -11 20 -41v-663q0 -20 -14.5 -34.5t-34.5 -14.5z" />
    <glyph glyph-name="guillemotright" unicode="&#xbb;" horiz-adv-x="1269" 
d="M657 123q-35 0 -59 31q-19 26 -13.5 57.5t31.5 48.5l375 256l-377 266q-25 17 -29.5 48.5t15.5 56.5q18 24 46.5 28t55.5 -14l461 -328q31 -24 31 -57q0 -37 -33 -63l-459 -316q-20 -14 -45 -14zM92 154q-18 26 -14 57.5t28 48.5l379 256l-379 266q-25 17 -29 48.5
t15 56.5q18 24 47 28t56 -14l460 -328q31 -24 31 -57q0 -39 -35 -63l-456 -316q-20 -14 -43 -14q-39 0 -60 31z" />
    <glyph glyph-name="onequarter" unicode="&#xbc;" horiz-adv-x="1366" 
d="M164 674q-19 0 -33 14.5t-14 34.5v592l-29 -12q-19 -6 -35.5 2t-23.5 28q-8 19 -0.5 37t26.5 25l92 39q26 6 46 -7q20 -14 20 -41v-663q0 -20 -14.5 -34.5t-34.5 -14.5zM31 68l854 1351q13 20 35.5 24.5t44.5 -9.5q21 -10 26.5 -34t-8.5 -44l-852 -1352
q-12 -19 -34.5 -22.5t-45.5 8.5q-20 11 -26 33.5t6 44.5zM788 209l134 496q6 17 23.5 25.5t37.5 2.5q18 -6 27.5 -22.5t3.5 -34.5l-117 -432h221v198q0 19 13 33t32 14q20 0 35.5 -14t15.5 -33v-198h62q20 0 34.5 -13.5t14.5 -33.5q0 -19 -14.5 -32t-34.5 -13h-62v-105
q0 -19 -15.5 -33t-35.5 -14q-19 0 -32 14t-13 33v105h-287q-20 0 -36 16q-14 21 -7 41z" />
    <glyph glyph-name="onehalf" unicode="&#xbd;" horiz-adv-x="1329" 
d="M164 674q-19 0 -33 14.5t-14 34.5v592l-29 -12q-19 -6 -35.5 2t-23.5 28q-8 19 -0.5 37t26.5 25l92 39q26 6 46 -7q20 -14 20 -41v-663q0 -20 -14.5 -34.5t-34.5 -14.5zM31 68l854 1351q13 20 35.5 24.5t44.5 -9.5q21 -10 26.5 -34t-8.5 -44l-852 -1352
q-12 -19 -34.5 -22.5t-45.5 8.5q-20 11 -26 33.5t6 44.5zM797 29q-11 27 6 51q52 56 136 147.5t143.5 157t64.5 70.5q47 59 14 131q-16 31 -49.5 49.5t-75.5 15.5q-95 -6 -145 -90q-8 -15 -26.5 -21t-37.5 3q-17 9 -22.5 27.5t2.5 37.5q67 119 223 135q70 5 127 -26t86 -90
q31 -57 24 -120t-48 -114q-13 -15 -113 -125t-158 -172h293q21 0 34 -14.5t13 -36.5q0 -20 -12.5 -32.5t-34.5 -12.5h-399q-35 0 -45 29z" />
    <glyph glyph-name="threequarters" unicode="&#xbe;" horiz-adv-x="1662" 
d="M260 700q-67 0 -126.5 28.5t-92.5 78.5q-11 15 -8 35t18 30q17 10 36 8t30 -16q51 -71 143 -71q67 0 113.5 38.5t46.5 90.5q0 58 -46 94.5t-120 36.5q-55 0 -55 47t51 47q61 0 96 28.5t35 69.5t-38.5 68.5t-92.5 25.5q-62 0 -107 -36q-15 -11 -34 -8t-31 18t-9.5 34
t19.5 29q71 58 158 58q94 1 160.5 -54.5t66.5 -134.5q0 -90 -78 -139q55 -30 86 -78t31 -106q0 -91 -74 -156.5t-178 -65.5zM330 68l854 1351q13 20 35.5 24.5t44.5 -9.5q21 -10 26.5 -34t-8.5 -44l-852 -1352q-12 -19 -34.5 -22.5t-45.5 8.5q-20 11 -26 33.5t6 44.5z
M1087 209l134 496q6 17 23.5 25.5t37.5 2.5q18 -6 27.5 -22.5t3.5 -34.5l-117 -432h221v198q0 19 13 33t32 14q20 0 35.5 -14t15.5 -33v-198h62q20 0 34.5 -13.5t14.5 -33.5q0 -19 -14.5 -32t-34.5 -13h-62v-105q0 -19 -15.5 -33t-35.5 -14q-19 0 -32 14t-13 33v105h-287
q-20 0 -36 16q-14 21 -7 41z" />
    <glyph glyph-name="questiondown" unicode="&#xbf;" horiz-adv-x="1015" 
d="M559 1346q38 0 65 -27.5t27 -67.5q0 -38 -27 -64t-65 -26q-37 0 -64.5 26t-27.5 64q0 39 27.5 67t64.5 28zM125 166q52 -127 166.5 -197t255.5 -61q147 12 252 91t143 206q9 30 -5 57.5t-44 36.5q-29 9 -56.5 -5.5t-37.5 -45.5q-10 -28 -25.5 -54t-45 -58.5t-79.5 -53.5
t-114 -25q-106 -5 -175 46.5t-94 119.5q-17 40 -18.5 83.5t22.5 96t76 93.5q36 29 48 39t44 38.5t45 43t38.5 43.5t36.5 50.5t28.5 55t25 64.5t14.5 71.5t9 83.5q3 34 -17.5 59t-58.5 25q-62 0 -76 -65q-3 -62 -19.5 -116.5t-36 -90.5t-56 -77t-61 -62.5t-70.5 -59.5
q-4 -3 -6 -5t-5 -4.5t-6 -4.5q-94 -77 -120 -190t22 -228z" />
    <glyph glyph-name="Agrave" unicode="&#xc0;" horiz-adv-x="1394" 
d="M190 45q-20 -43 -64 -45t-70.5 32t-6.5 77l576 1282q22 45 70.5 45t70.5 -45l580 -1282q20 -43 -7.5 -77t-71.5 -32.5t-63 45.5l-145 328h-723zM406 528h581l-293 641zM573 1681q-16 34 4.5 59t53.5 22t47 -38l51 -137q9 -21 -5 -37.5t-36 -15.5t-35 22z" />
    <glyph glyph-name="Aacute" unicode="&#xc1;" horiz-adv-x="1394" 
d="M190 45q-20 -43 -64 -45t-70.5 32t-6.5 77l576 1282q22 45 70.5 45t70.5 -45l580 -1282q20 -43 -7.5 -77t-71.5 -32.5t-63 45.5l-145 328h-723zM406 528h581l-293 641zM659 1571l50 135q13 35 45.5 38t53.5 -22t5 -57l-80 -127q-11 -20 -32.5 -20.5t-35.5 15.5t-6 38z
" />
    <glyph glyph-name="Acircumflex" unicode="&#xc2;" horiz-adv-x="1394" 
d="M190 45q-20 -43 -64 -45t-70.5 32t-6.5 77l576 1282q22 45 70.5 45t70.5 -45l580 -1282q20 -43 -7.5 -77t-71.5 -32.5t-63 45.5l-145 328h-723zM406 528h581l-293 641zM489 1618l170 190q14 17 35 16.5t35 -16.5l174 -190q12 -14 11 -34t-15 -32q-15 -12 -34 -11.5
t-31 13.5l-140 152l-133 -152q-14 -14 -34.5 -14.5t-34.5 12.5q-13 13 -14.5 31.5t11.5 34.5z" />
    <glyph glyph-name="Atilde" unicode="&#xc3;" horiz-adv-x="1394" 
d="M190 45q-20 -43 -64 -45t-70.5 32t-6.5 77l576 1282q22 45 70.5 45t70.5 -45l580 -1282q20 -43 -7.5 -77t-71.5 -32.5t-63 45.5l-145 328h-723zM406 528h581l-293 641zM461 1659q-3 21 6 38t29 21q34 8 57 -30q13 -36 51 -33q16 5 68 44.5t90 39.5q51 0 88.5 -30.5
t48.5 -78.5q9 -45 -31 -55q-41 -13 -61 31q-5 18 -19.5 27.5t-35.5 6.5q-12 -5 -67 -43t-91 -38q-45 0 -83 27.5t-50 72.5z" />
    <glyph glyph-name="Adieresis" unicode="&#xc4;" horiz-adv-x="1394" 
d="M190 45q-20 -43 -64 -45t-70.5 32t-6.5 77l576 1282q22 45 70.5 45t70.5 -45l580 -1282q20 -43 -7.5 -77t-71.5 -32.5t-63 45.5l-145 328h-723zM406 528h581l-293 641zM526 1587q0 26 18 45t44 19q25 0 43 -19t18 -45t-18 -44.5t-43 -18.5q-26 0 -44 18.5t-18 44.5z
M737 1587q0 27 18.5 45.5t45.5 18.5q25 0 43 -19t18 -45t-18 -44.5t-43 -18.5q-27 0 -45.5 18t-18.5 45z" />
    <glyph glyph-name="Aring" unicode="&#xc5;" horiz-adv-x="1394" 
d="M190 45q-20 -43 -64 -45t-70.5 32t-6.5 77l576 1282q22 45 70.5 45t70.5 -45l580 -1282q20 -43 -7.5 -77t-71.5 -32.5t-63 45.5l-145 328h-723zM406 528h581l-293 641zM532 1720q0 65 48 112.5t114 47.5q67 0 115.5 -47.5t48.5 -112.5t-48.5 -112t-115.5 -47
q-66 0 -114 47t-48 112zM625 1720q0 -28 19.5 -45.5t49.5 -17.5q28 0 47 18t19 45q0 28 -19 47t-47 19q-29 0 -49 -19t-20 -47z" />
    <glyph glyph-name="AE" unicode="&#xc6;" horiz-adv-x="1949" 
d="M139 0q-18 0 -30 6q-30 13 -41.5 43.5t0.5 59.5l573 1280q9 22 28.5 34.5t43.5 12.5h293q12 0 18 -2h764q32 0 56 -23t24 -55t-23.5 -54t-56.5 -22h-725v-485h620q31 0 53.5 -23t22.5 -55t-22.5 -55t-53.5 -23h-620v-485h725q33 0 56.5 -22t23.5 -54t-24 -55t-56 -23
h-801q-32 0 -55 23t-23 55v295h-555l-145 -328q-19 -45 -70 -45zM424 526h485v754h-147z" />
    <glyph glyph-name="Ccedilla" unicode="&#xc7;" horiz-adv-x="1351" 
d="M684 -428q-20 6 -30 21.5t-7 35.5q4 21 21.5 30.5t38.5 4.5q117 -25 184 21q32 23 38.5 53.5t-14.5 50.5q-23 29 -71 29t-101 -23q-29 -12 -52.5 10t-8.5 52l59 135q-182 17 -333 118t-238.5 262t-87.5 347q0 196 98 363.5t266 265.5t365 98q230 0 410 -125
q27 -19 32.5 -50t-12.5 -59q-17 -28 -49.5 -33.5t-58.5 13.5q-149 98 -322 98q-155 0 -286.5 -77t-208 -208.5t-76.5 -285.5q0 -156 76.5 -288.5t208 -210t286.5 -77.5q185 0 340 111q26 20 57.5 15t51.5 -31q19 -26 14 -58t-31 -51q-175 -132 -399 -141l-37 -80
q50 8 101 -6.5t79 -48.5q45 -51 35 -123q-6 -73 -76 -123q-109 -72 -262 -35z" />
    <glyph glyph-name="Egrave" unicode="&#xc8;" horiz-adv-x="1167" 
d="M1016 154q31 0 54.5 -22t23.5 -54t-23.5 -55t-54.5 -23h-803q-32 0 -55 23t-23 55v1278q0 32 23 55t55 23h803q31 0 54.5 -23t23.5 -55t-23.5 -54t-54.5 -22h-727v-485h620q31 0 53.5 -23t22.5 -55t-22.5 -55t-53.5 -23h-620v-485h727zM496 1679q-16 34 4 59t53 22
t47 -38l51 -137q9 -21 -5 -37.5t-36 -15.5t-35 22z" />
    <glyph glyph-name="Eacute" unicode="&#xc9;" horiz-adv-x="1167" 
d="M1016 154q31 0 54.5 -22t23.5 -54t-23.5 -55t-54.5 -23h-803q-32 0 -55 23t-23 55v1278q0 32 23 55t55 23h803q31 0 54.5 -23t23.5 -55t-23.5 -54t-54.5 -22h-727v-485h620q31 0 53.5 -23t22.5 -55t-22.5 -55t-53.5 -23h-620v-485h727zM580 1569l49 135q13 35 45.5 38
t53.5 -22t5 -57l-80 -127q-11 -20 -32 -20.5t-35 15.5t-6 38z" />
    <glyph glyph-name="Ecircumflex" unicode="&#xca;" horiz-adv-x="1167" 
d="M1016 154q31 0 54.5 -22t23.5 -54t-23.5 -55t-54.5 -23h-803q-32 0 -55 23t-23 55v1278q0 32 23 55t55 23h803q31 0 54.5 -23t23.5 -55t-23.5 -54t-54.5 -22h-727v-485h620q31 0 53.5 -23t22.5 -55t-22.5 -55t-53.5 -23h-620v-485h727zM412 1616l170 190q14 17 34.5 16.5
t34.5 -16.5l174 -190q12 -14 11 -34t-15 -32q-15 -12 -34 -11.5t-31 13.5l-140 152l-133 -152q-14 -14 -34.5 -14.5t-34.5 12.5q-13 13 -14 31.5t12 34.5z" />
    <glyph glyph-name="Edieresis" unicode="&#xcb;" horiz-adv-x="1167" 
d="M1016 154q31 0 54.5 -22t23.5 -54t-23.5 -55t-54.5 -23h-803q-32 0 -55 23t-23 55v1278q0 32 23 55t55 23h803q31 0 54.5 -23t23.5 -55t-23.5 -54t-54.5 -22h-727v-485h620q31 0 53.5 -23t22.5 -55t-22.5 -55t-53.5 -23h-620v-485h727zM449 1585q0 27 17.5 45.5
t43.5 18.5q25 0 43 -19t18 -45t-18 -44.5t-43 -18.5q-26 0 -43.5 18.5t-17.5 44.5zM659 1585q0 27 18.5 45.5t45.5 18.5q25 0 43 -19t18 -45t-18 -44.5t-43 -18.5q-27 0 -45.5 18t-18.5 45z" />
    <glyph glyph-name="Igrave" unicode="&#xcc;" horiz-adv-x="385" 
d="M193 -4q-32 0 -55 23t-23 55v1288q0 32 23 54t55 22t54.5 -22t22.5 -54v-1288q0 -32 -22.5 -55t-54.5 -23zM66 1692q-17 33 3.5 58t53.5 21.5t47 -38.5l53 -142q9 -21 -3.5 -37.5t-34.5 -15.5t-35 21z" />
    <glyph glyph-name="Iacute" unicode="&#xcd;" horiz-adv-x="385" 
d="M193 -4q-32 0 -55 23t-23 55v1288q0 32 23 54t55 22t54.5 -22t22.5 -54v-1288q0 -32 -22.5 -55t-54.5 -23zM156 1583l55 143q13 34 45.5 37.5t52.5 -21.5t4 -59l-82 -133q-13 -22 -35 -22.5t-35.5 17t-4.5 38.5z" />
    <glyph glyph-name="Icircumflex" unicode="&#xce;" horiz-adv-x="385" 
d="M193 -4q-32 0 -55 23t-23 55v1288q0 32 23 54t55 22t54.5 -22t22.5 -54v-1288q0 -32 -22.5 -55t-54.5 -23zM-10 1628l170 191q12 15 34.5 15t34.5 -15l174 -191q18 -21 8.5 -46t-32.5 -30.5t-45 13.5l-139 151l-134 -151q-15 -16 -35 -16t-32.5 12.5t-16.5 30t13 36.5z
" />
    <glyph glyph-name="Idieresis" unicode="&#xcf;" horiz-adv-x="385" 
d="M193 -4q-32 0 -55 23t-23 55v1288q0 32 23 54t55 22t54.5 -22t22.5 -54v-1288q0 -32 -22.5 -55t-54.5 -23zM25 1577q0 26 17.5 44.5t43.5 18.5t45 -18.5t19 -44.5t-19 -45t-45 -19t-43.5 18.5t-17.5 45.5zM236 1577q0 26 18.5 44.5t44.5 18.5q25 0 43 -18.5t18 -44.5
t-18 -45t-43 -19q-26 0 -44.5 19t-18.5 45z" />
    <glyph glyph-name="Eth" unicode="&#xd0;" horiz-adv-x="1492" 
d="M694 1434q146 0 279 -56.5t229 -152.5t152.5 -229t56.5 -279q0 -145 -56.5 -277.5t-152.5 -229t-229 -153.5t-279 -57h-379q-30 2 -52 22.5t-23 49.5q-2 4 -2 8v575h-119q-32 0 -55 23t-23 55q0 31 23 54.5t55 23.5h119v514v35q0 30 23 52t56 22h377zM391 156l303 -2
q154 0 283.5 76t204.5 205.5t75 281.5q0 154 -75 283.5t-204.5 204.5t-283.5 75h-303v-469h281q32 0 55 -23.5t23 -54.5q0 -32 -23 -55t-55 -23h-281v-499z" />
    <glyph glyph-name="Ntilde" unicode="&#xd1;" horiz-adv-x="1425" 
d="M211 0q-31 0 -53.5 23.5t-22.5 56.5v1282q0 25 14.5 45t38.5 27q23 8 47 1.5t39 -26.5l861 -1104v1057q0 32 22 55t53 23q34 0 57 -23t23 -55v-1282q0 -26 -15 -47t-38 -29q-8 -4 -27 -4q-39 0 -61 31l-858 1104v-1055q0 -34 -23 -57t-57 -23zM475 1604q-3 21 6 38t29 21
q34 8 57 -31q13 -36 51 -33q16 5 68 44.5t90 39.5q51 0 88.5 -30t48.5 -78q9 -45 -30 -55q-19 -6 -36 2t-26 28q-11 41 -55 35q-19 -8 -48 -30t-56 -37t-54 -15q-45 0 -83 28t-50 73z" />
    <glyph glyph-name="Ograve" unicode="&#xd2;" horiz-adv-x="1613" 
d="M809 -14q-200 0 -369 98t-267.5 266.5t-98.5 368.5q0 198 98.5 367t267.5 267.5t369 98.5q197 0 365.5 -98.5t267 -267.5t98.5 -367q0 -199 -98.5 -368t-267 -267t-365.5 -98zM231 719q0 -156 77.5 -289t210.5 -211t290 -78q156 0 288.5 78t209.5 211t77 289
q0 117 -45.5 223.5t-122.5 183.5t-183.5 122.5t-223.5 45.5q-157 0 -290 -77t-210.5 -209.5t-77.5 -288.5zM688 1671q-16 34 4.5 59t53.5 22t47 -38l51 -137q9 -21 -5 -37.5t-36 -15.5t-35 22z" />
    <glyph glyph-name="Oacute" unicode="&#xd3;" horiz-adv-x="1613" 
d="M809 -14q-200 0 -369 98t-267.5 266.5t-98.5 368.5q0 198 98.5 367t267.5 267.5t369 98.5q197 0 365.5 -98.5t267 -267.5t98.5 -367q0 -199 -98.5 -368t-267 -267t-365.5 -98zM231 719q0 -156 77.5 -289t210.5 -211t290 -78q156 0 288.5 78t209.5 211t77 289
q0 117 -45.5 223.5t-122.5 183.5t-183.5 122.5t-223.5 45.5q-157 0 -290 -77t-210.5 -209.5t-77.5 -288.5zM774 1561l49 135q13 35 45.5 38t54 -22t5.5 -57l-80 -127q-11 -20 -32.5 -20.5t-35.5 15.5t-6 38z" />
    <glyph glyph-name="Ocircumflex" unicode="&#xd4;" horiz-adv-x="1613" 
d="M809 -14q-200 0 -369 98t-267.5 266.5t-98.5 368.5q0 198 98.5 367t267.5 267.5t369 98.5q197 0 365.5 -98.5t267 -267.5t98.5 -367q0 -199 -98.5 -368t-267 -267t-365.5 -98zM231 719q0 -156 77.5 -289t210.5 -211t290 -78q156 0 288.5 78t209.5 211t77 289
q0 117 -45.5 223.5t-122.5 183.5t-183.5 122.5t-223.5 45.5q-157 0 -290 -77t-210.5 -209.5t-77.5 -288.5zM604 1608l170 190q14 17 35 16.5t35 -16.5l174 -190q12 -14 11 -34t-15 -32q-15 -12 -34.5 -11.5t-31.5 13.5l-139 152l-133 -152q-14 -14 -35 -14.5t-35 12.5
q-13 13 -14 31.5t12 34.5z" />
    <glyph glyph-name="Otilde" unicode="&#xd5;" horiz-adv-x="1613" 
d="M809 -14q-200 0 -369 98t-267.5 266.5t-98.5 368.5q0 198 98.5 367t267.5 267.5t369 98.5q197 0 365.5 -98.5t267 -267.5t98.5 -367q0 -199 -98.5 -368t-267 -267t-365.5 -98zM231 719q0 -156 77.5 -289t210.5 -211t290 -78q156 0 288.5 78t209.5 211t77 289
q0 117 -45.5 223.5t-122.5 183.5t-183.5 122.5t-223.5 45.5q-157 0 -290 -77t-210.5 -209.5t-77.5 -288.5zM575 1649q-3 21 6 38t29 21q34 8 58 -31q12 -35 51 -32q16 5 68 44.5t90 39.5q51 0 88.5 -30.5t48.5 -78.5q9 -45 -31 -55q-42 -13 -61 30q-5 18 -20 28t-36 7
q-19 -8 -48 -30t-55.5 -37t-53.5 -15q-45 0 -83.5 28t-50.5 73z" />
    <glyph glyph-name="Odieresis" unicode="&#xd6;" horiz-adv-x="1613" 
d="M809 -14q-200 0 -369 98t-267.5 266.5t-98.5 368.5q0 198 98.5 367t267.5 267.5t369 98.5q197 0 365.5 -98.5t267 -267.5t98.5 -367q0 -199 -98.5 -368t-267 -267t-365.5 -98zM231 719q0 -156 77.5 -289t210.5 -211t290 -78q156 0 288.5 78t209.5 211t77 289
q0 117 -45.5 223.5t-122.5 183.5t-183.5 122.5t-223.5 45.5q-157 0 -290 -77t-210.5 -209.5t-77.5 -288.5zM641 1577q0 26 17.5 44.5t43.5 18.5q25 0 43.5 -18.5t18.5 -44.5t-18.5 -45t-43.5 -19q-26 0 -43.5 18.5t-17.5 45.5zM852 1577q0 27 18 45t45 18q25 0 43.5 -18.5
t18.5 -44.5t-18.5 -45t-43.5 -19q-27 0 -45 18.5t-18 45.5z" />
    <glyph glyph-name="multiply" unicode="&#xd7;" horiz-adv-x="751" 
d="M119 846q-17 17 -17 43t19 45q17 19 44 19t42 -19l170 -168l168 168q18 16 42 16t44 -18q18 -19 18 -43.5t-18 -42.5l-168 -166l168 -168q19 -19 19 -44t-19 -44t-44 -19t-42 19l-170 168l-168 -168q-19 -19 -44 -19t-42 19q-19 19 -19 43t19 43l168 168z" />
    <glyph glyph-name="Oslash" unicode="&#xd8;" horiz-adv-x="1613" 
d="M809 -14q-221 0 -412 125l-73 -91q-23 -29 -62 -26q-31 4 -45 20q-25 22 -26.5 52.5t20.5 52.5l72 88q-99 100 -154 232.5t-55 279.5q0 198 98.5 367t267.5 267.5t369 98.5q228 0 405 -113l64 78q20 25 52.5 27.5t55.5 -19.5t25 -53.5t-18 -54.5l-60 -72
q99 -102 153 -238t54 -288q0 -199 -98.5 -368t-267 -267t-365.5 -98zM231 719q0 -224 152 -389l725 880q-139 84 -299 84q-157 0 -290 -77t-210.5 -209.5t-77.5 -288.5zM498 231q142 -90 311 -90q156 0 288.5 78t209.5 211t77 289q0 114 -41 215.5t-116 179.5z" />
    <glyph glyph-name="Ugrave" unicode="&#xd9;" horiz-adv-x="1396" 
d="M698 -8q-117 0 -224.5 46t-185 124t-123.5 185t-46 224v787q0 32 23 55t55 23t54.5 -23t22.5 -55v-787q0 -175 124.5 -299.5t299.5 -124.5q176 0 299 124.5t123 299.5v787q0 32 24 55t56 23q31 0 54.5 -23t23.5 -55v-787q0 -156 -78 -289.5t-211.5 -211.5t-290.5 -78z
M584 1671q-16 34 4 59t53 22t47 -38l51 -137q9 -21 -4.5 -37.5t-35.5 -15.5t-35 22z" />
    <glyph glyph-name="Uacute" unicode="&#xda;" horiz-adv-x="1396" 
d="M698 -8q-117 0 -224.5 46t-185 124t-123.5 185t-46 224v787q0 32 23 55t55 23t54.5 -23t22.5 -55v-787q0 -175 124.5 -299.5t299.5 -124.5q176 0 299 124.5t123 299.5v787q0 32 24 55t56 23q31 0 54.5 -23t23.5 -55v-787q0 -156 -78 -289.5t-211.5 -211.5t-290.5 -78z
M668 1561l49 135q13 35 45.5 38t53.5 -22t5 -57l-80 -127q-11 -20 -32 -20.5t-35 15.5t-6 38z" />
    <glyph glyph-name="Ucircumflex" unicode="&#xdb;" horiz-adv-x="1396" 
d="M698 -8q-117 0 -224.5 46t-185 124t-123.5 185t-46 224v787q0 32 23 55t55 23t54.5 -23t22.5 -55v-787q0 -175 124.5 -299.5t299.5 -124.5q176 0 299 124.5t123 299.5v787q0 32 24 55t56 23q31 0 54.5 -23t23.5 -55v-787q0 -156 -78 -289.5t-211.5 -211.5t-290.5 -78z
M500 1608l170 190q14 17 34.5 16.5t34.5 -16.5l174 -190q12 -14 11 -34t-15 -32q-15 -12 -34 -11.5t-31 13.5l-139 152l-134 -152q-14 -14 -34.5 -14.5t-34.5 12.5q-13 13 -14 31.5t12 34.5z" />
    <glyph glyph-name="Udieresis" unicode="&#xdc;" horiz-adv-x="1396" 
d="M698 -8q-117 0 -224.5 46t-185 124t-123.5 185t-46 224v787q0 32 23 55t55 23t54.5 -23t22.5 -55v-787q0 -175 124.5 -299.5t299.5 -124.5q176 0 299 124.5t123 299.5v787q0 32 24 55t56 23q31 0 54.5 -23t23.5 -55v-787q0 -156 -78 -289.5t-211.5 -211.5t-290.5 -78z
M537 1577q0 26 17.5 44.5t43.5 18.5q25 0 43 -18.5t18 -44.5t-18 -45t-43 -19q-26 0 -43.5 18.5t-17.5 45.5zM748 1577q0 27 18 45t45 18q25 0 43 -18.5t18 -44.5t-18 -45t-43 -19q-27 0 -45 18.5t-18 45.5z" />
    <glyph glyph-name="Yacute" unicode="&#xdd;" horiz-adv-x="1247" 
d="M1157 1423q27 -17 34 -48t-9 -58l-480 -764l-2 -477q0 -31 -22.5 -53.5t-54.5 -22.5t-54 23t-22 55l2 475l-483 764q-17 28 -10.5 58.5t34.5 47.5q26 18 58 10.5t47 -34.5l430 -678l426 678q17 27 47.5 34t58.5 -10zM590 1561l49 135q13 35 45.5 38t53.5 -22t5 -57
l-79 -127q-11 -20 -32.5 -20.5t-35.5 15.5t-6 38z" />
    <glyph glyph-name="Thorn" unicode="&#xde;" horiz-adv-x="1124" 
d="M193 0q-32 0 -55 23t-23 55v1278q0 32 23 55t55 23t54.5 -23t22.5 -55v-215h348q177 0 300.5 -124.5t123.5 -301.5q0 -174 -124 -299t-300 -125h-348v-213q0 -32 -22.5 -55t-54.5 -23zM270 449h348q111 0 190 78t79 188q0 112 -79 191t-190 79h-348v-536z" />
    <glyph glyph-name="agrave" unicode="&#xe0;" horiz-adv-x="1120" 
d="M553 -6q-132 0 -243.5 65t-176.5 176.5t-65 243.5t65 244.5t176.5 178t243.5 65.5t244 -65.5t177.5 -178t65.5 -244.5v-8v-4v-395q0 -31 -21 -52.5t-50 -21.5q-31 0 -51.5 21.5t-20.5 52.5v90q-151 -168 -344 -168zM221 479q0 -137 97.5 -234.5t234.5 -97.5
q138 0 236 97.5t98 234.5q0 138 -98 236t-236 98q-137 0 -234.5 -98t-97.5 -236zM434 1200q-16 34 4.5 59t53.5 22t47 -38l51 -137q9 -21 -5 -37.5t-36 -15.5t-35 22z" />
    <glyph glyph-name="aacute" unicode="&#xe1;" horiz-adv-x="1120" 
d="M553 -6q-132 0 -243.5 65t-176.5 176.5t-65 243.5t65 244.5t176.5 178t243.5 65.5t244 -65.5t177.5 -178t65.5 -244.5v-8v-4v-395q0 -31 -21 -52.5t-50 -21.5q-31 0 -51.5 21.5t-20.5 52.5v90q-151 -168 -344 -168zM221 479q0 -137 97.5 -234.5t234.5 -97.5
q138 0 236 97.5t98 234.5q0 138 -98 236t-236 98q-137 0 -234.5 -98t-97.5 -236zM518 1087l49 136q13 35 45.5 38t54 -22t5.5 -57l-80 -127q-11 -20 -32.5 -21t-35.5 15t-6 38z" />
    <glyph glyph-name="acircumflex" unicode="&#xe2;" horiz-adv-x="1120" 
d="M553 -6q-132 0 -243.5 65t-176.5 176.5t-65 243.5t65 244.5t176.5 178t243.5 65.5t244 -65.5t177.5 -178t65.5 -244.5v-8v-4v-395q0 -31 -21 -52.5t-50 -21.5q-31 0 -51.5 21.5t-20.5 52.5v90q-151 -168 -344 -168zM221 479q0 -137 97.5 -234.5t234.5 -97.5
q138 0 236 97.5t98 234.5q0 138 -98 236t-236 98q-137 0 -234.5 -98t-97.5 -236zM350 1135l170 190q14 17 35 16.5t35 -16.5l174 -190q12 -14 11 -34t-15 -32q-15 -12 -34.5 -11.5t-31.5 13.5l-139 152l-133 -152q-14 -14 -35 -14.5t-35 12.5q-13 13 -14 31.5t12 34.5z" />
    <glyph glyph-name="atilde" unicode="&#xe3;" horiz-adv-x="1120" 
d="M553 -6q-132 0 -243.5 65t-176.5 176.5t-65 243.5t65 244.5t176.5 178t243.5 65.5t244 -65.5t177.5 -178t65.5 -244.5v-8v-4v-395q0 -31 -21 -52.5t-50 -21.5q-31 0 -51.5 21.5t-20.5 52.5v90q-151 -168 -344 -168zM221 479q0 -137 97.5 -234.5t234.5 -97.5
q138 0 236 97.5t98 234.5q0 138 -98 236t-236 98q-137 0 -234.5 -98t-97.5 -236zM319 1178q-3 21 6 38t29 21q34 8 58 -31q12 -35 51 -32q16 5 68 44t90 39q51 0 88.5 -30t48.5 -78q9 -45 -31 -55q-42 -13 -61 30q-5 18 -20 28t-36 7q-19 -8 -48 -30t-55.5 -37t-53.5 -15
q-45 0 -83.5 28t-50.5 73z" />
    <glyph glyph-name="adieresis" unicode="&#xe4;" horiz-adv-x="1120" 
d="M553 -6q-132 0 -243.5 65t-176.5 176.5t-65 243.5t65 244.5t176.5 178t243.5 65.5t244 -65.5t177.5 -178t65.5 -244.5v-8v-4v-395q0 -31 -21 -52.5t-50 -21.5q-31 0 -51.5 21.5t-20.5 52.5v90q-151 -168 -344 -168zM221 479q0 -137 97.5 -234.5t234.5 -97.5
q138 0 236 97.5t98 234.5q0 138 -98 236t-236 98q-137 0 -234.5 -98t-97.5 -236zM387 1106q0 26 18 44.5t44 18.5q25 0 43 -18.5t18 -44.5t-18 -45t-43 -19q-26 0 -44 19t-18 45zM598 1106q0 26 18 44.5t46 18.5q25 0 43 -18.5t18 -44.5t-18 -45t-43 -19q-27 0 -45.5 18.5
t-18.5 45.5z" />
    <glyph glyph-name="aring" unicode="&#xe5;" horiz-adv-x="1120" 
d="M553 -6q-132 0 -243.5 65t-176.5 176.5t-65 243.5t65 244.5t176.5 178t243.5 65.5t244 -65.5t177.5 -178t65.5 -244.5v-8v-4v-395q0 -31 -21 -52.5t-50 -21.5q-31 0 -51.5 21.5t-20.5 52.5v90q-151 -168 -344 -168zM221 479q0 -137 97.5 -234.5t234.5 -97.5
q138 0 236 97.5t98 234.5q0 138 -98 236t-236 98q-137 0 -234.5 -98t-97.5 -236zM393 1239q0 65 48 112.5t114 47.5q67 0 115.5 -47.5t48.5 -112.5t-48.5 -112.5t-115.5 -47.5q-66 0 -114 47.5t-48 112.5zM485 1239q0 -27 20 -45t50 -18q28 0 47 18t19 45q0 28 -19 47
t-47 19q-29 0 -49.5 -19t-20.5 -47z" />
    <glyph glyph-name="ae" unicode="&#xe6;" horiz-adv-x="1894" 
d="M547 -6q-132 0 -244 65t-177 176.5t-65 243.5q0 99 38.5 189t103.5 155.5t155 104.5t189 39q125 0 233 -60t174 -162q66 102 174 163t234 61q130 0 238.5 -61.5t170.5 -168t62 -233.5q0 -28 -17.5 -48.5t-43.5 -25.5q-4 -2 -13 -2l-723 -2q20 -115 105.5 -189t206.5 -85
q188 -20 329 100q27 12 57.5 3.5t41.5 -36.5q12 -27 1 -54t-38 -42q-148 -148 -414 -121q-167 14 -291 125v-57q0 -32 -21 -54t-50 -22q-31 0 -51.5 22t-20.5 54v63q-67 -67 -156 -104t-188 -37zM215 479q0 -137 97.5 -234.5t234.5 -97.5q138 0 236 97.5t98 234.5
q0 138 -98 236t-236 98q-137 0 -234.5 -98t-97.5 -236zM1036 543h643q-14 122 -103 203t-214 81q-124 0 -215.5 -79t-110.5 -205z" />
    <glyph glyph-name="ccedilla" unicode="&#xe7;" horiz-adv-x="954" 
d="M440 -424q-20 6 -30 21.5t-7 35.5q4 21 21.5 30.5t38.5 4.5q117 -25 184 21q32 23 39 53.5t-14 50.5q-23 29 -72 29q-47 0 -100 -23q-29 -12 -53 10t-9 52l60 137q-183 22 -306.5 160.5t-123.5 324.5q0 133 65.5 246t178 178.5t245.5 65.5q169 0 299 -103q27 -21 31 -52
t-17 -56t-52 -29.5t-56 15.5q-90 69 -205 69q-138 0 -236 -98t-98 -236t98 -235.5t236 -97.5q115 0 205 69q25 20 56.5 16t51.5 -30q20 -25 16 -57t-30 -52q-110 -87 -254 -100l-39 -84q50 8 101 -6.5t79 -48.5q45 -51 35 -123q-6 -73 -76 -123q-109 -72 -262 -35z" />
    <glyph glyph-name="egrave" unicode="&#xe8;" horiz-adv-x="1089" 
d="M514 4q-196 19 -321 155.5t-125 327.5q0 131 64.5 242t175.5 175.5t243 64.5q197 0 334 -135t137 -328q0 -27 -18.5 -48t-45.5 -26q-4 -2 -12 -2l-721 -2q19 -115 102 -189.5t208 -88.5q195 -21 331 98q27 12 56.5 5.5t40.5 -32.5q13 -27 2 -54t-39 -42
q-148 -148 -412 -121zM225 543h641q-12 122 -101 203t-214 81q-124 0 -215.5 -79t-110.5 -205zM430 1204q-16 34 4.5 59t53.5 22t47 -38l51 -137q9 -21 -5 -37.5t-36 -15.5t-35 22z" />
    <glyph glyph-name="eacute" unicode="&#xe9;" horiz-adv-x="1089" 
d="M514 4q-196 19 -321 155.5t-125 327.5q0 131 64.5 242t175.5 175.5t243 64.5q197 0 334 -135t137 -328q0 -27 -18.5 -48t-45.5 -26q-4 -2 -12 -2l-721 -2q19 -115 102 -189.5t208 -88.5q195 -21 331 98q27 12 56.5 5.5t40.5 -32.5q13 -27 2 -54t-39 -42
q-148 -148 -412 -121zM225 543h641q-12 122 -101 203t-214 81q-124 0 -215.5 -79t-110.5 -205zM514 1092l49 135q13 35 45.5 38t54 -22t5.5 -57l-80 -127q-11 -20 -32.5 -20.5t-35.5 15.5t-6 38z" />
    <glyph glyph-name="ecircumflex" unicode="&#xea;" horiz-adv-x="1089" 
d="M514 4q-196 19 -321 155.5t-125 327.5q0 131 64.5 242t175.5 175.5t243 64.5q197 0 334 -135t137 -328q0 -27 -18.5 -48t-45.5 -26q-4 -2 -12 -2l-721 -2q19 -115 102 -189.5t208 -88.5q195 -21 331 98q27 12 56.5 5.5t40.5 -32.5q13 -27 2 -54t-39 -42
q-148 -148 -412 -121zM225 543h641q-12 122 -101 203t-214 81q-124 0 -215.5 -79t-110.5 -205zM346 1139l170 190q14 17 35 16.5t35 -16.5l174 -190q12 -14 11 -34t-15 -32q-15 -12 -34.5 -11.5t-31.5 13.5l-139 152l-133 -152q-14 -14 -35 -14.5t-35 12.5q-13 13 -14 31.5
t12 34.5z" />
    <glyph glyph-name="edieresis" unicode="&#xeb;" horiz-adv-x="1089" 
d="M514 4q-196 19 -321 155.5t-125 327.5q0 131 64.5 242t175.5 175.5t243 64.5q197 0 334 -135t137 -328q0 -27 -18.5 -48t-45.5 -26q-4 -2 -12 -2l-721 -2q19 -115 102 -189.5t208 -88.5q195 -21 331 98q27 12 56.5 5.5t40.5 -32.5q13 -27 2 -54t-39 -42
q-148 -148 -412 -121zM225 543h641q-12 122 -101 203t-214 81q-124 0 -215.5 -79t-110.5 -205zM383 1110q0 27 17.5 45.5t43.5 18.5q25 0 43.5 -19t18.5 -45t-18.5 -44.5t-43.5 -18.5q-26 0 -43.5 18.5t-17.5 44.5zM594 1110q0 27 18 45.5t45 18.5q25 0 43.5 -19t18.5 -45
t-18.5 -44.5t-43.5 -18.5q-27 0 -45 18t-18 45z" />
    <glyph glyph-name="igrave" unicode="&#xec;" horiz-adv-x="344" 
d="M172 0q-32 0 -55 23t-23 55v813q0 32 23 55t55 23t55 -23t23 -55v-813q0 -32 -23 -55t-55 -23zM43 1223q-17 33 3.5 58t53.5 21.5t47 -38.5l54 -142q9 -21 -4 -37.5t-35 -15.5t-35 21z" />
    <glyph glyph-name="iacute" unicode="&#xed;" horiz-adv-x="344" 
d="M172 0q-32 0 -55 23t-23 55v813q0 32 23 55t55 23t55 -23t23 -55v-813q0 -32 -23 -55t-55 -23zM135 1114l55 143q13 34 45.5 37.5t53 -21.5t4.5 -59l-82 -133q-13 -22 -35 -22.5t-36 17t-5 38.5z" />
    <glyph glyph-name="icircumflex" unicode="&#xee;" horiz-adv-x="344" 
d="M172 0q-32 0 -55 23t-23 55v813q0 32 23 55t55 23t55 -23t23 -55v-813q0 -32 -23 -55t-55 -23zM-33 1159l170 191q12 15 35 15t35 -15l174 -191q18 -21 8 -46t-33 -30.5t-45 13.5l-139 151l-133 -151q-20 -21 -47 -14.5t-35 29.5t10 48z" />
    <glyph glyph-name="idieresis" unicode="&#xef;" horiz-adv-x="344" 
d="M172 0q-32 0 -55 23t-23 55v813q0 32 23 55t55 23t55 -23t23 -55v-813q0 -32 -23 -55t-55 -23zM4 1108q0 26 18 44.5t44 18.5t44.5 -18.5t18.5 -44.5t-18.5 -45t-44.5 -19t-44 19t-18 45zM215 1108q0 26 19 44.5t45 18.5q25 0 43 -18.5t18 -44.5t-18 -45t-43 -19
q-26 0 -45 19t-19 45z" />
    <glyph glyph-name="eth" unicode="&#xf0;" horiz-adv-x="1130" 
d="M563 -10q-134 0 -248 66.5t-180.5 180.5t-66.5 248t66.5 247.5t180.5 180t248 66.5q167 0 297 -100q-28 130 -92 264l-193 -33q-29 -5 -48.5 6.5t-22.5 38.5q-6 24 9 41.5t42 22.5l158 28q-16 27 -45 68q-17 28 -10.5 58.5t34.5 49.5q28 15 59 8.5t48 -32.5
q29 -41 75 -123l177 31q27 3 47 -8t24 -35q4 -26 -11 -44.5t-42 -23.5l-143 -25q44 -98 73.5 -206t41 -189t16 -156t3.5 -109t-3 -46v-4q-11 -197 -154 -334t-340 -137zM223 485q0 -139 100.5 -239.5t239.5 -100.5t238.5 100t99.5 240q0 141 -99 239.5t-239 98.5t-240 -99
t-100 -239z" />
    <glyph glyph-name="ntilde" unicode="&#xf1;" 
d="M162 0q-32 0 -55 23t-23 55v469q0 177 124.5 300.5t301.5 123.5q174 0 299 -124t125 -300v-469q0 -32 -23 -55t-55 -23q-34 0 -57 23t-23 55v469q0 110 -78 189t-188 79q-112 0 -191 -78.5t-79 -189.5v-469q0 -32 -23 -55t-55 -23zM274 1178q-3 21 6 38t29 21
q34 8 58 -31q12 -35 51 -32q16 5 67.5 44t89.5 39q51 0 89 -30t49 -78q9 -45 -31 -55q-42 -13 -61 30q-5 18 -20 28t-36 7q-19 -8 -48 -30t-55.5 -37t-53.5 -15q-45 0 -83.5 28t-50.5 73z" />
    <glyph glyph-name="ograve" unicode="&#xf2;" horiz-adv-x="1095" 
d="M547 -6q-132 0 -244 65t-177 176.5t-65 243.5q0 99 38.5 189t103.5 155.5t155 104.5t189 39q132 0 244 -65.5t177.5 -178t65.5 -244.5t-65.5 -243.5t-177.5 -176.5t-244 -65zM215 479q0 -137 97.5 -234.5t234.5 -97.5q138 0 236 97.5t98 234.5q0 138 -98 236t-236 98
q-137 0 -234.5 -98t-97.5 -236zM422 1204q-16 34 4 59t53 22t47 -38l52 -137q9 -21 -5 -37.5t-36 -15.5t-35 22z" />
    <glyph glyph-name="oacute" unicode="&#xf3;" horiz-adv-x="1095" 
d="M547 -6q-132 0 -244 65t-177 176.5t-65 243.5q0 99 38.5 189t103.5 155.5t155 104.5t189 39q132 0 244 -65.5t177.5 -178t65.5 -244.5t-65.5 -243.5t-177.5 -176.5t-244 -65zM215 479q0 -137 97.5 -234.5t234.5 -97.5q138 0 236 97.5t98 234.5q0 138 -98 236t-236 98
q-137 0 -234.5 -98t-97.5 -236zM508 1094l49 135q13 35 45.5 38t54 -22t5.5 -57l-80 -127q-11 -20 -32.5 -20.5t-35.5 15.5t-6 38z" />
    <glyph glyph-name="ocircumflex" unicode="&#xf4;" horiz-adv-x="1095" 
d="M547 -6q-132 0 -244 65t-177 176.5t-65 243.5q0 99 38.5 189t103.5 155.5t155 104.5t189 39q132 0 244 -65.5t177.5 -178t65.5 -244.5t-65.5 -243.5t-177.5 -176.5t-244 -65zM215 479q0 -137 97.5 -234.5t234.5 -97.5q138 0 236 97.5t98 234.5q0 138 -98 236t-236 98
q-137 0 -234.5 -98t-97.5 -236zM338 1141l170 190q14 17 35 16.5t35 -16.5l174 -190q12 -14 11 -34t-15 -32q-15 -12 -34.5 -11.5t-31.5 13.5l-139 152l-133 -152q-14 -14 -35 -14.5t-35 12.5q-13 13 -14 31.5t12 34.5z" />
    <glyph glyph-name="otilde" unicode="&#xf5;" horiz-adv-x="1095" 
d="M547 -6q-132 0 -244 65t-177 176.5t-65 243.5q0 99 38.5 189t103.5 155.5t155 104.5t189 39q132 0 244 -65.5t177.5 -178t65.5 -244.5t-65.5 -243.5t-177.5 -176.5t-244 -65zM215 479q0 -137 97.5 -234.5t234.5 -97.5q138 0 236 97.5t98 234.5q0 138 -98 236t-236 98
q-137 0 -234.5 -98t-97.5 -236zM309 1182q-3 21 6 38t29 21q34 8 57 -31q12 -35 52 -32q16 5 67.5 44.5t89.5 39.5q51 0 89 -30.5t49 -78.5q9 -45 -31 -55q-19 -6 -36 2t-26 28q-11 41 -55 35q-19 -8 -48 -30t-56 -37t-54 -15q-45 0 -83 28t-50 73z" />
    <glyph glyph-name="odieresis" unicode="&#xf6;" horiz-adv-x="1095" 
d="M547 -6q-132 0 -244 65t-177 176.5t-65 243.5q0 99 38.5 189t103.5 155.5t155 104.5t189 39q132 0 244 -65.5t177.5 -178t65.5 -244.5t-65.5 -243.5t-177.5 -176.5t-244 -65zM215 479q0 -137 97.5 -234.5t234.5 -97.5q138 0 236 97.5t98 234.5q0 138 -98 236t-236 98
q-137 0 -234.5 -98t-97.5 -236zM375 1110q0 27 17.5 45.5t43.5 18.5q25 0 43.5 -19t18.5 -45t-18.5 -44.5t-43.5 -18.5q-26 0 -43.5 18.5t-17.5 44.5zM586 1110q0 27 18 45.5t45 18.5q25 0 43.5 -19t18.5 -45t-18.5 -44.5t-43.5 -18.5q-27 0 -45 18t-18 45z" />
    <glyph glyph-name="divide" unicode="&#xf7;" horiz-adv-x="1042" 
d="M172 643q-29 0 -49.5 20.5t-20.5 51.5q0 29 20.5 49t49.5 20h696q31 0 51.5 -20t20.5 -49q0 -31 -20.5 -51.5t-51.5 -20.5h-696zM424 422q0 40 28 68t68 28t68 -28t28 -68t-28 -69t-68 -29t-68 29t-28 69zM424 1012q0 40 28 68t68 28t68 -28t28 -68t-28.5 -69.5
t-67.5 -29.5t-67.5 29.5t-28.5 69.5z" />
    <glyph glyph-name="oslash" unicode="&#xf8;" horiz-adv-x="1095" 
d="M547 -6q-143 0 -264 78l-47 -56q-15 -21 -43 -18q-22 0 -33 14q-18 15 -19.5 38t13.5 38l45 53q-64 66 -101 154t-37 184q0 99 38.5 189t103.5 155.5t155 104.5t189 39q157 0 280 -90l56 63q13 18 37 19.5t41 -13.5t18 -38t-14 -40l-56 -63q125 -141 125 -326
q0 -132 -65.5 -243.5t-177.5 -176.5t-244 -65zM215 479q0 -124 84 -221l430 502q-85 53 -182 53q-137 0 -234.5 -98t-97.5 -236zM385 190q75 -43 162 -43q138 0 236 97.5t98 234.5q0 116 -72 207z" />
    <glyph glyph-name="ugrave" unicode="&#xf9;" 
d="M162 971q33 0 55.5 -22.5t22.5 -55.5v-469q0 -111 79 -189.5t191 -78.5q110 0 188 79t78 189v469q0 34 23 56t57 22q33 0 55.5 -22.5t22.5 -55.5v-469q0 -174 -125 -299t-299 -125q-177 0 -301.5 124.5t-124.5 299.5v469q0 33 22.5 55.5t55.5 22.5zM389 1204
q-16 34 4.5 59t53.5 22t47 -38l51 -137q9 -21 -5 -37.5t-36 -15.5t-35 22z" />
    <glyph glyph-name="uacute" unicode="&#xfa;" 
d="M162 971q33 0 55.5 -22.5t22.5 -55.5v-469q0 -111 79 -189.5t191 -78.5q110 0 188 79t78 189v469q0 34 23 56t57 22q33 0 55.5 -22.5t22.5 -55.5v-469q0 -174 -125 -299t-299 -125q-177 0 -301.5 124.5t-124.5 299.5v469q0 33 22.5 55.5t55.5 22.5zM473 1094l49 135
q13 35 45.5 38t54 -22t5.5 -57l-80 -127q-11 -20 -32.5 -20.5t-35.5 15.5t-6 38z" />
    <glyph glyph-name="ucircumflex" unicode="&#xfb;" 
d="M162 971q33 0 55.5 -22.5t22.5 -55.5v-469q0 -111 79 -189.5t191 -78.5q110 0 188 79t78 189v469q0 34 23 56t57 22q33 0 55.5 -22.5t22.5 -55.5v-469q0 -174 -125 -299t-299 -125q-177 0 -301.5 124.5t-124.5 299.5v469q0 33 22.5 55.5t55.5 22.5zM305 1141l170 190
q14 17 35 16.5t35 -16.5l174 -190q12 -14 11 -34t-15 -32q-15 -12 -34.5 -11.5t-31.5 13.5l-139 152l-133 -152q-14 -14 -35 -14.5t-35 12.5q-13 13 -14 31.5t12 34.5z" />
    <glyph glyph-name="udieresis" unicode="&#xfc;" 
d="M162 971q33 0 55.5 -22.5t22.5 -55.5v-469q0 -111 79 -189.5t191 -78.5q110 0 188 79t78 189v469q0 34 23 56t57 22q33 0 55.5 -22.5t22.5 -55.5v-469q0 -174 -125 -299t-299 -125q-177 0 -301.5 124.5t-124.5 299.5v469q0 33 22.5 55.5t55.5 22.5zM342 1110
q0 27 17.5 45.5t43.5 18.5q25 0 43.5 -19t18.5 -45t-18.5 -44.5t-43.5 -18.5q-26 0 -43.5 18.5t-17.5 44.5zM553 1110q0 27 18 45.5t45 18.5q25 0 43.5 -19t18.5 -45t-18.5 -44.5t-43.5 -18.5q-27 0 -45 18t-18 45z" />
    <glyph glyph-name="yacute" unicode="&#xfd;" horiz-adv-x="983" 
d="M348 -358q-20 0 -35 6q-29 13 -40 44.5t1 59.5l138 314l-357 786q-13 31 -3 61.5t38 44.5q31 14 61.5 3.5t43.5 -39.5l301 -664l290 662q14 29 44 40t61 -2q28 -12 39 -42.5t-2 -61.5l-510 -1165q-23 -47 -70 -47zM457 1094l49 135q13 35 45.5 38t53.5 -22t5 -57
l-80 -127q-11 -20 -32 -20.5t-35 15.5t-6 38z" />
    <glyph glyph-name="thorn" unicode="&#xfe;" horiz-adv-x="1116" 
d="M567 -2q-201 0 -342 141v-475q0 -32 -21 -54t-50 -22q-30 0 -51 22t-21 54v1655q0 31 21.5 54.5t50.5 23.5t50 -23.5t21 -54.5v-492q68 68 156 106t186 38q99 0 189.5 -39t156 -104t104 -155t38.5 -188q0 -133 -65 -245t-177.5 -177t-245.5 -65zM236 485
q0 -138 96.5 -235.5t234.5 -97.5q137 0 234.5 97.5t97.5 235.5q0 137 -97.5 234.5t-234.5 97.5q-138 0 -234.5 -97.5t-96.5 -234.5z" />
    <glyph glyph-name="ydieresis" unicode="&#xff;" horiz-adv-x="983" 
d="M348 -358q-20 0 -35 6q-29 13 -40 44.5t1 59.5l138 314l-357 786q-13 31 -3 61.5t38 44.5q31 14 61.5 3.5t43.5 -39.5l301 -664l290 662q14 29 44 40t61 -2q28 -12 39 -42.5t-2 -61.5l-510 -1165q-23 -47 -70 -47zM326 1110q0 27 17.5 45.5t43.5 18.5q25 0 43.5 -19
t18.5 -45t-18.5 -44.5t-43.5 -18.5q-26 0 -43.5 18.5t-17.5 44.5zM537 1110q0 27 18 45.5t45 18.5q25 0 43.5 -19t18.5 -45t-18.5 -44.5t-43.5 -18.5q-27 0 -45 18t-18 45z" />
    <glyph glyph-name="Amacron" unicode="&#x100;" horiz-adv-x="1394" 
d="M190 45q-20 -43 -64 -45t-70.5 32t-6.5 77l576 1282q22 45 70.5 45t70.5 -45l580 -1282q20 -43 -7.5 -77t-71.5 -32.5t-63 45.5l-145 328h-723zM406 528h581l-293 641zM553 1577q-30 0 -42 24t0 48t42 24h283q30 0 43 -24t0.5 -48t-43.5 -24h-283z" />
    <glyph glyph-name="amacron" unicode="&#x101;" horiz-adv-x="1120" 
d="M553 -6q-132 0 -243.5 65t-176.5 176.5t-65 243.5t65 244.5t176.5 178t243.5 65.5t244 -65.5t177.5 -178t65.5 -244.5v-8v-4v-395q0 -31 -21 -52.5t-50 -21.5q-31 0 -51.5 21.5t-20.5 52.5v90q-151 -168 -344 -168zM221 479q0 -137 97.5 -234.5t234.5 -97.5
q138 0 236 97.5t98 234.5q0 138 -98 236t-236 98q-137 0 -234.5 -98t-97.5 -236zM414 1096q-30 0 -42 24t0 48t42 24h282q30 0 43 -24t0.5 -48t-43.5 -24h-282z" />
    <glyph glyph-name="Abreve" unicode="&#x102;" horiz-adv-x="1394" 
d="M190 45q-20 -43 -64 -45t-70.5 32t-6.5 77l576 1282q22 45 70.5 45t70.5 -45l580 -1282q20 -43 -7.5 -77t-71.5 -32.5t-63 45.5l-145 328h-723zM406 528h581l-293 641zM473 1724q0 21 13.5 35.5t33.5 14.5t34.5 -15t14.5 -35q0 -48 35.5 -81t87.5 -33q51 0 88 33.5
t37 80.5q0 21 13 35.5t34 14.5q20 0 33.5 -14.5t13.5 -35.5q0 -88 -63.5 -149.5t-155.5 -61.5q-91 0 -155 61.5t-64 149.5z" />
    <glyph glyph-name="abreve" unicode="&#x103;" horiz-adv-x="1120" 
d="M553 -6q-132 0 -243.5 65t-176.5 176.5t-65 243.5t65 244.5t176.5 178t243.5 65.5t244 -65.5t177.5 -178t65.5 -244.5v-8v-4v-395q0 -31 -21 -52.5t-50 -21.5q-31 0 -51.5 21.5t-20.5 52.5v90q-151 -168 -344 -168zM221 479q0 -137 97.5 -234.5t234.5 -97.5
q138 0 236 97.5t98 234.5q0 138 -98 236t-236 98q-137 0 -234.5 -98t-97.5 -236zM334 1241q0 20 13.5 34.5t33.5 14.5t34.5 -14.5t14.5 -34.5q0 -48 35.5 -81.5t87.5 -33.5q51 0 88 34t37 81q0 21 13 35t34 14q20 0 33.5 -14.5t13.5 -34.5q0 -88 -63.5 -149.5t-155.5 -61.5
q-91 0 -155 61.5t-64 149.5z" />
    <glyph glyph-name="Aogonek" unicode="&#x104;" horiz-adv-x="1394" 
d="M190 45q-20 -43 -64 -45t-70.5 32t-6.5 77l576 1282q22 45 70.5 45t70.5 -45l580 -1282q16 -37 -5 -72q-2 -2 -2 -4q-38 -69 -77 -119q-52 -67 -70 -105.5t-4 -80.5q6 -20 27.5 -38t48.5 -26q73 -13 122 43q15 13 36 13.5t34 -11.5q13 -15 13.5 -35.5t-11.5 -33.5
q-71 -74 -166 -74q-25 0 -49 4q-54 13 -92.5 48t-52.5 81q-11 32 -10.5 64t6.5 55.5t23.5 55t29.5 48.5t37 49l37 49q-12 12 -17 25l-145 328h-723zM406 528h581l-293 641z" />
    <glyph glyph-name="aogonek" unicode="&#x105;" horiz-adv-x="1120" 
d="M553 -6q-132 0 -243.5 65t-176.5 176.5t-65 243.5t65 244.5t176.5 178t243.5 65.5t244 -65.5t177.5 -178t65.5 -244.5v-8v-4v-395q0 -32 -20 -52q-32 -51 -68 -100q-51 -66 -69 -105t-4 -81q6 -20 27.5 -38t47.5 -26q74 -13 123 43q15 13 36 13.5t34 -11.5
q13 -15 13.5 -35.5t-11.5 -33.5q-71 -74 -166 -74q-25 0 -49 4q-54 13 -93 48t-53 81q-11 32 -10.5 64t6.5 55.5t23.5 55t29.5 48.5t37 49l37 50q-14 21 -14 45v90q-151 -168 -344 -168zM221 479q0 -137 97.5 -234.5t234.5 -97.5q138 0 236 97.5t98 234.5q0 138 -98 236
t-236 98q-137 0 -234.5 -98t-97.5 -236z" />
    <glyph glyph-name="Cacute" unicode="&#x106;" horiz-adv-x="1351" 
d="M811 -12q-197 0 -365 98t-266 266.5t-98 366.5q0 196 98 363.5t266 265.5t365 98q230 0 410 -125q27 -19 32.5 -50t-12.5 -59q-17 -28 -49.5 -33.5t-58.5 13.5q-149 98 -322 98q-155 0 -286.5 -77t-208 -208.5t-76.5 -285.5q0 -156 76.5 -288.5t208 -210t286.5 -77.5
q185 0 340 111q26 20 57.5 15t51.5 -31q19 -26 14 -58t-31 -51q-187 -141 -432 -141zM756 1604l55 143q13 34 45.5 37.5t52.5 -21.5t4 -59l-82 -133q-13 -22 -35 -22.5t-35.5 17t-4.5 38.5z" />
    <glyph glyph-name="cacute" unicode="&#x107;" horiz-adv-x="954" 
d="M557 -6q-133 0 -245.5 65.5t-178 178t-65.5 245.5t65.5 246t178 178.5t245.5 65.5q169 0 299 -103q27 -21 31 -52t-17 -56t-52 -29.5t-56 15.5q-90 69 -205 69q-138 0 -236 -98t-98 -236t98 -235.5t236 -97.5q115 0 205 69q25 20 56.5 16t51.5 -30q20 -25 16 -57t-30 -52
q-129 -102 -299 -102zM516 1120l55 144q13 34 45.5 37.5t53 -21.5t4.5 -59l-82 -134q-13 -22 -35 -22.5t-36 17t-5 38.5z" />
    <glyph glyph-name="Cdotaccent" unicode="&#x10a;" horiz-adv-x="1351" 
d="M811 -12q-197 0 -365 98t-266 266.5t-98 366.5q0 196 98 363.5t266 265.5t365 98q230 0 410 -125q27 -19 32.5 -50t-12.5 -59q-17 -28 -49.5 -33.5t-58.5 13.5q-149 98 -322 98q-155 0 -286.5 -77t-208 -208.5t-76.5 -285.5q0 -156 76.5 -288.5t208 -210t286.5 -77.5
q185 0 340 111q26 20 57.5 15t51.5 -31q19 -26 14 -58t-31 -51q-187 -141 -432 -141zM733 1616q0 25 18 43t44 18t44.5 -18t18.5 -43q0 -28 -18.5 -47t-44.5 -19t-44 19t-18 47z" />
    <glyph glyph-name="cdotaccent" unicode="&#x10b;" horiz-adv-x="954" 
d="M557 -6q-133 0 -245.5 65.5t-178 178t-65.5 245.5t65.5 246t178 178.5t245.5 65.5q169 0 299 -103q27 -21 31 -52t-17 -56t-52 -29.5t-56 15.5q-90 69 -205 69q-138 0 -236 -98t-98 -236t98 -235.5t236 -97.5q115 0 205 69q25 20 56.5 16t51.5 -30q20 -25 16 -57t-30 -52
q-129 -102 -299 -102zM492 1135q0 25 17.5 43t43.5 18t44.5 -18t18.5 -43q0 -28 -18.5 -47t-44.5 -19t-43.5 19t-17.5 47z" />
    <glyph glyph-name="Ccaron" unicode="&#x10c;" horiz-adv-x="1351" 
d="M811 -12q-197 0 -365 98t-266 266.5t-98 366.5q0 196 98 363.5t266 265.5t365 98q230 0 410 -125q27 -19 32.5 -50t-12.5 -59q-17 -28 -49.5 -33.5t-58.5 13.5q-149 98 -322 98q-155 0 -286.5 -77t-208 -208.5t-76.5 -285.5q0 -156 76.5 -288.5t208 -210t286.5 -77.5
q185 0 340 111q26 20 57.5 15t51.5 -31q19 -26 14 -58t-31 -51q-187 -141 -432 -141zM590 1726q-13 16 -12 34.5t14 31.5q10 12 33 12t37 -14l133 -152l139 152q12 13 31 13.5t34 -11.5q14 -12 15.5 -32t-10.5 -34l-175 -190q-13 -16 -34 -16q-22 0 -35 16z" />
    <glyph glyph-name="ccaron" unicode="&#x10d;" horiz-adv-x="954" 
d="M557 -6q-133 0 -245.5 65.5t-178 178t-65.5 245.5t65.5 246t178 178.5t245.5 65.5q169 0 299 -103q27 -21 31 -52t-17 -56t-52 -29.5t-56 15.5q-90 69 -205 69q-138 0 -236 -98t-98 -236t98 -235.5t236 -97.5q115 0 205 69q25 20 56.5 16t51.5 -30q20 -25 16 -57t-30 -52
q-129 -102 -299 -102zM348 1243q-13 16 -12 34.5t14 31.5q10 12 33 12t37 -14l133 -152l139 152q12 13 31.5 13.5t34.5 -11.5q14 -12 15 -32t-11 -34l-174 -190q-14 -17 -35 -17t-35 17z" />
    <glyph glyph-name="Dcaron" unicode="&#x10e;" horiz-adv-x="1386" 
d="M600 1434q146 0 279 -56.5t229 -152.5t152.5 -229t56.5 -279q0 -145 -56.5 -277.5t-152.5 -229t-229 -153.5t-279 -57h-379q-30 2 -52.5 22.5t-23.5 49.5q-2 4 -2 8v1245v35q0 30 23.5 52t56.5 22h377zM297 156l303 -2q153 0 282.5 76t205 205.5t75.5 281.5
q0 154 -75.5 283.5t-205 204.5t-282.5 75h-303v-1124zM365 1690q-13 16 -12 34t14 31q10 12 32 12q23 0 37 -14l133 -151l140 151q12 13 31 13.5t34 -11.5q14 -12 15 -31.5t-11 -33.5l-174 -191q-13 -16 -35 -16q-21 0 -34 16z" />
    <glyph glyph-name="dcaron" unicode="&#x10f;" horiz-adv-x="1136" 
d="M547 967q98 0 187.5 -37.5t156.5 -104.5v533q0 32 20.5 54t51.5 22q29 0 50 -22t21 -54v-866v-5v-8q0 -131 -65.5 -242.5t-177.5 -177t-244 -65.5t-244 65.5t-177 177t-65 242.5q0 202 142.5 345t343.5 143zM215 479q0 -138 97.5 -235t234.5 -97q138 0 236 97t98 235
q0 137 -98 234.5t-236 97.5q-137 0 -234.5 -97.5t-97.5 -234.5zM344 1624q-13 16 -12 34.5t14 31.5q10 12 33 12t37 -14l133 -152l139 152q12 13 31.5 13.5t34.5 -11.5q14 -12 15 -32t-11 -34l-174 -190q-14 -17 -35 -17t-35 17z" />
    <glyph glyph-name="Dcroat" unicode="&#x110;" horiz-adv-x="1492" 
d="M694 1434q146 0 279 -56.5t229 -152.5t152.5 -229t56.5 -279q0 -145 -56.5 -277.5t-152.5 -229t-229 -153.5t-279 -57h-379q-30 2 -52 22.5t-23 49.5q-2 4 -2 8v575h-119q-32 0 -55 23t-23 55q0 31 23 54.5t55 23.5h119v514v35q0 30 23 52t56 22h377zM391 156l303 -2
q154 0 283.5 76t204.5 205.5t75 281.5q0 154 -75 283.5t-204.5 204.5t-283.5 75h-303v-469h281q32 0 55 -23.5t23 -54.5q0 -32 -23 -55t-55 -23h-281v-499z" />
    <glyph glyph-name="dcroat" unicode="&#x111;" horiz-adv-x="1185" 
d="M547 967q98 0 187.5 -37.5t156.5 -104.5v308h-291q-26 0 -44.5 19.5t-18.5 45.5q0 25 18.5 43.5t44.5 18.5h291v98q0 32 20.5 54t51.5 22q29 0 50 -22t21 -54v-98h72q27 0 45 -18.5t18 -43.5q0 -27 -18 -46t-45 -19h-72v-641v-5v-8q0 -131 -65.5 -242.5t-177.5 -177
t-244 -65.5t-244 65.5t-177 177t-65 242.5q0 202 142.5 345t343.5 143zM215 479q0 -138 97.5 -235t234.5 -97q138 0 236 97t98 235q0 137 -98 234.5t-236 97.5q-137 0 -234.5 -97.5t-97.5 -234.5z" />
    <glyph glyph-name="Emacron" unicode="&#x112;" horiz-adv-x="1167" 
d="M1016 154q31 0 54.5 -22t23.5 -54t-23.5 -55t-54.5 -23h-803q-32 0 -55 23t-23 55v1278q0 32 23 55t55 23h803q31 0 54.5 -23t23.5 -55t-23.5 -54t-54.5 -22h-727v-485h620q31 0 53.5 -23t22.5 -55t-22.5 -55t-53.5 -23h-620v-485h727zM475 1575q-30 0 -42 24t0 48t42 24
h283q30 0 43 -24t0.5 -48t-43.5 -24h-283z" />
    <glyph glyph-name="emacron" unicode="&#x113;" horiz-adv-x="1089" 
d="M514 4q-196 19 -321 155.5t-125 327.5q0 131 64.5 242t175.5 175.5t243 64.5q197 0 334 -135t137 -328q0 -27 -18.5 -48t-45.5 -26q-4 -2 -12 -2l-721 -2q19 -115 102 -189.5t208 -88.5q195 -21 331 98q27 12 56.5 5.5t40.5 -32.5q13 -27 2 -54t-39 -42
q-148 -148 -412 -121zM225 543h641q-12 122 -101 203t-214 81q-124 0 -215.5 -79t-110.5 -205zM410 1098q-30 0 -42 24t0 48t42 24h282q30 0 43 -24t0.5 -48t-43.5 -24h-282z" />
    <glyph glyph-name="Edotaccent" unicode="&#x116;" horiz-adv-x="1167" 
d="M1016 154q31 0 54.5 -22t23.5 -54t-23.5 -55t-54.5 -23h-803q-32 0 -55 23t-23 55v1278q0 32 23 55t55 23h803q31 0 54.5 -23t23.5 -55t-23.5 -54t-54.5 -22h-727v-485h620q31 0 53.5 -23t22.5 -55t-22.5 -55t-53.5 -23h-620v-485h727zM555 1606q0 25 17.5 43t43.5 18
t45 -18t19 -43q0 -28 -19 -47t-45 -19t-43.5 19t-17.5 47z" />
    <glyph glyph-name="edotaccent" unicode="&#x117;" horiz-adv-x="1089" 
d="M514 4q-196 19 -321 155.5t-125 327.5q0 131 64.5 242t175.5 175.5t243 64.5q197 0 334 -135t137 -328q0 -27 -18.5 -48t-45.5 -26q-4 -2 -12 -2l-721 -2q19 -115 102 -189.5t208 -88.5q195 -21 331 98q27 12 56.5 5.5t40.5 -32.5q13 -27 2 -54t-39 -42
q-148 -148 -412 -121zM225 543h641q-12 122 -101 203t-214 81q-124 0 -215.5 -79t-110.5 -205zM489 1128q0 25 18 43.5t44 18.5t44.5 -18.5t18.5 -43.5q0 -28 -18.5 -46.5t-44.5 -18.5t-44 18.5t-18 46.5z" />
    <glyph glyph-name="Eogonek" unicode="&#x118;" horiz-adv-x="1167" 
d="M1016 154q31 0 54.5 -22t23.5 -54t-23.5 -55t-54.5 -23h-162q-38 -64 -70 -104q-51 -66 -69 -105.5t-4 -81.5q6 -20 27 -37.5t48 -25.5q74 -13 123 43q15 13 36 13.5t34 -11.5q13 -15 13.5 -36t-11.5 -34q-71 -74 -166 -74q-25 0 -49 4q-54 13 -92.5 48.5t-52.5 81.5
q-11 32 -10.5 64t6.5 55.5t23.5 55t29.5 48.5t37 49q7 8 18.5 25t15.5 22h-528q-32 0 -55 23t-23 55v1278q0 32 23 55t55 23h803q31 0 54.5 -23t23.5 -55t-23.5 -54t-54.5 -22h-727v-485h620q31 0 53.5 -23t22.5 -55t-22.5 -55t-53.5 -23h-620v-485h727z" />
    <glyph glyph-name="eogonek" unicode="&#x119;" horiz-adv-x="1089" 
d="M514 4q-196 19 -321 155.5t-125 327.5q0 131 64.5 242t175.5 175.5t243 64.5q197 0 334 -135t137 -328q0 -27 -18.5 -48t-45.5 -26q-4 -2 -12 -2l-721 -2q19 -115 102 -189.5t208 -88.5q195 -21 331 98q27 12 56.5 5.5t40.5 -32.5q13 -27 2 -54t-39 -42
q-114 -114 -295 -123q-38 -64 -70 -104q-52 -66 -70 -105.5t-4 -81.5q6 -20 27.5 -37.5t48.5 -25.5q74 -13 123 43q15 13 36 13.5t34 -11.5q13 -15 13.5 -36t-11.5 -34q-71 -74 -166 -74q-19 0 -49 5q-54 13 -93 48t-53 81q-11 32 -10.5 64t6.5 55.5t23.5 55t29.5 48.5
t37 49q30 40 35 49h-4zM225 543h641q-12 122 -101 203t-214 81q-124 0 -215.5 -79t-110.5 -205z" />
    <glyph glyph-name="Ecaron" unicode="&#x11a;" horiz-adv-x="1167" 
d="M1016 154q31 0 54.5 -22t23.5 -54t-23.5 -55t-54.5 -23h-803q-32 0 -55 23t-23 55v1278q0 32 23 55t55 23h803q31 0 54.5 -23t23.5 -55t-23.5 -54t-54.5 -22h-727v-485h620q31 0 53.5 -23t22.5 -55t-22.5 -55t-53.5 -23h-620v-485h727zM412 1714q-13 16 -12 34.5t14 31.5
q10 12 32 12q23 0 37 -14l133 -152l140 152q12 13 31 13.5t34 -11.5q14 -12 15 -32t-11 -34l-174 -190q-14 -17 -35 -17q-20 0 -34 17z" />
    <glyph glyph-name="ecaron" unicode="&#x11b;" horiz-adv-x="1089" 
d="M514 4q-196 19 -321 155.5t-125 327.5q0 131 64.5 242t175.5 175.5t243 64.5q197 0 334 -135t137 -328q0 -27 -18.5 -48t-45.5 -26q-4 -2 -12 -2l-721 -2q19 -115 102 -189.5t208 -88.5q195 -21 331 98q27 12 56.5 5.5t40.5 -32.5q13 -27 2 -54t-39 -42
q-148 -148 -412 -121zM225 543h641q-12 122 -101 203t-214 81q-124 0 -215.5 -79t-110.5 -205zM346 1239q-13 16 -12 34.5t14 31.5q10 12 33 12t37 -14l133 -152l139 152q12 13 31.5 13.5t34.5 -11.5q14 -12 15 -32t-11 -34l-174 -190q-14 -17 -35 -17t-35 17z" />
    <glyph glyph-name="Gbreve" unicode="&#x11e;" horiz-adv-x="1372" 
d="M811 -12q-198 0 -366 97.5t-265.5 265t-97.5 364.5t97.5 364.5t265.5 265t366 97.5q220 0 406 -123q26 -17 32.5 -50t-10.5 -59q-20 -27 -51.5 -32.5t-57.5 12.5q-146 96 -319 96q-155 0 -286.5 -76t-208 -207.5t-76.5 -287.5q0 -115 45.5 -221t121.5 -183t182 -122.5
t222 -45.5q158 0 305 93v401h-321q-32 0 -54 23t-22 55q0 33 22 56.5t54 23.5h399q32 0 54 -23.5t22 -56.5v-522q0 -42 -31 -64q-195 -141 -428 -141zM592 1767q0 21 13.5 35.5t33.5 14.5t34.5 -15t14.5 -35q0 -48 35.5 -81t87.5 -33q51 0 88 33.5t37 80.5q0 21 13 35.5
t34 14.5q20 0 33.5 -14.5t13.5 -35.5q0 -88 -63.5 -149.5t-155.5 -61.5q-91 0 -155 61.5t-64 149.5z" />
    <glyph glyph-name="gbreve" unicode="&#x11f;" horiz-adv-x="1132" 
d="M553 -4q-131 0 -242.5 65t-177 176.5t-65.5 243.5q0 131 65.5 242.5t177 176.5t242.5 65t242.5 -65t177 -176.5t65.5 -242.5v-2v-403q0 -191 -128 -328.5t-324 -157.5q-23 -2 -74 -2q-157 0 -276 74q-30 13 -41 43t0 59q14 28 43 40t59 -1q116 -75 274 -57
q135 12 223.5 103.5t88.5 226.5v47q-137 -127 -330 -127zM223 481q0 -137 97 -234t233 -97q137 0 233.5 96.5t96.5 234.5q0 137 -96.5 233.5t-233.5 96.5q-135 0 -232.5 -97t-97.5 -233zM334 1284q0 20 13.5 34.5t33.5 14.5t34.5 -14.5t14.5 -34.5q0 -48 35.5 -81.5
t87.5 -33.5q51 0 88 34t37 81q0 21 13 35t34 14q20 0 33.5 -14.5t13.5 -34.5q0 -88 -63.5 -149.5t-155.5 -61.5q-91 0 -155 61.5t-64 149.5z" />
    <glyph glyph-name="Gdotaccent" unicode="&#x120;" horiz-adv-x="1372" 
d="M811 -12q-198 0 -366 97.5t-265.5 265t-97.5 364.5t97.5 364.5t265.5 265t366 97.5q220 0 406 -123q26 -17 32.5 -50t-10.5 -59q-20 -27 -51.5 -32.5t-57.5 12.5q-146 96 -319 96q-155 0 -286.5 -76t-208 -207.5t-76.5 -287.5q0 -115 45.5 -221t121.5 -183t182 -122.5
t222 -45.5q158 0 305 93v401h-321q-32 0 -54 23t-22 55q0 33 22 56.5t54 23.5h399q32 0 54 -23.5t22 -56.5v-522q0 -42 -31 -64q-195 -141 -428 -141zM750 1608q0 25 17.5 43t43.5 18t44.5 -18t18.5 -43q0 -28 -18.5 -47t-44.5 -19t-43.5 19t-17.5 47z" />
    <glyph glyph-name="gdotaccent" unicode="&#x121;" horiz-adv-x="1132" 
d="M553 -4q-131 0 -242.5 65t-177 176.5t-65.5 243.5q0 131 65.5 242.5t177 176.5t242.5 65t242.5 -65t177 -176.5t65.5 -242.5v-2v-403q0 -191 -128 -328.5t-324 -157.5q-23 -2 -74 -2q-157 0 -276 74q-30 13 -41 43t0 59q14 28 43 40t59 -1q116 -75 274 -57
q135 12 223.5 103.5t88.5 226.5v47q-137 -127 -330 -127zM223 481q0 -137 97 -234t233 -97q137 0 233.5 96.5t96.5 234.5q0 137 -96.5 233.5t-233.5 96.5q-135 0 -232.5 -97t-97.5 -233zM494 1124q0 25 17.5 43.5t43.5 18.5t44.5 -18.5t18.5 -43.5q0 -28 -18.5 -46.5
t-44.5 -18.5t-43.5 18.5t-17.5 46.5z" />
    <glyph glyph-name="uni0122" unicode="&#x122;" horiz-adv-x="1372" 
d="M811 -12q-198 0 -366 97.5t-265.5 265t-97.5 364.5t97.5 364.5t265.5 265t366 97.5q220 0 406 -123q26 -17 32.5 -50t-10.5 -59q-20 -27 -51.5 -32.5t-57.5 12.5q-146 96 -319 96q-155 0 -286.5 -76t-208 -207.5t-76.5 -287.5q0 -115 45.5 -221t121.5 -183t182 -122.5
t222 -45.5q158 0 305 93v401h-321q-32 0 -54 23t-22 55q0 33 22 56.5t54 23.5h399q32 0 54 -23.5t22 -56.5v-522q0 -42 -31 -64q-195 -141 -428 -141zM684 -233l55 143q12 34 44.5 37t53.5 -22t5 -58l-82 -131q-13 -22 -35 -23t-36 16t-5 38z" />
    <glyph glyph-name="uni0123" unicode="&#x123;" horiz-adv-x="1132" 
d="M553 -4q-131 0 -242.5 65t-177 176.5t-65.5 243.5q0 131 65.5 242.5t177 176.5t242.5 65t242.5 -65t177 -176.5t65.5 -242.5v-2v-403q0 -191 -128 -328.5t-324 -157.5q-23 -2 -74 -2q-157 0 -276 74q-30 13 -41 43t0 59q14 28 43 40t59 -1q116 -75 274 -57
q135 12 223.5 103.5t88.5 226.5v47q-137 -127 -330 -127zM223 481q0 -137 97 -234t233 -97q137 0 233.5 96.5t96.5 234.5q0 137 -96.5 233.5t-233.5 96.5q-135 0 -232.5 -97t-97.5 -233zM496 1159l84 133q13 22 35 23t35 -16.5t3 -38.5l-53 -142q-14 -35 -47 -38.5
t-53.5 21.5t-3.5 58z" />
    <glyph glyph-name="Hbar" unicode="&#x126;" horiz-adv-x="1374" 
d="M1145 1436q31 0 54.5 -23t23.5 -55v-141h53q33 0 55.5 -20t22.5 -50q0 -31 -22.5 -50.5t-55.5 -19.5h-53v-1001q0 -32 -23.5 -55t-54.5 -23t-54.5 23t-23.5 55v557h-750v-557q0 -32 -22.5 -55t-54.5 -23t-54 23t-22 55v1001h-66q-33 0 -55.5 19.5t-22.5 50.5
q0 30 22.5 50t55.5 20h66v141q0 32 22 55t54 23t54.5 -23t22.5 -55v-141h750v141q0 32 23.5 55t54.5 23zM317 788h750v289h-750v-289z" />
    <glyph glyph-name="hbar" unicode="&#x127;" horiz-adv-x="1056" 
d="M184 0q-32 0 -55 23t-23 55v1061h-77q-27 0 -45.5 15.5t-18.5 41.5q0 25 18.5 40t45.5 15h77v109q0 32 23 55t55 23t55 -23t23 -55v-109h270q27 0 44.5 -14.5t17.5 -40.5t-17.5 -41.5t-44.5 -15.5h-270v-262q118 94 268 94q175 0 299.5 -124t124.5 -300v-469
q0 -32 -22.5 -55t-54.5 -23t-55 23t-23 55v469q0 110 -79.5 189t-189.5 79t-189 -79t-79 -189v-469q0 -32 -23 -55t-55 -23z" />
    <glyph glyph-name="Itilde" unicode="&#x128;" horiz-adv-x="385" 
d="M193 -4q-32 0 -55 23t-23 55v1288q0 32 23 54t55 22t54.5 -22t22.5 -54v-1288q0 -32 -22.5 -55t-54.5 -23zM-41 1638q-3 21 6 38.5t29 21.5q34 8 57 -31q13 -36 51 -33q16 5 68 44.5t90 39.5q51 0 88.5 -30t48.5 -78q9 -46 -30 -56q-19 -6 -36 2.5t-26 28.5
q-11 41 -55 35q-19 -8 -48 -30t-56 -37t-54 -15q-45 0 -83 27.5t-50 72.5z" />
    <glyph glyph-name="itilde" unicode="&#x129;" horiz-adv-x="344" 
d="M172 0q-32 0 -55 23t-23 55v813q0 32 23 55t55 23t55 -23t23 -55v-813q0 -32 -23 -55t-55 -23zM-61 1169q-3 21 6 38.5t28 21.5q34 8 58 -31q13 -36 51 -33q16 5 68 44.5t90 39.5q51 0 88.5 -30t48.5 -78q9 -46 -31 -56q-41 -13 -61 31q-5 18 -20 28t-36 7
q-19 -8 -48 -30t-55.5 -37t-53.5 -15q-45 0 -83 27.5t-50 72.5z" />
    <glyph glyph-name="Imacron" unicode="&#x12a;" horiz-adv-x="385" 
d="M193 -4q-32 0 -55 23t-23 55v1288q0 32 23 54t55 22t54.5 -22t22.5 -54v-1288q0 -32 -22.5 -55t-54.5 -23zM33 1567q-30 0 -42 24t0 48t42 24h323q30 0 43 -24t0.5 -48t-43.5 -24h-323z" />
    <glyph glyph-name="imacron" unicode="&#x12b;" horiz-adv-x="344" 
d="M172 0q-32 0 -55 23t-23 55v813q0 32 23 55t55 23t55 -23t23 -55v-813q0 -32 -23 -55t-55 -23zM10 1098q-30 0 -42 24t0 48t42 24h324q30 0 43 -24t0.5 -48t-43.5 -24h-324z" />
    <glyph glyph-name="Iogonek" unicode="&#x12e;" horiz-adv-x="385" 
d="M213 -428q-25 0 -49 4q-54 13 -93 48t-53 81q-11 32 -10.5 64t6.5 55.5t23.5 55t29.5 48.5t37 49l31 43q-20 23 -20 54v1288q0 32 23 54t55 22t54.5 -22t22.5 -54v-1288q0 -31 -20 -51q-19 -37 -68 -103q-51 -66 -69 -105t-4 -81q6 -20 27.5 -38t47.5 -26q74 -13 123 43
q15 13 36 13.5t34 -11.5q13 -15 13.5 -35.5t-11.5 -33.5q-71 -74 -166 -74z" />
    <glyph glyph-name="iogonek" unicode="&#x12f;" horiz-adv-x="344" 
d="M172 1063q-26 0 -43.5 18.5t-17.5 46.5q0 25 17.5 43.5t43.5 18.5t45 -18.5t19 -43.5q0 -28 -19 -46.5t-45 -18.5zM-20 -328q-11 32 -10.5 64t6.5 56t23.5 55t30 48.5t36.5 49.5q48 67 53 75q-25 25 -25 58v813q0 32 23 55t55 23t55 -23t23 -55v-813q0 -32 -23 -55
q0 -8 -6 -17q-36 -64 -78 -119q-51 -66 -69 -105t-4 -81q6 -20 27 -37.5t48 -25.5q74 -13 123 43q15 13 36 13.5t34 -11.5q13 -15 13.5 -36t-11.5 -34q-71 -74 -166 -74q-25 0 -49 4q-54 13 -92.5 48t-52.5 81z" />
    <glyph glyph-name="Idotaccent" unicode="&#x130;" horiz-adv-x="385" 
d="M193 -4q-32 0 -55 23t-23 55v1288q0 32 23 54t55 22t54.5 -22t22.5 -54v-1288q0 -32 -22.5 -55t-54.5 -23zM133 1597q0 25 18 43.5t44 18.5t44.5 -18.5t18.5 -43.5q0 -28 -18.5 -46.5t-44.5 -18.5t-44 18.5t-18 46.5z" />
    <glyph glyph-name="dotlessi" unicode="&#x131;" horiz-adv-x="344" 
d="M172 0q-32 0 -55 23t-23 55v813q0 32 23 55t55 23t55 -23t23 -55v-813q0 -32 -23 -55t-55 -23z" />
    <glyph glyph-name="uni0136" unicode="&#x136;" horiz-adv-x="1177" 
d="M1118 127q22 -23 19.5 -55t-27.5 -54q-21 -18 -51 -18q-34 0 -58 27l-542 628l-180 -200v-377q0 -32 -23 -55t-55 -23t-55 23t-23 55v1278q0 32 23 55t55 23t55 -23t23 -55v-672l661 723q20 25 52 26.5t57 -20.5q23 -22 24.5 -52.5t-18.5 -55.5l-494 -535zM453 -233
l55 143q12 34 44.5 37t53 -22t4.5 -58l-82 -131q-13 -22 -35 -23t-35.5 16t-4.5 38z" />
    <glyph glyph-name="uni0137" unicode="&#x137;" horiz-adv-x="913" 
d="M164 0q-31 0 -54.5 23.5t-23.5 54.5v1280q0 32 23.5 55t54.5 23q32 0 55 -23t23 -55v-785l487 375q27 21 58.5 17t52.5 -31q20 -27 15 -57.5t-32 -51.5l-362 -278l375 -418q20 -23 19 -55t-24 -54q-23 -20 -51 -20q-32 0 -57 25l-387 428l-94 -72v-303q0 -31 -23 -54.5
t-55 -23.5zM80 -233l55 143q12 34 44.5 37t53.5 -22t5 -58l-82 -131q-13 -22 -35 -23t-36 16t-5 38z" />
    <glyph glyph-name="Lacute" unicode="&#x139;" horiz-adv-x="1193" 
d="M219 0q-31 0 -53.5 22.5t-22.5 53.5v1282q0 31 22.5 53.5t53.5 22.5q32 0 55 -22.5t23 -53.5v-1204h752q32 0 53.5 -22t21.5 -56q0 -31 -21.5 -53.5t-53.5 -22.5h-830zM184 1583l56 143q13 34 45.5 37.5t52.5 -21.5t4 -59l-82 -133q-13 -22 -35 -22.5t-36 17t-5 38.5z
" />
    <glyph glyph-name="lacute" unicode="&#x13a;" horiz-adv-x="649" 
d="M520 0q-200 0 -317 123.5t-117 333.5v901q0 31 23 53.5t55 22.5t55 -22.5t23 -53.5v-901q0 -151 73 -226t205 -75q32 0 54 -23t22 -55t-22 -55t-54 -23zM125 1579l55 143q13 34 45.5 37.5t53 -21.5t4.5 -59l-82 -133q-13 -22 -35 -22.5t-36 17t-5 38.5z" />
    <glyph glyph-name="uni013B" unicode="&#x13b;" horiz-adv-x="1193" 
d="M219 0q-31 0 -53.5 22.5t-22.5 53.5v1282q0 31 22.5 53.5t53.5 22.5q32 0 55 -22.5t23 -53.5v-1204h752q32 0 53.5 -22t21.5 -56q0 -31 -21.5 -53.5t-53.5 -22.5h-830zM500 -233l55 143q12 34 44.5 37t53 -22t4.5 -58l-82 -131q-13 -22 -35 -23t-35.5 16t-4.5 38z" />
    <glyph glyph-name="uni013C" unicode="&#x13c;" horiz-adv-x="649" 
d="M520 0q-200 0 -317 123.5t-117 333.5v901q0 31 23 53.5t55 22.5t55 -22.5t23 -53.5v-901q0 -151 73 -226t205 -75q32 0 54 -23t22 -55t-22 -55t-54 -23zM227 -233l56 143q12 34 44.5 37t53 -22t4.5 -58l-82 -131q-13 -22 -35 -23t-36 16t-5 38z" />
    <glyph glyph-name="Lcaron" unicode="&#x13d;" horiz-adv-x="1193" 
d="M219 0q-31 0 -53.5 22.5t-22.5 53.5v1282q0 31 22.5 53.5t53.5 22.5q32 0 55 -22.5t23 -53.5v-1204h752q32 0 53.5 -22t21.5 -56q0 -31 -21.5 -53.5t-53.5 -22.5h-830zM18 1706q-13 16 -12 34.5t14 31.5q10 12 33 12q22 0 37 -15l133 -151l139 151q12 13 31.5 14
t34.5 -11q14 -12 15 -32t-11 -34l-174 -190q-14 -17 -35 -17t-35 17z" />
    <glyph glyph-name="lcaron" unicode="&#x13e;" horiz-adv-x="649" 
d="M520 0q-200 0 -317 123.5t-117 333.5v901q0 31 23 53.5t55 22.5t55 -22.5t23 -53.5v-901q0 -151 73 -226t205 -75q32 0 54 -23t22 -55t-22 -55t-54 -23zM-41 1722q-13 16 -12 34t14 32q10 12 33 12q24 0 37 -16l133 -152l139 152q12 15 31.5 15.5t34.5 -11.5
q14 -14 15 -33t-11 -33l-174 -190q-11 -16 -35 -16t-35 16z" />
    <glyph glyph-name="Lslash" unicode="&#x141;" horiz-adv-x="1302" 
d="M274 0q-31 0 -53 22.5t-22 53.5v569l-47 -47q-23 -23 -55.5 -23t-55.5 23q-22 22 -22 54.5t22 54.5l158 157v494q0 31 22 53.5t53 22.5q32 0 55 -22.5t23 -53.5v-340l82 82q23 22 55 22t54 -22q23 -23 23.5 -55.5t-21.5 -55.5l-193 -192v-643h752q32 0 54 -22t22 -56
q0 -31 -22 -53.5t-54 -22.5h-830z" />
    <glyph glyph-name="lslash" unicode="&#x142;" horiz-adv-x="645" 
d="M508 0q-200 0 -317 123.5t-117 333.5v262l-8 -6q-26 -20 -57.5 -15t-51.5 31q-18 25 -14 56.5t28 50.5l103 86v436q0 31 23 53.5t55 22.5q31 0 54 -22.5t23 -53.5v-305l47 39q25 20 56.5 15t50.5 -30q20 -27 16 -58t-28 -50l-142 -119v-393q0 -151 73.5 -226t205.5 -75
q32 0 54 -23t22 -55t-22 -55t-54 -23z" />
    <glyph glyph-name="Nacute" unicode="&#x143;" horiz-adv-x="1425" 
d="M211 0q-31 0 -53.5 23.5t-22.5 56.5v1282q0 25 14.5 45t38.5 27q23 8 47 1.5t39 -26.5l861 -1104v1057q0 32 22 55t53 23q34 0 57 -23t23 -55v-1282q0 -26 -15 -47t-38 -29q-8 -4 -27 -4q-39 0 -61 31l-858 1104v-1055q0 -34 -23 -57t-57 -23zM672 1540l55 143
q13 34 45.5 37.5t52.5 -21.5t4 -59l-81 -133q-13 -22 -35 -22.5t-36 17t-5 38.5z" />
    <glyph glyph-name="nacute" unicode="&#x144;" 
d="M162 0q-32 0 -55 23t-23 55v469q0 177 124.5 300.5t301.5 123.5q174 0 299 -124t125 -300v-469q0 -32 -23 -55t-55 -23q-34 0 -57 23t-23 55v469q0 110 -78 189t-188 79q-112 0 -191 -78.5t-79 -189.5v-469q0 -32 -23 -55t-55 -23zM471 1112l55 143q13 34 45.5 37.5
t53 -21.5t4.5 -59l-82 -133q-13 -22 -35 -22.5t-36 17t-5 38.5z" />
    <glyph glyph-name="uni0145" unicode="&#x145;" horiz-adv-x="1425" 
d="M211 0q-31 0 -53.5 23.5t-22.5 56.5v1282q0 25 14.5 45t38.5 27q23 8 47 1.5t39 -26.5l861 -1104v1057q0 32 22 55t53 23q34 0 57 -23t23 -55v-1282q0 -26 -15 -47t-38 -29q-8 -4 -27 -4q-39 0 -61 31l-858 1104v-1055q0 -34 -23 -57t-57 -23zM590 -233l55 143
q12 34 44.5 37t53.5 -22t5 -58l-82 -131q-13 -22 -35 -23t-36 16t-5 38z" />
    <glyph glyph-name="uni0146" unicode="&#x146;" 
d="M162 0q-32 0 -55 23t-23 55v469q0 177 124.5 300.5t301.5 123.5q174 0 299 -124t125 -300v-469q0 -32 -23 -55t-55 -23q-34 0 -57 23t-23 55v469q0 110 -78 189t-188 79q-112 0 -191 -78.5t-79 -189.5v-469q0 -32 -23 -55t-55 -23zM383 -233l55 143q12 34 44.5 37
t53.5 -22t5 -58l-82 -131q-13 -22 -35 -23t-36 16t-5 38z" />
    <glyph glyph-name="Ncaron" unicode="&#x147;" horiz-adv-x="1425" 
d="M211 0q-31 0 -53.5 23.5t-22.5 56.5v1282q0 25 14.5 45t38.5 27q23 8 47 1.5t39 -26.5l861 -1104v1057q0 32 22 55t53 23q34 0 57 -23t23 -55v-1282q0 -26 -15 -47t-38 -29q-8 -4 -27 -4q-39 0 -61 31l-858 1104v-1055q0 -34 -23 -57t-57 -23zM506 1663q-13 16 -12 34.5
t14 31.5q10 12 33 12q22 0 37 -15l133 -151l139 151q12 13 31 14t34 -11q14 -12 15.5 -32t-10.5 -34l-175 -190q-14 -17 -34 -17q-21 0 -35 17z" />
    <glyph glyph-name="ncaron" unicode="&#x148;" 
d="M162 0q-32 0 -55 23t-23 55v469q0 177 124.5 300.5t301.5 123.5q174 0 299 -124t125 -300v-469q0 -32 -23 -55t-55 -23q-34 0 -57 23t-23 55v469q0 110 -78 189t-188 79q-112 0 -191 -78.5t-79 -189.5v-469q0 -32 -23 -55t-55 -23zM303 1235q-13 16 -12 34t14 31
q10 13 33 13q22 0 37 -15l133 -151l139 151q12 13 31.5 13.5t34.5 -11.5q14 -12 15 -31.5t-11 -33.5l-174 -191q-13 -16 -35 -16t-35 16z" />
    <glyph glyph-name="Eng" unicode="&#x14a;" horiz-adv-x="1466" 
d="M231 0q-31 0 -53 23t-22 57v1282q0 25 14.5 45t38.5 27q23 8 47 1.5t39 -26.5l860 -1104v1057q0 32 22.5 55t53.5 23q34 0 57 -23t23 -55v-1299q0 -215 -125 -348t-355 -133q-39 0 -63.5 23t-24.5 57q0 31 23.5 53.5t56.5 22.5h31q130 0 214.5 78t88.5 231l-846 1088
v-1055q0 -34 -23 -57t-57 -23z" />
    <glyph glyph-name="eng" unicode="&#x14b;" horiz-adv-x="1038" 
d="M172 0q-32 0 -55 23t-23 55v469q0 177 124.5 300.5t301.5 123.5q174 0 299 -124t125 -300v-471q0 -220 -125.5 -353t-361.5 -133q-40 0 -64 22.5t-24 57.5q0 32 23 55t57 23h30q138 0 222.5 81.5t84.5 246.5v471q0 110 -78 189t-188 79q-112 0 -191 -78.5t-79 -189.5
v-469q0 -32 -23 -55t-55 -23z" />
    <glyph glyph-name="Omacron" unicode="&#x14c;" horiz-adv-x="1613" 
d="M809 -14q-200 0 -369 98t-267.5 266.5t-98.5 368.5q0 198 98.5 367t267.5 267.5t369 98.5q197 0 365.5 -98.5t267 -267.5t98.5 -367q0 -199 -98.5 -368t-267 -267t-365.5 -98zM231 719q0 -156 77.5 -289t210.5 -211t290 -78q156 0 288.5 78t209.5 211t77 289
q0 117 -45.5 223.5t-122.5 183.5t-183.5 122.5t-223.5 45.5q-157 0 -290 -77t-210.5 -209.5t-77.5 -288.5zM668 1567q-30 0 -42 24t0 48t42 24h282q30 0 43 -24t0.5 -48t-43.5 -24h-282z" />
    <glyph glyph-name="omacron" unicode="&#x14d;" horiz-adv-x="1095" 
d="M547 -6q-132 0 -244 65t-177 176.5t-65 243.5q0 99 38.5 189t103.5 155.5t155 104.5t189 39q132 0 244 -65.5t177.5 -178t65.5 -244.5t-65.5 -243.5t-177.5 -176.5t-244 -65zM215 479q0 -137 97.5 -234.5t234.5 -97.5q138 0 236 97.5t98 234.5q0 138 -98 236t-236 98
q-137 0 -234.5 -98t-97.5 -236zM403 1100q-30 0 -42 24t0 48t42 24h283q30 0 43 -24t0.5 -48t-43.5 -24h-283z" />
    <glyph glyph-name="Ohungarumlaut" unicode="&#x150;" horiz-adv-x="1613" 
d="M809 -14q-200 0 -369 98t-267.5 266.5t-98.5 368.5q0 198 98.5 367t267.5 267.5t369 98.5q197 0 365.5 -98.5t267 -267.5t98.5 -367q0 -199 -98.5 -368t-267 -267t-365.5 -98zM231 719q0 -156 77.5 -289t210.5 -211t290 -78q156 0 288.5 78t209.5 211t77 289
q0 117 -45.5 223.5t-122.5 183.5t-183.5 122.5t-223.5 45.5q-157 0 -290 -77t-210.5 -209.5t-77.5 -288.5zM684 1602l49 133q14 36 47 38.5t54 -23t4 -58.5l-80 -123q-19 -33 -52.5 -17t-21.5 50zM856 1599l49 134q13 35 45.5 38t53 -22.5t4.5 -58.5l-78 -123
q-12 -21 -33.5 -22t-35 16t-5.5 38z" />
    <glyph glyph-name="ohungarumlaut" unicode="&#x151;" horiz-adv-x="1095" 
d="M547 -6q-132 0 -244 65t-177 176.5t-65 243.5q0 99 38.5 189t103.5 155.5t155 104.5t189 39q132 0 244 -65.5t177.5 -178t65.5 -244.5t-65.5 -243.5t-177.5 -176.5t-244 -65zM215 479q0 -137 97.5 -234.5t234.5 -97.5q138 0 236 97.5t98 234.5q0 138 -98 236t-236 98
q-137 0 -234.5 -98t-97.5 -236zM418 1135l49 133q14 36 47 38.5t53.5 -23t3.5 -58.5l-79 -123q-19 -33 -52.5 -17t-21.5 50zM590 1133l49 133q13 35 45.5 38t52.5 -22.5t4 -58.5l-77 -123q-19 -33 -52.5 -17t-21.5 50z" />
    <glyph glyph-name="OE" unicode="&#x152;" horiz-adv-x="2402" 
d="M809 -14q-200 0 -369 98t-267.5 266.5t-98.5 368.5q0 198 98.5 367t267.5 267.5t369 98.5q171 0 321.5 -75.5t253.5 -207.5v187q0 32 22.5 55t53.5 23h803q32 0 55 -23t23 -55t-23 -54t-55 -22h-725v-485h619q32 0 54.5 -23t22.5 -55t-22.5 -55t-54.5 -23h-619v-485h725
q32 0 55 -22t23 -54t-23 -55t-55 -23h-803q-31 0 -53.5 23t-22.5 55v188q-103 -130 -253.5 -205t-321.5 -75zM231 719q0 -156 77.5 -289t210.5 -211t290 -78q156 0 288.5 78t209.5 211t77 289q0 117 -45.5 223.5t-122.5 183.5t-183.5 122.5t-223.5 45.5q-157 0 -290 -77
t-210.5 -209.5t-77.5 -288.5z" />
    <glyph glyph-name="oe" unicode="&#x153;" horiz-adv-x="1894" 
d="M547 -6q-132 0 -244 65t-177 176.5t-65 243.5q0 99 38.5 189t103.5 155.5t155 104.5t189 39q125 0 233.5 -60.5t175.5 -163.5q64 103 172.5 164.5t235.5 61.5q129 0 237 -61.5t170 -168.5t62 -235q0 -28 -17.5 -48.5t-43.5 -25.5q-4 -2 -13 -2h-723q20 -114 106 -188.5
t206 -85.5q189 -24 331 100q27 12 56.5 3.5t40.5 -36.5q12 -29 1.5 -54.5t-38.5 -43.5q-145 -145 -414 -121q-118 12 -212.5 69t-154.5 148q-66 -103 -175 -164t-236 -61zM215 479q0 -137 97.5 -234.5t234.5 -97.5q138 0 236 97.5t98 234.5q0 138 -98 236t-236 98
q-137 0 -234.5 -98t-97.5 -236zM1036 543h643q-14 122 -102.5 202t-212.5 80t-216 -78t-112 -204z" />
    <glyph glyph-name="Racute" unicode="&#x154;" horiz-adv-x="1325" 
d="M201 0q-32 0 -55 23t-23 55v1278q0 32 23 55t55 23h575q195 0 333 -138t138 -333q0 -163 -104 -288t-258 -155l342 -391q22 -25 19.5 -57t-25.5 -54q-21 -18 -52 -18q-36 0 -57 27l-407 467h-429v-416q0 -32 -22 -55t-53 -23zM276 647h500q130 0 223 92.5t93 223.5
t-93 224t-223 93h-500v-633zM592 1583l55 143q13 34 45.5 37.5t53 -21.5t4.5 -59l-82 -133q-13 -22 -35 -22.5t-36 17t-5 38.5z" />
    <glyph glyph-name="racute" unicode="&#x155;" horiz-adv-x="962" 
d="M172 0q-31 0 -54.5 23t-23.5 55v471q0 175 124.5 299.5t299.5 124.5q135 0 245.5 -79t154.5 -208q11 -31 -3 -60t-45 -38q-31 -11 -60.5 3.5t-39.5 45.5q-28 82 -97 131t-155 49q-112 0 -190 -77.5t-78 -190.5v-471q0 -32 -23 -55t-55 -23zM481 1114l56 143
q13 34 45.5 37.5t52.5 -21.5t4 -59l-82 -133q-13 -22 -35 -22.5t-36 17t-5 38.5z" />
    <glyph glyph-name="uni0156" unicode="&#x156;" horiz-adv-x="1325" 
d="M201 0q-32 0 -55 23t-23 55v1278q0 32 23 55t55 23h575q195 0 333 -138t138 -333q0 -163 -104 -288t-258 -155l342 -391q22 -25 19.5 -57t-25.5 -54q-21 -18 -52 -18q-36 0 -57 27l-407 467h-429v-416q0 -32 -22 -55t-53 -23zM276 647h500q130 0 223 92.5t93 223.5
t-93 224t-223 93h-500v-633zM502 -233l55 143q12 34 44.5 37t53 -22t4.5 -58l-81 -131q-13 -22 -35 -23t-36 16t-5 38z" />
    <glyph glyph-name="uni0157" unicode="&#x157;" horiz-adv-x="962" 
d="M172 0q-31 0 -54.5 23t-23.5 55v471q0 175 124.5 299.5t299.5 124.5q135 0 245.5 -79t154.5 -208q11 -31 -3 -60t-45 -38q-31 -11 -60.5 3.5t-39.5 45.5q-28 82 -97 131t-155 49q-112 0 -190 -77.5t-78 -190.5v-471q0 -32 -23 -55t-55 -23zM53 -231l56 143q12 34 44.5 37
t53 -22t4.5 -58l-82 -131q-13 -22 -35 -23t-36 16t-5 38z" />
    <glyph glyph-name="Rcaron" unicode="&#x158;" horiz-adv-x="1325" 
d="M201 0q-32 0 -55 23t-23 55v1278q0 32 23 55t55 23h575q195 0 333 -138t138 -333q0 -163 -104 -288t-258 -155l342 -391q22 -25 19.5 -57t-25.5 -54q-21 -18 -52 -18q-36 0 -57 27l-407 467h-429v-416q0 -32 -22 -55t-53 -23zM276 647h500q130 0 223 92.5t93 223.5
t-93 224t-223 93h-500v-633zM424 1706q-13 16 -12 34.5t14 31.5q10 12 33 12q22 0 37 -15l133 -151l139 151q12 13 31.5 14t34.5 -11q14 -12 15 -32t-11 -34l-174 -190q-14 -17 -35 -17t-35 17z" />
    <glyph glyph-name="rcaron" unicode="&#x159;" horiz-adv-x="962" 
d="M172 0q-31 0 -54.5 23t-23.5 55v471q0 175 124.5 299.5t299.5 124.5q135 0 245.5 -79t154.5 -208q11 -31 -3 -60t-45 -38q-31 -11 -60.5 3.5t-39.5 45.5q-28 82 -97 131t-155 49q-112 0 -190 -77.5t-78 -190.5v-471q0 -32 -23 -55t-55 -23zM313 1237q-13 16 -12 34.5
t14 31.5q10 12 33 12q22 0 37 -15l133 -151l139 151q12 13 31.5 14t34.5 -11q14 -12 15 -32t-11 -34l-174 -190q-14 -17 -35 -17t-35 17z" />
    <glyph glyph-name="Sacute" unicode="&#x15a;" horiz-adv-x="1202" 
d="M612 -10q-301 0 -503 227q-25 19 -29 50.5t16 54.5q20 26 51 30t54 -16q160 -193 411 -193q171 0 262.5 73t96.5 177q8 107 -84 176t-281 97q-317 49 -434 208q-77 106 -53 248q27 146 162.5 237.5t339.5 84.5q236 -9 389 -193q25 -20 28 -51.5t-18 -56.5
q-20 -23 -51 -25.5t-54 17.5q-125 148 -303 155q-147 7 -238 -53t-104 -141q-38 -217 359 -279q127 -18 221.5 -56.5t146.5 -83t83 -100.5t39 -101.5t5 -92.5q-5 -74 -37 -141.5t-91.5 -125t-158.5 -92t-225 -34.5zM567 1581l56 143q13 34 45.5 37.5t52.5 -21.5t4 -59
l-82 -133q-13 -22 -35 -22.5t-36 17t-5 38.5z" />
    <glyph glyph-name="sacute" unicode="&#x15b;" horiz-adv-x="886" 
d="M461 -4q-177 -2 -355 102q-29 12 -39.5 42t1.5 59t41.5 40.5t58.5 -1.5q74 -51 162 -73t159 -15.5t119 39t49 83.5q1 49 -56.5 88.5t-158.5 61.5q-108 26 -182.5 65t-108 83t-45 82t-8.5 77q7 109 111 177.5t250 62.5q149 -3 280 -84q29 -13 40 -43t-3 -58
q-13 -29 -43 -39.5t-59 3.5q-66 45 -140.5 61.5t-131.5 7t-96 -36.5t-42 -63q-3 -15 4.5 -33.5t27.5 -41.5t66 -44t111 -35q88 -22 154 -52t103 -59.5t59.5 -64t29 -61t6.5 -54.5q0 -110 -93.5 -191.5t-270.5 -84.5zM418 1118l55 144q13 34 45.5 37.5t52.5 -21.5t4 -59
l-81 -134q-13 -22 -35 -22.5t-36 17t-5 38.5z" />
    <glyph glyph-name="Scedilla" unicode="&#x15e;" horiz-adv-x="1202" 
d="M498 -440q-20 6 -30 21.5t-7 35.5q4 21 21 30.5t38 4.5q119 -26 185 20q32 23 38.5 54t-14.5 51q-22 28 -72 28q-49 0 -100 -22q-29 -12 -52.5 9.5t-8.5 51.5l65 148q-270 19 -452 225q-25 19 -29 50.5t16 54.5q20 26 51 30t54 -16q160 -193 411 -193q171 0 262.5 73
t96.5 177q8 107 -84 176t-281 97q-317 49 -434 208q-77 106 -53 248q27 146 162.5 237.5t339.5 84.5q236 -9 389 -193q25 -20 28 -51.5t-18 -56.5q-20 -23 -51 -25.5t-54 17.5q-125 148 -303 155q-147 7 -238 -53t-104 -141q-38 -217 359 -279q127 -18 221.5 -56.5
t146.5 -83t83 -100.5t39 -101.5t5 -92.5q-5 -70 -34 -134.5t-82.5 -120.5t-142 -93t-201.5 -43l-5 -10l-38 -86q49 8 100.5 -7t79.5 -49q45 -51 35 -123q-6 -73 -76 -123q-108 -72 -262 -34z" />
    <glyph glyph-name="scedilla" unicode="&#x15f;" horiz-adv-x="886" 
d="M344 -428q-20 6 -30 21.5t-7 35.5q4 21 21.5 30.5t38.5 4.5q117 -25 184 21q32 23 38.5 53.5t-14.5 50.5q-23 29 -71 29t-101 -23q-29 -12 -52.5 10t-8.5 52l64 141q-157 14 -300 100q-29 12 -39.5 42t1.5 59t41.5 40.5t58.5 -1.5q74 -51 162 -73t159 -15.5t119 39
t49 83.5q1 49 -56.5 88.5t-158.5 61.5q-108 26 -182.5 65t-108 83t-45 82t-8.5 77q7 109 111 177.5t250 62.5q149 -3 280 -84q29 -13 40 -43t-3 -58q-13 -29 -43 -39.5t-59 3.5q-66 45 -140.5 61.5t-131.5 7t-96 -36.5t-42 -63q-3 -15 4.5 -33.5t27.5 -41.5t66 -44t111 -35
q88 -22 154 -52t103 -59.5t59.5 -64t29 -61t6.5 -54.5q0 -102 -81 -181t-236 -93q0 -1 -1 -2t-1 -2l-39 -86q50 8 101 -6.5t79 -48.5q45 -51 35 -123q-6 -73 -76 -123q-109 -72 -262 -35z" />
    <glyph glyph-name="Scaron" unicode="&#x160;" horiz-adv-x="1202" 
d="M612 -10q-301 0 -503 227q-25 19 -29 50.5t16 54.5q20 26 51 30t54 -16q160 -193 411 -193q171 0 262.5 73t96.5 177q8 107 -84 176t-281 97q-317 49 -434 208q-77 106 -53 248q27 146 162.5 237.5t339.5 84.5q236 -9 389 -193q25 -20 28 -51.5t-18 -56.5
q-20 -23 -51 -25.5t-54 17.5q-125 148 -303 155q-147 7 -238 -53t-104 -141q-38 -217 359 -279q127 -18 221.5 -56.5t146.5 -83t83 -100.5t39 -101.5t5 -92.5q-5 -74 -37 -141.5t-91.5 -125t-158.5 -92t-225 -34.5zM399 1706q-13 16 -12 34.5t14 31.5q10 12 33 12
q22 0 37 -15l133 -151l139 151q12 13 31.5 14t34.5 -11q14 -12 15 -32t-11 -34l-174 -190q-14 -17 -35 -17t-35 17z" />
    <glyph glyph-name="scaron" unicode="&#x161;" horiz-adv-x="886" 
d="M461 -4q-177 -2 -355 102q-29 12 -39.5 42t1.5 59t41.5 40.5t58.5 -1.5q74 -51 162 -73t159 -15.5t119 39t49 83.5q1 49 -56.5 88.5t-158.5 61.5q-108 26 -182.5 65t-108 83t-45 82t-8.5 77q7 109 111 177.5t250 62.5q149 -3 280 -84q29 -13 40 -43t-3 -58
q-13 -29 -43 -39.5t-59 3.5q-66 45 -140.5 61.5t-131.5 7t-96 -36.5t-42 -63q-3 -15 4.5 -33.5t27.5 -41.5t66 -44t111 -35q88 -22 154 -52t103 -59.5t59.5 -64t29 -61t6.5 -54.5q0 -110 -93.5 -191.5t-270.5 -84.5zM250 1243q-13 16 -12 34.5t14 31.5q10 12 33 12t37 -14
l133 -152l139 152q12 13 31 13.5t34 -11.5q14 -12 15.5 -32t-10.5 -34l-175 -190q-14 -17 -34 -17q-21 0 -35 17z" />
    <glyph glyph-name="uni0162" unicode="&#x162;" horiz-adv-x="1228" 
d="M1073 1434q32 0 55 -23t23 -55t-23 -54t-55 -22h-383v-1202q0 -38 -28 -60q0 -12 -5 -22l-39 -86q50 8 101.5 -6.5t79.5 -48.5q45 -51 35 -123q-6 -73 -76 -123q-109 -72 -262 -35q-20 6 -30 21.5t-7 35.5q4 21 21 30.5t38 4.5q117 -25 184 21q32 23 39 53.5t-14 50.5
q-23 29 -72 29q-47 0 -100 -23q-29 -12 -52.5 10t-8.5 52l69 159q-26 23 -26 60v1202h-381q-32 0 -55 22t-23 54t23 55t55 23h917z" />
    <glyph glyph-name="uni0163" unicode="&#x163;" horiz-adv-x="716" 
d="M172 1434q32 0 55 -23t23 -55v-391h285q29 0 50 -21.5t21 -50.5q0 -31 -21 -52.5t-50 -21.5h-285v-327q0 -158 84.5 -247t220.5 -89h31q32 0 55 -23t23 -55q0 -25 -17 -49l-37 -80q50 8 101.5 -6.5t79.5 -48.5q44 -50 34 -123q-6 -73 -75 -123q-109 -72 -263 -35
q-43 13 -36 57q4 21 21 30.5t38 4.5q117 -25 184 21q32 23 39 53.5t-14 50.5q-23 29 -72 29q-47 0 -100 -23q-29 -12 -53 10t-9 52l45 102q-65 3 -126.5 22t-118 58t-99 94.5t-67.5 137t-25 180.5v864q0 32 23 55t55 23z" />
    <glyph glyph-name="Tcaron" unicode="&#x164;" horiz-adv-x="1228" 
d="M1073 1434q32 0 55 -23t23 -55t-23 -54t-55 -22h-383v-1202q0 -32 -23 -55t-55 -23q-31 0 -53 23t-22 55v1202h-381q-32 0 -55 22t-23 54t23 55t55 23h917zM410 1706q-13 16 -12 34.5t14 31.5q10 12 32 12t37 -15l133 -151l140 151q12 13 31 14t34 -11q14 -12 15 -32
t-11 -34l-174 -190q-14 -17 -35 -17q-20 0 -34 17z" />
    <glyph glyph-name="tcaron" unicode="&#x165;" horiz-adv-x="716" 
d="M172 1434q32 0 55 -23t23 -55v-391h285q29 0 50 -21.5t21 -50.5q0 -31 -21 -52.5t-50 -21.5h-285v-327q0 -158 84.5 -247t220.5 -89h31q32 0 55 -23t23 -55t-23 -55t-55 -23h-31q-67 0 -131.5 17t-124.5 55.5t-105.5 94t-72.5 139.5t-27 186v864q0 32 23 55t55 23z
M-33 1694q-13 16 -12 34t14 31q10 13 33 13q22 0 37 -15l133 -151l139 151q12 13 31.5 13.5t34.5 -11.5q14 -12 15 -31.5t-11 -33.5l-174 -191q-13 -16 -35 -16t-35 16z" />
    <glyph glyph-name="Tbar" unicode="&#x166;" horiz-adv-x="1236" 
d="M1077 1434q31 0 54.5 -23t23.5 -55t-23.5 -54t-54.5 -22h-383v-438h230q32 0 53.5 -22.5t21.5 -55.5t-21.5 -55.5t-53.5 -22.5h-230v-608q0 -32 -23 -55t-55 -23q-31 0 -53 23t-22 55v608h-215q-32 0 -55 23t-23 55t23 55t55 23h215v438h-381q-32 0 -55 22t-23 54t23 55
t55 23h917z" />
    <glyph glyph-name="tbar" unicode="&#x167;" horiz-adv-x="880" 
d="M160 1434q32 0 55 -23t23 -55v-391h284q29 0 50.5 -21.5t21.5 -50.5q0 -31 -21.5 -52.5t-50.5 -21.5h-284v-182h299q22 0 37.5 -16t15.5 -39t-15.5 -38.5t-37.5 -15.5h-299v-36q0 -158 84.5 -247t220.5 -89h30q32 0 55 -23t23 -55t-23 -55t-55 -23h-30q-67 0 -131.5 17
t-124.5 55.5t-105.5 94t-72.5 139.5t-27 186v864q0 32 23 55t55 23z" />
    <glyph glyph-name="Utilde" unicode="&#x168;" horiz-adv-x="1396" 
d="M698 -8q-117 0 -224.5 46t-185 124t-123.5 185t-46 224v787q0 32 23 55t55 23t54.5 -23t22.5 -55v-787q0 -175 124.5 -299.5t299.5 -124.5q176 0 299 124.5t123 299.5v787q0 32 24 55t56 23q31 0 54.5 -23t23.5 -55v-787q0 -156 -78 -289.5t-211.5 -211.5t-290.5 -78z
M469 1638q-3 21 6 38.5t29 21.5q34 8 57 -31q13 -36 51 -33q16 5 68 44.5t90 39.5q51 0 88.5 -30t48.5 -78q9 -46 -30 -56q-19 -6 -36 2.5t-26 28.5q-11 41 -55 35q-19 -8 -48 -30t-56 -37t-54 -15q-45 0 -83 27.5t-50 72.5z" />
    <glyph glyph-name="utilde" unicode="&#x169;" 
d="M162 971q33 0 55.5 -22.5t22.5 -55.5v-469q0 -111 79 -189.5t191 -78.5q110 0 188 79t78 189v469q0 34 23 56t57 22q33 0 55.5 -22.5t22.5 -55.5v-469q0 -174 -125 -299t-299 -125q-177 0 -301.5 124.5t-124.5 299.5v469q0 33 22.5 55.5t55.5 22.5zM276 1171
q-3 21 6 38.5t29 21.5q34 8 58 -31q13 -36 51 -33q16 5 68 44.5t90 39.5q51 0 88.5 -30t48.5 -78q9 -46 -31 -56q-41 -13 -61 31q-5 18 -20 28t-36 7q-19 -8 -48 -30t-55.5 -37t-53.5 -15q-45 0 -83.5 27.5t-50.5 72.5z" />
    <glyph glyph-name="Umacron" unicode="&#x16a;" horiz-adv-x="1396" 
d="M698 -8q-117 0 -224.5 46t-185 124t-123.5 185t-46 224v787q0 32 23 55t55 23t54.5 -23t22.5 -55v-787q0 -175 124.5 -299.5t299.5 -124.5q176 0 299 124.5t123 299.5v787q0 32 24 55t56 23q31 0 54.5 -23t23.5 -55v-787q0 -156 -78 -289.5t-211.5 -211.5t-290.5 -78z
M563 1567q-30 0 -42 24t0 48t42 24h283q30 0 43 -24t0.5 -48t-43.5 -24h-283z" />
    <glyph glyph-name="umacron" unicode="&#x16b;" 
d="M162 971q33 0 55.5 -22.5t22.5 -55.5v-469q0 -111 79 -189.5t191 -78.5q110 0 188 79t78 189v469q0 34 23 56t57 22q33 0 55.5 -22.5t22.5 -55.5v-469q0 -174 -125 -299t-299 -125q-177 0 -301.5 124.5t-124.5 299.5v469q0 33 22.5 55.5t55.5 22.5zM369 1100
q-30 0 -42 24t0 48t42 24h282q30 0 43 -24t0.5 -48t-43.5 -24h-282z" />
    <glyph glyph-name="Uring" unicode="&#x16e;" horiz-adv-x="1396" 
d="M698 -8q-117 0 -224.5 46t-185 124t-123.5 185t-46 224v787q0 32 23 55t55 23t54.5 -23t22.5 -55v-787q0 -175 124.5 -299.5t299.5 -124.5q176 0 299 124.5t123 299.5v787q0 32 24 55t56 23q31 0 54.5 -23t23.5 -55v-787q0 -156 -78 -289.5t-211.5 -211.5t-290.5 -78z
M543 1698q0 65 48 112.5t114 47.5q67 0 115 -47.5t48 -112.5t-48 -112.5t-115 -47.5q-66 0 -114 47.5t-48 112.5zM635 1698q0 -28 20 -46t50 -18q28 0 46.5 18t18.5 46t-18.5 46.5t-46.5 18.5q-29 0 -49.5 -18.5t-20.5 -46.5z" />
    <glyph glyph-name="uring" unicode="&#x16f;" 
d="M162 971q33 0 55.5 -22.5t22.5 -55.5v-469q0 -111 79 -189.5t191 -78.5q110 0 188 79t78 189v469q0 34 23 56t57 22q33 0 55.5 -22.5t22.5 -55.5v-469q0 -174 -125 -299t-299 -125q-177 0 -301.5 124.5t-124.5 299.5v469q0 33 22.5 55.5t55.5 22.5zM348 1231
q0 65 48 112.5t114 47.5q67 0 115.5 -47.5t48.5 -112.5t-48.5 -112.5t-115.5 -47.5q-66 0 -114 47.5t-48 112.5zM440 1231q0 -28 20 -46t50 -18q28 0 46.5 18t18.5 46t-18.5 46.5t-46.5 18.5q-29 0 -49.5 -18.5t-20.5 -46.5z" />
    <glyph glyph-name="Uhungarumlaut" unicode="&#x170;" horiz-adv-x="1396" 
d="M698 -8q-117 0 -224.5 46t-185 124t-123.5 185t-46 224v787q0 32 23 55t55 23t54.5 -23t22.5 -55v-787q0 -175 124.5 -299.5t299.5 -124.5q176 0 299 124.5t123 299.5v787q0 32 24 55t56 23q31 0 54.5 -23t23.5 -55v-787q0 -156 -78 -289.5t-211.5 -211.5t-290.5 -78z
M580 1602l49 133q14 36 47 38.5t53.5 -23t3.5 -58.5l-80 -123q-19 -33 -52 -17t-21 50zM752 1599l49 134q13 35 45.5 38t52.5 -22.5t4 -58.5l-78 -123q-19 -33 -52 -17.5t-21 49.5z" />
    <glyph glyph-name="uhungarumlaut" unicode="&#x171;" 
d="M162 971q33 0 55.5 -22.5t22.5 -55.5v-469q0 -111 79 -189.5t191 -78.5q110 0 188 79t78 189v469q0 34 23 56t57 22q33 0 55.5 -22.5t22.5 -55.5v-469q0 -174 -125 -299t-299 -125q-177 0 -301.5 124.5t-124.5 299.5v469q0 33 22.5 55.5t55.5 22.5zM385 1135l49 133
q14 36 47 38.5t54 -23t4 -58.5l-80 -123q-19 -33 -52.5 -17t-21.5 50zM557 1133l49 133q13 35 45.5 38t53 -22.5t4.5 -58.5l-78 -123q-19 -33 -52.5 -17t-21.5 50z" />
    <glyph glyph-name="Uogonek" unicode="&#x172;" horiz-adv-x="1396" 
d="M698 -8q-117 0 -224.5 46t-185 124t-123.5 185t-46 224v787q0 32 23 55t55 23t54.5 -23t22.5 -55v-787q0 -175 124.5 -299.5t299.5 -124.5q176 0 299 124.5t123 299.5v787q0 32 24 55t56 23q31 0 54.5 -23t23.5 -55v-787q0 -209 -135 -370q-44 -76 -76 -115
q-52 -67 -70 -105.5t-4 -80.5q6 -20 27.5 -38t48.5 -26q74 -13 123 43q15 13 36 13.5t34 -11.5q13 -15 13.5 -35.5t-11.5 -33.5q-71 -74 -166 -74q-25 0 -49 4q-54 13 -93 48t-53 81q-27 82 15 164q-101 -43 -220 -43z" />
    <glyph glyph-name="uogonek" unicode="&#x173;" 
d="M162 971q33 0 55.5 -22.5t22.5 -55.5v-469q0 -111 79 -189.5t191 -78.5q110 0 188 79t78 189v469q0 34 23 56t57 22q33 0 55.5 -22.5t22.5 -55.5v-469q0 -164 -113 -287q-42 -73 -76 -114q-51 -66 -69 -105.5t-4 -81.5q6 -20 27.5 -37.5t48.5 -25.5q73 -13 122 43
q15 13 36 13.5t34 -11.5q13 -15 13.5 -36t-11.5 -34q-71 -74 -166 -74q-25 0 -49 4q-54 13 -92.5 48t-52.5 81q-34 102 39 207q-61 -14 -111 -14q-177 0 -301.5 124.5t-124.5 299.5v469q0 33 22.5 55.5t55.5 22.5z" />
    <glyph glyph-name="Wcircumflex" unicode="&#x174;" horiz-adv-x="1943" 
d="M1831 1438q29 -11 43 -39.5t4 -59.5l-475 -1288q-20 -51 -72 -51h-2q-23 0 -43 13.5t-29 35.5l-284 725l-287 -725q-9 -22 -28.5 -35.5t-43.5 -13.5q-50 0 -73 51l-475 1288q-10 31 4 59.5t43 39.5q33 9 61 -5t37 -44l410 -1086l280 711q11 29 40 42t58 1q32 -11 43 -43
h2l279 -711l410 1086q10 30 38.5 44t59.5 5zM770 1608l170 190q14 17 35 16.5t35 -16.5l174 -190q12 -14 11 -34t-15 -32q-15 -12 -34.5 -11.5t-31.5 13.5l-139 152l-133 -152q-14 -14 -35 -14.5t-35 12.5q-13 13 -14 31.5t12 34.5z" />
    <glyph glyph-name="wcircumflex" unicode="&#x175;" horiz-adv-x="1636" 
d="M465 0q-24 0 -43.5 12.5t-28.5 34.5l-340 815q-12 30 0.5 60t42.5 43q30 11 60 -1.5t43 -41.5l268 -643l278 643q12 30 41 43h2q3 0 5 2q16 5 36 2q47 -7 62 -47l268 -643l281 643q10 30 41.5 42.5t60.5 -1.5q29 -12 41 -43t-2 -60l-350 -813q-9 -22 -28.5 -34.5
t-43.5 -12.5q-53 0 -72 47l-270 645l-280 -645q-19 -47 -72 -47zM610 1141l170 190q14 17 35 16.5t35 -16.5l174 -190q12 -14 11 -34t-15 -32q-15 -12 -34.5 -11.5t-31.5 13.5l-139 152l-133 -152q-14 -14 -35 -14.5t-35 12.5q-13 13 -14 31.5t12 34.5z" />
    <glyph glyph-name="Ycircumflex" unicode="&#x176;" horiz-adv-x="1247" 
d="M1157 1423q27 -17 34 -48t-9 -58l-480 -764l-2 -477q0 -31 -22.5 -53.5t-54.5 -22.5t-54 23t-22 55l2 475l-483 764q-17 28 -10.5 58.5t34.5 47.5q26 18 58 10.5t47 -34.5l430 -678l426 678q17 27 47.5 34t58.5 -10zM422 1608l170 190q14 17 35 16.5t35 -16.5l174 -190
q12 -14 10.5 -34t-15.5 -32q-15 -12 -34 -11.5t-31 13.5l-139 152l-133 -152q-14 -14 -35 -14.5t-35 12.5q-13 13 -14 31.5t12 34.5z" />
    <glyph glyph-name="ycircumflex" unicode="&#x177;" horiz-adv-x="983" 
d="M348 -358q-20 0 -35 6q-29 13 -40 44.5t1 59.5l138 314l-357 786q-13 31 -3 61.5t38 44.5q31 14 61.5 3.5t43.5 -39.5l301 -664l290 662q14 29 44 40t61 -2q28 -12 39 -42.5t-2 -61.5l-510 -1165q-23 -47 -70 -47zM289 1141l170 190q14 17 34.5 16.5t34.5 -16.5l174 -190
q12 -14 11 -34t-15 -32q-15 -12 -34 -11.5t-31 13.5l-139 152l-134 -152q-14 -14 -34.5 -14.5t-34.5 12.5q-13 13 -14 31.5t12 34.5z" />
    <glyph glyph-name="Ydieresis" unicode="&#x178;" horiz-adv-x="1247" 
d="M1157 1423q27 -17 34 -48t-9 -58l-480 -764l-2 -477q0 -31 -22.5 -53.5t-54.5 -22.5t-54 23t-22 55l2 475l-483 764q-17 28 -10.5 58.5t34.5 47.5q26 18 58 10.5t47 -34.5l430 -678l426 678q17 27 47.5 34t58.5 -10zM459 1577q0 26 17.5 44.5t43.5 18.5q25 0 43.5 -18.5
t18.5 -44.5t-18.5 -45t-43.5 -19q-26 0 -43.5 18.5t-17.5 45.5zM670 1577q0 27 18 45t45 18q25 0 43.5 -18.5t18.5 -44.5t-18.5 -45t-43.5 -19q-27 0 -45 18.5t-18 45.5z" />
    <glyph glyph-name="Zacute" unicode="&#x179;" horiz-adv-x="1404" 
d="M1225 154q31 0 54.5 -22t23.5 -54t-23.5 -55t-54.5 -23h-1045q-50 0 -69 43q-21 40 6 82l903 1155h-817q-32 0 -54 23t-22 55t22 54t54 22h975q48 0 67 -43q21 -41 -8 -82l-901 -1155h889zM668 1583l55 143q13 34 45.5 37.5t52.5 -21.5t4 -59l-82 -133q-13 -22 -35 -22.5
t-35.5 17t-4.5 38.5z" />
    <glyph glyph-name="zacute" unicode="&#x17a;" horiz-adv-x="964" 
d="M152 0q-51 0 -70 43q-20 45 8 84l535 682h-457q-32 0 -56 23t-24 55q0 33 23.5 55.5t56.5 22.5h616q50 0 72 -43q20 -44 -10 -82l-535 -684h504q32 0 54 -23t22 -55t-22 -55t-54 -23h-663zM444 1116l56 144q13 34 45.5 37.5t52.5 -21.5t4 -59l-82 -134q-13 -22 -35 -22.5
t-36 17t-5 38.5z" />
    <glyph glyph-name="Zdotaccent" unicode="&#x17b;" horiz-adv-x="1404" 
d="M1225 154q31 0 54.5 -22t23.5 -54t-23.5 -55t-54.5 -23h-1045q-50 0 -69 43q-21 40 6 82l903 1155h-817q-32 0 -54 23t-22 55t22 54t54 22h975q48 0 67 -43q21 -41 -8 -82l-901 -1155h889zM645 1597q0 25 18 43.5t44 18.5t44.5 -18.5t18.5 -43.5q0 -28 -18.5 -46.5
t-44.5 -18.5t-44 18.5t-18 46.5z" />
    <glyph glyph-name="zdotaccent" unicode="&#x17c;" horiz-adv-x="964" 
d="M152 0q-51 0 -70 43q-20 45 8 84l535 682h-457q-32 0 -56 23t-24 55q0 33 23.5 55.5t56.5 22.5h616q50 0 72 -43q20 -44 -10 -82l-535 -684h504q32 0 54 -23t22 -55t-22 -55t-54 -23h-663zM422 1130q0 25 17.5 43.5t43.5 18.5t45 -18.5t19 -43.5q0 -28 -18.5 -46.5
t-45.5 -18.5q-26 0 -43.5 18.5t-17.5 46.5z" />
    <glyph glyph-name="Zcaron" unicode="&#x17d;" horiz-adv-x="1404" 
d="M1225 154q31 0 54.5 -22t23.5 -54t-23.5 -55t-54.5 -23h-1045q-50 0 -69 43q-21 40 6 82l903 1155h-817q-32 0 -54 23t-22 55t22 54t54 22h975q48 0 67 -43q21 -41 -8 -82l-901 -1155h889zM502 1706q-13 16 -12 34.5t14 31.5q10 12 33 12q21 0 36 -15l134 -151l139 151
q12 13 31 14t34 -11q14 -12 15 -32t-11 -34l-174 -190q-14 -17 -34 -17q-21 0 -35 17z" />
    <glyph glyph-name="zcaron" unicode="&#x17e;" horiz-adv-x="964" 
d="M152 0q-51 0 -70 43q-20 45 8 84l535 682h-457q-32 0 -56 23t-24 55q0 33 23.5 55.5t56.5 22.5h616q50 0 72 -43q20 -44 -10 -82l-535 -684h504q32 0 54 -23t22 -55t-22 -55t-54 -23h-663zM279 1239q-13 16 -12 34.5t14 31.5q10 12 32 12q23 0 37 -14l133 -152l140 152
q12 13 31 13.5t34 -11.5q14 -12 15 -32t-11 -34l-174 -190q-14 -17 -35 -17q-20 0 -34 17z" />
    <glyph glyph-name="uni01CD" unicode="&#x1cd;" horiz-adv-x="1394" 
d="M190 45q-20 -43 -64 -45t-70.5 32t-6.5 77l576 1282q22 45 70.5 45t70.5 -45l580 -1282q20 -43 -7.5 -77t-71.5 -32.5t-63 45.5l-145 328h-723zM406 528h581l-293 641zM489 1737q-13 16 -11.5 33.5t14.5 31.5q10 13 32 13q23 0 37 -17l133 -151l140 151q12 15 31 15.5
t34 -11.5q14 -14 15 -32.5t-11 -32.5l-174 -191q-11 -16 -35 -16t-35 16z" />
    <glyph glyph-name="uni01CE" unicode="&#x1ce;" horiz-adv-x="1120" 
d="M553 -6q-132 0 -243.5 65t-176.5 176.5t-65 243.5t65 244.5t176.5 178t243.5 65.5t244 -65.5t177.5 -178t65.5 -244.5v-8v-4v-395q0 -31 -21 -52.5t-50 -21.5q-31 0 -51.5 21.5t-20.5 52.5v90q-151 -168 -344 -168zM221 479q0 -137 97.5 -234.5t234.5 -97.5
q138 0 236 97.5t98 234.5q0 138 -98 236t-236 98q-137 0 -234.5 -98t-97.5 -236zM350 1253q-13 16 -12 34t14 32q10 12 33 12q24 0 37 -16l133 -152l139 152q12 15 31.5 15.5t34.5 -11.5q14 -14 15 -33t-11 -33l-174 -190q-11 -16 -35 -16t-35 16z" />
    <glyph glyph-name="uni01CF" unicode="&#x1cf;" horiz-adv-x="385" 
d="M193 -4q-32 0 -55 23t-23 55v1288q0 32 23 54t55 22t54.5 -22t22.5 -54v-1288q0 -32 -22.5 -55t-54.5 -23zM-10 1726q-13 16 -12 34t14 32q10 12 33 12t36 -16l134 -152l139 152q12 15 31 15.5t34 -11.5q14 -14 15 -33t-11 -33l-174 -190q-11 -16 -34 -16q-24 0 -35 16z
" />
    <glyph glyph-name="uni01D0" unicode="&#x1d0;" horiz-adv-x="344" 
d="M172 0q-32 0 -55 23t-23 55v813q0 32 23 55t55 23t55 -23t23 -55v-813q0 -32 -23 -55t-55 -23zM-33 1257q-13 16 -12 34t14 32q10 12 33 12q24 0 37 -16l133 -152l139 152q12 15 31.5 15.5t34.5 -11.5q14 -14 15 -33t-11 -33l-174 -190q-11 -16 -35 -16t-35 16z" />
    <glyph glyph-name="uni01D1" unicode="&#x1d1;" horiz-adv-x="1613" 
d="M809 -14q-200 0 -369 98t-267.5 266.5t-98.5 368.5q0 198 98.5 367t267.5 267.5t369 98.5q197 0 365.5 -98.5t267 -267.5t98.5 -367q0 -199 -98.5 -368t-267 -267t-365.5 -98zM231 719q0 -156 77.5 -289t210.5 -211t290 -78q156 0 288.5 78t209.5 211t77 289
q0 117 -45.5 223.5t-122.5 183.5t-183.5 122.5t-223.5 45.5q-157 0 -290 -77t-210.5 -209.5t-77.5 -288.5zM604 1726q-13 16 -12 34t14 32q10 12 33 12q24 0 37 -16l133 -152l139 152q12 15 31.5 15.5t34.5 -11.5q14 -14 15 -33t-11 -33l-174 -190q-11 -16 -35 -16t-35 16z
" />
    <glyph glyph-name="uni01D2" unicode="&#x1d2;" horiz-adv-x="1095" 
d="M547 -6q-132 0 -244 65t-177 176.5t-65 243.5q0 99 38.5 189t103.5 155.5t155 104.5t189 39q132 0 244 -65.5t177.5 -178t65.5 -244.5t-65.5 -243.5t-177.5 -176.5t-244 -65zM215 479q0 -137 97.5 -234.5t234.5 -97.5q138 0 236 97.5t98 234.5q0 138 -98 236t-236 98
q-137 0 -234.5 -98t-97.5 -236zM338 1260q-13 16 -12 33.5t14 31.5q10 12 33 12q24 0 37 -16l133 -152l139 152q12 15 31.5 15.5t34.5 -11.5q14 -14 15 -32.5t-11 -32.5l-174 -191q-11 -16 -35 -16t-35 16z" />
    <glyph glyph-name="uni01D3" unicode="&#x1d3;" horiz-adv-x="1396" 
d="M698 -8q-117 0 -224.5 46t-185 124t-123.5 185t-46 224v787q0 32 23 55t55 23t54.5 -23t22.5 -55v-787q0 -175 124.5 -299.5t299.5 -124.5q176 0 299 124.5t123 299.5v787q0 32 24 55t56 23q31 0 54.5 -23t23.5 -55v-787q0 -156 -78 -289.5t-211.5 -211.5t-290.5 -78z
M500 1726q-13 16 -12 34t14 32q10 12 33 12t36 -16l134 -152l139 152q12 15 31 15.5t34 -11.5q14 -14 15 -33t-11 -33l-174 -190q-11 -16 -34 -16q-24 0 -35 16z" />
    <glyph glyph-name="uni01D4" unicode="&#x1d4;" 
d="M162 971q33 0 55.5 -22.5t22.5 -55.5v-469q0 -111 79 -189.5t191 -78.5q110 0 188 79t78 189v469q0 34 23 56t57 22q33 0 55.5 -22.5t22.5 -55.5v-469q0 -174 -125 -299t-299 -125q-177 0 -301.5 124.5t-124.5 299.5v469q0 33 22.5 55.5t55.5 22.5zM305 1260
q-13 16 -12 33.5t14 31.5q10 12 33 12q24 0 37 -16l133 -152l139 152q12 15 31.5 15.5t34.5 -11.5q14 -14 15 -32.5t-11 -32.5l-174 -191q-11 -16 -35 -16t-35 16z" />
    <glyph glyph-name="Gcaron" unicode="&#x1e6;" horiz-adv-x="1372" 
d="M811 -12q-198 0 -366 97.5t-265.5 265t-97.5 364.5t97.5 364.5t265.5 265t366 97.5q220 0 406 -123q26 -17 32.5 -50t-10.5 -59q-20 -27 -51.5 -32.5t-57.5 12.5q-146 96 -319 96q-155 0 -286.5 -76t-208 -207.5t-76.5 -287.5q0 -115 45.5 -221t121.5 -183t182 -122.5
t222 -45.5q158 0 305 93v401h-321q-32 0 -54 23t-22 55q0 33 22 56.5t54 23.5h399q32 0 54 -23.5t22 -56.5v-522q0 -42 -31 -64q-195 -141 -428 -141zM606 1737q-13 16 -12 33.5t14 31.5q10 13 33 13t37 -17l133 -151l139 151q12 15 31.5 15.5t34.5 -11.5q14 -14 15 -32.5
t-11 -32.5l-174 -191q-11 -16 -35 -16t-35 16z" />
    <glyph glyph-name="gcaron" unicode="&#x1e7;" horiz-adv-x="1132" 
d="M553 -4q-131 0 -242.5 65t-177 176.5t-65.5 243.5q0 131 65.5 242.5t177 176.5t242.5 65t242.5 -65t177 -176.5t65.5 -242.5v-2v-403q0 -191 -128 -328.5t-324 -157.5q-23 -2 -74 -2q-157 0 -276 74q-30 13 -41 43t0 59q14 28 43 40t59 -1q116 -75 274 -57
q135 12 223.5 103.5t88.5 226.5v47q-137 -127 -330 -127zM223 481q0 -137 97 -234t233 -97q137 0 233.5 96.5t96.5 234.5q0 137 -96.5 233.5t-233.5 96.5q-135 0 -232.5 -97t-97.5 -233zM350 1253q-13 16 -12 34t14 32q10 12 33 12q24 0 37 -16l133 -152l139 152
q12 15 31.5 15.5t34.5 -11.5q14 -14 15 -33t-11 -33l-174 -190q-11 -16 -35 -16t-35 16z" />
    <glyph glyph-name="uni0218" unicode="&#x218;" horiz-adv-x="1202" 
d="M612 -10q-301 0 -503 227q-25 19 -29 50.5t16 54.5q20 26 51 30t54 -16q160 -193 411 -193q171 0 262.5 73t96.5 177q8 107 -84 176t-281 97q-317 49 -434 208q-77 106 -53 248q27 146 162.5 237.5t339.5 84.5q236 -9 389 -193q25 -20 28 -51.5t-18 -56.5
q-20 -23 -51 -25.5t-54 17.5q-125 148 -303 155q-147 7 -238 -53t-104 -141q-38 -217 359 -279q127 -18 221.5 -56.5t146.5 -83t83 -100.5t39 -101.5t5 -92.5q-5 -74 -37 -141.5t-91.5 -125t-158.5 -92t-225 -34.5zM489 -240l56 144q12 34 44.5 37t53 -22t4.5 -58l-82 -131
q-13 -22 -35 -23.5t-36 15.5t-5 38z" />
    <glyph glyph-name="uni0219" unicode="&#x219;" horiz-adv-x="886" 
d="M461 -4q-177 -2 -355 102q-29 12 -39.5 42t1.5 59t41.5 40.5t58.5 -1.5q74 -51 162 -73t159 -15.5t119 39t49 83.5q1 49 -56.5 88.5t-158.5 61.5q-108 26 -182.5 65t-108 83t-45 82t-8.5 77q7 109 111 177.5t250 62.5q149 -3 280 -84q29 -13 40 -43t-3 -58
q-13 -29 -43 -39.5t-59 3.5q-66 45 -140.5 61.5t-131.5 7t-96 -36.5t-42 -63q-3 -15 4.5 -33.5t27.5 -41.5t66 -44t111 -35q88 -22 154 -52t103 -59.5t59.5 -64t29 -61t6.5 -54.5q0 -110 -93.5 -191.5t-270.5 -84.5zM336 -227l55 143q12 34 44.5 37t53.5 -22t5 -58l-82 -131
q-13 -22 -35 -23t-36 16t-5 38z" />
    <glyph glyph-name="uni021A" unicode="&#x21a;" horiz-adv-x="1228" 
d="M1073 1434q32 0 55 -23t23 -55t-23 -54t-55 -22h-383v-1202q0 -32 -23 -55t-55 -23q-31 0 -53 23t-22 55v1202h-381q-32 0 -55 22t-23 54t23 55t55 23h917zM487 -225l56 143q12 34 44.5 37t53 -22t4.5 -58l-82 -131q-13 -22 -35 -23t-36 16t-5 38z" />
    <glyph glyph-name="uni021B" unicode="&#x21b;" horiz-adv-x="716" 
d="M172 1434q32 0 55 -23t23 -55v-391h285q29 0 50 -21.5t21 -50.5q0 -31 -21 -52.5t-50 -21.5h-285v-327q0 -158 84.5 -247t220.5 -89h31q32 0 55 -23t23 -55t-23 -55t-55 -23h-31q-67 0 -131.5 17t-124.5 55.5t-105.5 94t-72.5 139.5t-27 186v864q0 32 23 55t55 23z
M479 -186l56 143q12 34 44.5 37t53 -22t4.5 -58l-82 -131q-13 -22 -35 -23t-36 16t-5 38z" />
    <glyph glyph-name="uni0228" unicode="&#x228;" horiz-adv-x="1167" 
d="M1016 154q31 0 54.5 -22t23.5 -54t-23.5 -55t-54.5 -23h-162l-37 -80q50 8 101 -6.5t79 -48.5q45 -51 35 -123q-6 -73 -76 -123q-109 -72 -262 -35q-20 6 -30 22t-7 36q4 21 21.5 30t38.5 4q117 -25 184 21q32 23 39 53.5t-14 50.5q-23 29 -72 29q-47 0 -100 -23
q-29 -12 -53 10t-9 52l58 131h-537q-32 0 -55 23t-23 55v1278q0 32 23 55t55 23h803q31 0 54.5 -23t23.5 -55t-23.5 -54t-54.5 -22h-727v-485h620q31 0 53.5 -23t22.5 -55t-22.5 -55t-53.5 -23h-620v-485h727z" />
    <glyph glyph-name="uni0229" unicode="&#x229;" horiz-adv-x="1089" 
d="M514 4q-196 19 -321 155.5t-125 327.5q0 131 64.5 242t175.5 175.5t243 64.5q197 0 334 -135t137 -328q0 -27 -18.5 -48t-45.5 -26q-4 -2 -12 -2l-721 -2q19 -115 102 -189.5t208 -88.5q195 -21 331 98q27 12 56.5 5.5t40.5 -32.5q13 -27 2 -54t-39 -42
q-114 -114 -297 -123l-35 -80q50 8 101 -6.5t79 -48.5q45 -51 35 -123q-6 -73 -76 -123q-109 -72 -262 -35q-20 6 -30 22t-7 36q4 21 21.5 30t38.5 4q117 -25 184 21q32 23 38.5 53.5t-14.5 50.5q-23 29 -71 29q-50 0 -101 -22q-29 -12 -52.5 9.5t-8.5 51.5l57 131
q-4 2 -12 2zM225 543h641q-12 122 -101 203t-214 81q-124 0 -215.5 -79t-110.5 -205z" />
    <glyph glyph-name="circumflex" unicode="&#x2c6;" horiz-adv-x="591" 
d="M504 1425q12 -14 11 -33.5t-15 -31.5q-15 -12 -34.5 -11.5t-31.5 13.5l-139 151l-133 -151q-14 -14 -35 -14.5t-35 12.5q-13 13 -14 31t12 34l170 191q14 17 35 16.5t35 -16.5z" />
    <glyph glyph-name="caron" unicode="&#x2c7;" horiz-adv-x="591" 
d="M330 1335q-13 -16 -35 -16t-35 16l-170 191q-13 16 -12 34t14 31q10 13 33 13q22 0 37 -15l133 -151l139 151q12 13 31.5 13.5t34.5 -11.5q14 -12 15 -31.5t-11 -33.5z" />
    <glyph glyph-name="breve" unicode="&#x2d8;" horiz-adv-x="593" 
d="M297 1364q-91 0 -155 61.5t-64 149.5q0 20 13.5 34.5t33.5 14.5t34.5 -14.5t14.5 -34.5q0 -48 35.5 -81.5t87.5 -33.5q51 0 88 34t37 81q0 21 13 35t34 14q20 0 33.5 -14.5t13.5 -34.5q0 -88 -63.5 -149.5t-155.5 -61.5z" />
    <glyph glyph-name="dotaccent" unicode="&#x2d9;" horiz-adv-x="264" 
d="M131 1432q-26 0 -43.5 18.5t-17.5 46.5q0 25 17.5 43.5t43.5 18.5t45 -18.5t19 -43.5q0 -27 -18.5 -46t-45.5 -19z" />
    <glyph glyph-name="ring" unicode="&#x2da;" horiz-adv-x="479" 
d="M240 1604q67 0 115 -47.5t48 -112.5t-48 -112.5t-115 -47.5q-66 0 -114 47.5t-48 112.5t48 112.5t114 47.5zM170 1444q0 -28 20 -46t50 -18q28 0 46.5 18t18.5 46t-18.5 46.5t-46.5 18.5q-29 0 -49.5 -18.5t-20.5 -46.5z" />
    <glyph glyph-name="ogonek" unicode="&#x2db;" horiz-adv-x="563" 
d="M295 -449q-19 0 -49 5q-54 13 -93 48t-53 81q-11 32 -10.5 64t6.5 55.5t23.5 55t29.5 48.5t37 49q50 65 74 109q9 17 28 22t38 -6q17 -7 22 -26t-6 -38q-34 -60 -78 -118q-52 -66 -70 -105.5t-4 -81.5q6 -20 27.5 -37.5t48.5 -25.5q74 -13 123 43q15 13 36 13.5t34 -11.5
q13 -15 13.5 -36t-11.5 -34q-71 -74 -166 -74z" />
    <glyph glyph-name="tilde" unicode="&#x2dc;" horiz-adv-x="593" 
d="M379 1608q51 0 88.5 -30.5t48.5 -78.5q9 -45 -31 -55q-41 -13 -61 31q-5 18 -19.5 27.5t-35.5 6.5q-19 -8 -48 -30t-56 -37t-54 -15q-45 0 -83 28t-50 73q-3 21 6 38t29 21q34 8 57 -31q12 -35 51 -32q16 5 68 44.5t90 39.5z" />
    <glyph glyph-name="hungarumlaut" unicode="&#x2dd;" horiz-adv-x="483" 
d="M125 1632q14 36 47 38.5t53.5 -23t3.5 -58.5l-79 -123q-19 -33 -52.5 -17t-21.5 50zM248 1497l49 133q13 35 45.5 38t52.5 -22.5t4 -58.5l-77 -123q-19 -33 -52.5 -17t-21.5 50z" />
    <glyph glyph-name="gravecomb" unicode="&#x300;" horiz-adv-x="0" 
d="M84 1563q-17 33 3.5 58t53.5 21.5t47 -38.5l54 -142q9 -21 -4 -37.5t-35 -15.5t-35 21z" />
    <glyph glyph-name="acutecomb" unicode="&#x301;" horiz-adv-x="0" 
d="M135 1593q13 34 45.5 37.5t53 -21.5t4.5 -59l-82 -133q-13 -22 -35 -22.5t-36 17t-5 38.5z" />
    <glyph glyph-name="uni0302" unicode="&#x302;" horiz-adv-x="0" 
d="M504 1427q18 -21 8 -46t-33 -30.5t-45 13.5l-139 152l-133 -152q-20 -21 -47 -14.5t-35 29.5t10 48l170 191q12 15 35 15t35 -15z" />
    <glyph glyph-name="tildecomb" unicode="&#x303;" horiz-adv-x="0" 
d="M379 1608q51 0 88.5 -30.5t48.5 -78.5q9 -45 -31 -55q-41 -13 -61 31q-5 18 -19.5 27.5t-35.5 6.5q-19 -8 -48 -30t-56 -37t-54 -15q-45 0 -83 28t-50 73q-3 21 6 38t29 21q34 8 57 -31q12 -35 51 -32q16 5 68 44.5t90 39.5z" />
    <glyph glyph-name="uni0304" unicode="&#x304;" horiz-adv-x="0" 
d="M113 1487q-30 0 -42 24t0 48t42 24h323q30 0 43 -24t0.5 -48t-43.5 -24h-323z" />
    <glyph glyph-name="uni0306" unicode="&#x306;" horiz-adv-x="0" 
d="M297 1364q-91 0 -155 61.5t-64 149.5q0 20 13.5 34.5t33.5 14.5t34.5 -14.5t14.5 -34.5q0 -48 35.5 -81.5t87.5 -33.5q51 0 88 34t37 81q0 21 13 35t34 14q20 0 33.5 -14.5t13.5 -34.5q0 -88 -63.5 -149.5t-155.5 -61.5z" />
    <glyph glyph-name="uni0307" unicode="&#x307;" horiz-adv-x="0" 
d="M131 1432q-26 0 -43.5 18.5t-17.5 46.5q0 25 17.5 43.5t43.5 18.5t45 -18.5t19 -43.5q0 -27 -18.5 -46t-45.5 -19z" />
    <glyph glyph-name="uni0308" unicode="&#x308;" horiz-adv-x="0" 
d="M133 1407q-26 0 -43.5 18.5t-17.5 44.5q0 27 17.5 45.5t43.5 18.5t45 -19t19 -45t-19 -44.5t-45 -18.5zM283 1470q0 26 18.5 45t44.5 19q25 0 43.5 -19t18.5 -45t-18.5 -44.5t-43.5 -18.5q-26 0 -44.5 18.5t-18.5 44.5z" />
    <glyph glyph-name="uni030A" unicode="&#x30a;" horiz-adv-x="0" 
d="M240 1597q67 0 115 -47t48 -112t-48 -112.5t-115 -47.5q-66 0 -114 47.5t-48 112.5t48 112t114 47zM170 1438q0 -28 20 -46t50 -18q28 0 46.5 18t18.5 46t-18.5 46.5t-46.5 18.5q-29 0 -49.5 -18.5t-20.5 -46.5z" />
    <glyph glyph-name="uni030B" unicode="&#x30b;" horiz-adv-x="0" 
d="M129 1632q14 36 46.5 38.5t52.5 -23t3 -58.5l-77 -123q-19 -33 -52.5 -17t-21.5 50zM250 1497l51 133q13 35 45.5 38t52.5 -22.5t4 -58.5l-77 -123q-12 -21 -33.5 -21.5t-35.5 16t-7 38.5z" />
    <glyph glyph-name="uni030C" unicode="&#x30c;" horiz-adv-x="0" 
d="M330 1319q-11 -16 -35 -16t-35 16l-170 190q-13 16 -12 34t14 32q10 12 33 12q24 0 37 -16l133 -152l139 152q12 15 31.5 15.5t34.5 -11.5q14 -14 15 -33t-11 -33z" />
    <glyph glyph-name="uni0312" unicode="&#x312;" horiz-adv-x="0" 
d="M188 1434q-14 -35 -47 -38.5t-53.5 21.5t-3.5 58l84 133q13 22 35 22.5t35.5 -17t3.5 -38.5z" />
    <glyph glyph-name="uni0326" unicode="&#x326;" horiz-adv-x="0" 
d="M156 -264q-13 -22 -35 -23t-36 16t-5 38l55 143q12 34 44.5 37t53.5 -22t5 -58z" />
    <glyph glyph-name="uni0327" unicode="&#x327;" horiz-adv-x="0" 
d="M106 -424q-43 13 -36 57q4 21 21 30.5t38 4.5q117 -25 184 21q32 23 39 53.5t-14 50.5q-23 29 -72 29q-47 0 -100 -23q-29 -12 -53 10t-9 52l78 176q9 20 27.5 26t36.5 -2t24.5 -26t-2.5 -37l-39 -86q50 8 101.5 -6.5t79.5 -48.5q44 -50 34 -123q-6 -73 -75 -123
q-109 -72 -263 -35z" />
    <glyph glyph-name="uni0328" unicode="&#x328;" horiz-adv-x="0" 
d="M295 -449q-19 0 -49 5q-54 13 -93 48t-53 81q-11 32 -10.5 64t6.5 55.5t23.5 55t29.5 48.5t37 49q50 65 74 109q9 17 28 22t38 -6q17 -7 22 -26t-6 -38q-34 -60 -78 -118q-52 -66 -70 -105.5t-4 -81.5q6 -20 27.5 -37.5t48.5 -25.5q74 -13 123 43q15 13 36 13.5t34 -11.5
q13 -15 13.5 -36t-11.5 -34q-71 -74 -166 -74z" />
    <glyph glyph-name="uni1E3E" unicode="&#x1e3e;" horiz-adv-x="1712" 
d="M213 0q-32 0 -55 23t-23 55v1282q0 26 15 46t40 28q23 8 47 0.5t39 -27.5l580 -793l580 793q36 43 88 27q24 -8 38.5 -28t14.5 -46v-1282q0 -32 -23 -55t-55 -23q-31 0 -54.5 23t-23.5 55v1044l-501 -684q-25 -33 -64 -32t-61 32l-504 684v-1044q0 -32 -23 -55t-55 -23z
M819 1493l55 143q13 34 45.5 37.5t53 -21.5t4.5 -59l-82 -133q-13 -22 -35 -22.5t-36 17t-5 38.5z" />
    <glyph glyph-name="uni1E3F" unicode="&#x1e3f;" horiz-adv-x="1597" 
d="M799 0q-33 0 -55.5 22.5t-22.5 55.5v500q0 99 -69.5 168t-166.5 69t-165 -69t-68 -168v-500q0 -32 -24 -55t-56 -23t-55 23t-23 55v500q0 163 114 277t277 114q93 0 176 -42t138 -114q55 72 136.5 114t176.5 42q162 0 276.5 -114.5t114.5 -276.5v-500q0 -32 -23 -55
t-55 -23q-33 0 -56 23t-23 55v500q0 99 -69 168t-165 69q-98 0 -166.5 -68.5t-68.5 -168.5v-500q0 -32 -23 -55t-55 -23zM758 1108l55 143q13 34 45.5 37.5t52.5 -21.5t4 -59l-81 -133q-13 -22 -35 -22.5t-36 17t-5 38.5z" />
    <glyph glyph-name="Wgrave" unicode="&#x1e80;" horiz-adv-x="1943" 
d="M1831 1438q29 -11 43 -39.5t4 -59.5l-475 -1288q-20 -51 -72 -51h-2q-23 0 -43 13.5t-29 35.5l-284 725l-287 -725q-9 -22 -28.5 -35.5t-43.5 -13.5q-50 0 -73 51l-475 1288q-10 31 4 59.5t43 39.5q33 9 61 -5t37 -44l410 -1086l280 711q11 29 40 42t58 1q32 -11 43 -43
h2l279 -711l410 1086q10 30 38.5 44t59.5 5zM854 1671q-16 34 4 59t53 22t47 -38l52 -137q9 -21 -5 -37.5t-36 -15.5t-35 22z" />
    <glyph glyph-name="wgrave" unicode="&#x1e81;" horiz-adv-x="1636" 
d="M465 0q-24 0 -43.5 12.5t-28.5 34.5l-340 815q-12 30 0.5 60t42.5 43q30 11 60 -1.5t43 -41.5l268 -643l278 643q12 30 41 43h2q3 0 5 2q16 5 36 2q47 -7 62 -47l268 -643l281 643q10 30 41.5 42.5t60.5 -1.5q29 -12 41 -43t-2 -60l-350 -813q-9 -22 -28.5 -34.5
t-43.5 -12.5q-53 0 -72 47l-270 645l-280 -645q-19 -47 -72 -47zM694 1204q-16 34 4.5 59t53.5 22t47 -38l51 -137q9 -21 -5 -37.5t-36 -15.5t-35 22z" />
    <glyph glyph-name="Wacute" unicode="&#x1e82;" horiz-adv-x="1943" 
d="M1831 1438q29 -11 43 -39.5t4 -59.5l-475 -1288q-20 -51 -72 -51h-2q-23 0 -43 13.5t-29 35.5l-284 725l-287 -725q-9 -22 -28.5 -35.5t-43.5 -13.5q-50 0 -73 51l-475 1288q-10 31 4 59.5t43 39.5q33 9 61 -5t37 -44l410 -1086l280 711q11 29 40 42t58 1q32 -11 43 -43
h2l279 -711l410 1086q10 30 38.5 44t59.5 5zM938 1561l49 135q13 35 45.5 38t54 -22t5.5 -57l-80 -127q-11 -20 -32.5 -20.5t-35.5 15.5t-6 38z" />
    <glyph glyph-name="wacute" unicode="&#x1e83;" horiz-adv-x="1636" 
d="M465 0q-24 0 -43.5 12.5t-28.5 34.5l-340 815q-12 30 0.5 60t42.5 43q30 11 60 -1.5t43 -41.5l268 -643l278 643q12 30 41 43h2q3 0 5 2q16 5 36 2q47 -7 62 -47l268 -643l281 643q10 30 41.5 42.5t60.5 -1.5q29 -12 41 -43t-2 -60l-350 -813q-9 -22 -28.5 -34.5
t-43.5 -12.5q-53 0 -72 47l-270 645l-280 -645q-19 -47 -72 -47zM778 1094l49 135q13 35 45.5 38t54 -22t5.5 -57l-80 -127q-11 -20 -32.5 -20.5t-35.5 15.5t-6 38z" />
    <glyph glyph-name="Wdieresis" unicode="&#x1e84;" horiz-adv-x="1943" 
d="M1831 1438q29 -11 43 -39.5t4 -59.5l-475 -1288q-20 -51 -72 -51h-2q-23 0 -43 13.5t-29 35.5l-284 725l-287 -725q-9 -22 -28.5 -35.5t-43.5 -13.5q-50 0 -73 51l-475 1288q-10 31 4 59.5t43 39.5q33 9 61 -5t37 -44l410 -1086l280 711q11 29 40 42t58 1q32 -11 43 -43
h2l279 -711l410 1086q10 30 38.5 44t59.5 5zM807 1577q0 26 17.5 44.5t43.5 18.5q25 0 43.5 -18.5t18.5 -44.5t-18.5 -45t-43.5 -19q-26 0 -43.5 18.5t-17.5 45.5zM1018 1577q0 27 18 45t45 18q25 0 43.5 -18.5t18.5 -44.5t-18.5 -45t-43.5 -19q-27 0 -45 18.5t-18 45.5z
" />
    <glyph glyph-name="wdieresis" unicode="&#x1e85;" horiz-adv-x="1636" 
d="M465 0q-24 0 -43.5 12.5t-28.5 34.5l-340 815q-12 30 0.5 60t42.5 43q30 11 60 -1.5t43 -41.5l268 -643l278 643q12 30 41 43h2q3 0 5 2q16 5 36 2q47 -7 62 -47l268 -643l281 643q10 30 41.5 42.5t60.5 -1.5q29 -12 41 -43t-2 -60l-350 -813q-9 -22 -28.5 -34.5
t-43.5 -12.5q-53 0 -72 47l-270 645l-280 -645q-19 -47 -72 -47zM647 1110q0 26 18 45t44 19q25 0 43 -19t18 -45t-18 -44.5t-43 -18.5q-26 0 -44 18.5t-18 44.5zM858 1110q0 27 18.5 45.5t45.5 18.5q25 0 43 -19t18 -45t-18 -44.5t-43 -18.5q-28 0 -46 18.5t-18 44.5z" />
    <glyph glyph-name="uni1EBC" unicode="&#x1ebc;" horiz-adv-x="1167" 
d="M1016 154q31 0 54.5 -22t23.5 -54t-23.5 -55t-54.5 -23h-803q-32 0 -55 23t-23 55v1278q0 32 23 55t55 23h803q31 0 54.5 -23t23.5 -55t-23.5 -54t-54.5 -22h-727v-485h620q31 0 53.5 -23t22.5 -55t-22.5 -55t-53.5 -23h-620v-485h727zM381 1647q-3 21 6 38t29 21
q34 8 57 -31q13 -36 51 -33q16 5 68 44.5t90 39.5q51 0 88.5 -30t48.5 -78q9 -45 -31 -55q-42 -13 -61 30q-11 41 -55 35q-19 -8 -48 -30t-56 -37t-54 -15q-45 0 -83 28t-50 73z" />
    <glyph glyph-name="uni1EBD" unicode="&#x1ebd;" horiz-adv-x="1089" 
d="M514 4q-196 19 -321 155.5t-125 327.5q0 131 64.5 242t175.5 175.5t243 64.5q197 0 334 -135t137 -328q0 -27 -18.5 -48t-45.5 -26q-4 -2 -12 -2l-721 -2q19 -115 102 -189.5t208 -88.5q195 -21 331 98q27 12 56.5 5.5t40.5 -32.5q13 -27 2 -54t-39 -42
q-148 -148 -412 -121zM225 543h641q-12 122 -101 203t-214 81q-124 0 -215.5 -79t-110.5 -205zM317 1171q-3 21 6 38.5t29 21.5q34 8 58 -31q13 -36 51 -33q16 5 67.5 44.5t89.5 39.5q51 0 89 -30t49 -78q9 -46 -31 -56q-41 -13 -61 31q-5 18 -20 28t-36 7q-19 -8 -48 -30
t-55.5 -37t-53.5 -15q-45 0 -83.5 27.5t-50.5 72.5z" />
    <glyph glyph-name="Ygrave" unicode="&#x1ef2;" horiz-adv-x="1247" 
d="M1157 1423q27 -17 34 -48t-9 -58l-480 -764l-2 -477q0 -31 -22.5 -53.5t-54.5 -22.5t-54 23t-22 55l2 475l-483 764q-17 28 -10.5 58.5t34.5 47.5q26 18 58 10.5t47 -34.5l430 -678l426 678q17 27 47.5 34t58.5 -10zM506 1671q-16 34 4 59t53 22t47 -38l52 -137
q9 -21 -5 -37.5t-36 -15.5t-35 22z" />
    <glyph glyph-name="ygrave" unicode="&#x1ef3;" horiz-adv-x="983" 
d="M348 -358q-20 0 -35 6q-29 13 -40 44.5t1 59.5l138 314l-357 786q-13 31 -3 61.5t38 44.5q31 14 61.5 3.5t43.5 -39.5l301 -664l290 662q14 29 44 40t61 -2q28 -12 39 -42.5t-2 -61.5l-510 -1165q-23 -47 -70 -47zM373 1204q-16 34 4 59t53 22t47 -38l51 -137
q9 -21 -4.5 -37.5t-35.5 -15.5t-35 22z" />
    <glyph glyph-name="uni1EF8" unicode="&#x1ef8;" horiz-adv-x="1247" 
d="M1157 1423q27 -17 34 -48t-9 -58l-480 -764l-2 -477q0 -31 -22.5 -53.5t-54.5 -22.5t-54 23t-22 55l2 475l-483 764q-17 28 -10.5 58.5t34.5 47.5q26 18 58 10.5t47 -34.5l430 -678l426 678q17 27 47.5 34t58.5 -10zM391 1638q-3 21 6 38.5t29 21.5q34 8 57 -31
q13 -36 52 -33q16 5 67.5 44.5t89.5 39.5q51 0 88.5 -30t48.5 -78q9 -46 -30 -56q-19 -6 -36 2.5t-26 28.5q-11 41 -55 35q-19 -8 -48 -30t-56 -37t-54 -15q-45 0 -83 27.5t-50 72.5z" />
    <glyph glyph-name="uni1EF9" unicode="&#x1ef9;" horiz-adv-x="983" 
d="M348 -358q-20 0 -35 6q-29 13 -40 44.5t1 59.5l138 314l-357 786q-13 31 -3 61.5t38 44.5q31 14 61.5 3.5t43.5 -39.5l301 -664l290 662q14 29 44 40t61 -2q28 -12 39 -42.5t-2 -61.5l-510 -1165q-23 -47 -70 -47zM258 1171q-3 21 6 38.5t29 21.5q34 8 57 -31
q13 -36 51 -33q16 5 68 44.5t90 39.5q51 0 88.5 -30t48.5 -78q9 -46 -30 -56q-19 -6 -36 2.5t-26 28.5q-11 41 -55 35q-19 -8 -48 -30t-56 -37t-54 -15q-45 0 -83 27.5t-50 72.5z" />
    <glyph glyph-name="endash" unicode="&#x2013;" horiz-adv-x="1110" 
d="M82 606q0 31 23 53.5t55 22.5h790q32 0 55 -22.5t23 -53.5q0 -32 -23 -55t-55 -23h-790q-32 0 -55 23t-23 55z" />
    <glyph glyph-name="emdash" unicode="&#x2014;" horiz-adv-x="1425" 
d="M82 733q0 31 23 54.5t55 23.5h1106q32 0 54.5 -23.5t22.5 -54.5q0 -32 -22.5 -55t-54.5 -23h-1106q-32 0 -55 23t-23 55z" />
    <glyph glyph-name="quoteleft" unicode="&#x2018;" horiz-adv-x="327" 
d="M250 1489q19 -6 29 -25t6 -39l-37 -217q-6 -36 -33 -55.5t-63 -13.5q-35 5 -56.5 34t-11.5 68l80 219q11 25 37 33.5t49 -4.5z" />
    <glyph glyph-name="quoteright" unicode="&#x2019;" horiz-adv-x="327" 
d="M117 1145q-18 8 -27.5 26.5t-5.5 38.5l37 217q6 35 32.5 54.5t61.5 13.5q36 -5 57 -33t11 -67l-78 -221q-11 -24 -37 -33t-51 4z" />
    <glyph glyph-name="quotesinglbase" unicode="&#x201a;" horiz-adv-x="1228" 
d="M53 -170q-17 10 -23.5 30.5t1.5 39.5l73 206q12 33 43.5 48t61.5 4q34 -10 50 -41.5t-1 -71.5l-117 -201q-13 -23 -40.5 -27t-47.5 13z" />
    <glyph glyph-name="quotedblleft" unicode="&#x201c;" horiz-adv-x="557" 
d="M487 1489q19 -6 28.5 -25t4.5 -39l-37 -217q-6 -34 -34 -54t-60 -15q-34 5 -55.5 34t-11.5 68l79 219q11 25 37 33.5t49 -4.5zM84 1241l80 219q11 25 37 33.5t49 -4.5q19 -6 29 -25t6 -39l-37 -217q-6 -34 -34.5 -54t-61.5 -15q-35 5 -56.5 34t-11.5 68z" />
    <glyph glyph-name="quotedblright" unicode="&#x201d;" horiz-adv-x="557" 
d="M117 1145q-18 8 -27.5 26.5t-5.5 38.5l37 217q6 34 34 53.5t60 14.5q36 -5 57 -33t11 -67l-78 -221q-11 -24 -37 -33t-51 4zM322 1210l36 217q6 34 34.5 53.5t60.5 14.5q35 -5 56 -33t11 -67l-80 -221q-11 -24 -36 -33t-50 4q-19 7 -28 26t-4 39z" />
    <glyph glyph-name="quotedblbase" unicode="&#x201e;" horiz-adv-x="1228" 
d="M53 -170q-17 10 -23.5 30.5t1.5 39.5l73 206q12 33 43.5 48t61.5 4q34 -10 50 -41.5t-1 -71.5l-117 -201q-13 -23 -40.5 -27t-47.5 13z" />
    <glyph glyph-name="dagger" unicode="&#x2020;" horiz-adv-x="786" 
d="M391 633q-30 0 -51 20t-21 49v564h-180q-29 0 -49 21t-20 50q0 30 20 51t49 21h180v145q0 30 21 51t51 21q29 0 49.5 -20.5t20.5 -51.5v-145h186q29 0 49.5 -21.5t20.5 -50.5t-20.5 -50t-49.5 -21h-186v-564q0 -29 -20.5 -49t-49.5 -20z" />
    <glyph glyph-name="daggerdbl" unicode="&#x2021;" horiz-adv-x="786" 
d="M391 633q-30 0 -51 20t-21 49v187h-180q-29 0 -49 21t-20 51q0 29 20 50t49 21h180v234h-180q-29 0 -49 21t-20 50q0 30 20 51t49 21h180v145q0 30 21 51t51 21q29 0 49.5 -20.5t20.5 -51.5v-145h186q29 0 49.5 -21.5t20.5 -50.5t-20.5 -50t-49.5 -21h-186v-234h186
q29 0 49.5 -21t20.5 -50t-20.5 -50.5t-49.5 -21.5h-186v-187q0 -29 -20.5 -49t-49.5 -20z" />
    <glyph glyph-name="bullet" unicode="&#x2022;" horiz-adv-x="641" 
d="M322 526q-84 0 -141.5 60t-57.5 143q0 85 57 142t142 57q83 0 139.5 -57t56.5 -142q0 -83 -57 -143t-139 -60z" />
    <glyph glyph-name="ellipsis" unicode="&#x2026;" horiz-adv-x="892" 
d="M774 -2q-40 0 -68 29.5t-28 70.5q0 38 28 66.5t68 28.5t68 -28.5t28 -66.5q0 -41 -28 -70.5t-68 -29.5zM74 98q0 38 28 66.5t68 28.5t68 -28.5t28 -66.5q0 -41 -28 -70.5t-68 -29.5t-68 29.5t-28 70.5zM377 98q0 38 28.5 66.5t67.5 28.5t67.5 -28.5t28.5 -66.5
q0 -41 -28 -70.5t-68 -29.5t-68 29.5t-28 70.5z" />
    <glyph glyph-name="perthousand" unicode="&#x2030;" horiz-adv-x="1587" 
d="M160 0q-21 0 -37 8q-27 18 -35.5 47.5t8.5 57.5l715 1288q13 27 44.5 35.5t59.5 -6.5q26 -15 35 -45t-6 -58l-717 -1288q-19 -39 -67 -39zM61 1141q0 102 66.5 175t161.5 73q94 0 160.5 -73t66.5 -175q0 -103 -66.5 -176.5t-160.5 -73.5q-95 0 -161.5 73.5t-66.5 176.5z
M178 1141q0 -55 33 -93t78 -38t77.5 38t32.5 93q0 54 -32.5 91.5t-77.5 37.5t-78 -38t-33 -91zM528 281q0 102 66.5 174.5t161.5 72.5q94 0 160.5 -73t66.5 -174q0 -103 -66.5 -175.5t-160.5 -72.5q-95 0 -161.5 72.5t-66.5 175.5zM645 281q0 -55 32.5 -93t78.5 -38
q45 0 76.5 38t31.5 93q0 54 -32 91.5t-76 37.5q-46 0 -78.5 -37.5t-32.5 -91.5zM1051 276q0 103 67 176.5t162 73.5q93 0 159 -73.5t66 -176.5t-65.5 -175t-159.5 -72q-95 0 -162 72t-67 175zM1169 276q0 -54 32.5 -92.5t78.5 -38.5q44 0 76.5 38.5t32.5 92.5t-32.5 93
t-76.5 39q-46 0 -78.5 -39t-32.5 -93z" />
    <glyph glyph-name="guilsinglleft" unicode="&#x2039;" horiz-adv-x="761" 
d="M610 125q-23 0 -43 14l-456 316q-33 23 -33 61q0 36 31 57l458 328q27 18 56 14t47 -28q19 -25 14 -56.5t-31 -48.5l-374 -264l374 -258q25 -17 30 -47.5t-13 -56.5q-21 -31 -60 -31z" />
    <glyph glyph-name="guilsinglright" unicode="&#x203a;" horiz-adv-x="761" 
d="M152 125q-39 0 -60 31q-18 26 -13 56.5t30 47.5l374 258l-374 264q-26 17 -31 48.5t14 56.5q18 24 47 28t56 -14l458 -328q31 -21 31 -57q0 -38 -33 -61l-456 -316q-20 -14 -43 -14z" />
    <glyph glyph-name="fraction" unicode="&#x2044;" horiz-adv-x="499" 
d="M-207 -10q-20 11 -26 33.5t6 44.5l854 1351q13 20 35.5 24.5t44.5 -9.5q21 -10 26.5 -34t-8.5 -44l-852 -1352q-12 -19 -34.5 -22.5t-45.5 8.5z" />
    <glyph glyph-name="uni2070" unicode="&#x2070;" horiz-adv-x="872" 
d="M436 848q-155 0 -265 110t-110 265t110 264.5t265 109.5t265 -109.5t110 -264.5t-110 -265t-265 -110zM158 1223q0 -116 81.5 -198.5t196.5 -82.5q114 0 197.5 83t83.5 198q0 114 -83.5 197t-197.5 83q-115 0 -196.5 -82.5t-81.5 -197.5z" />
    <glyph glyph-name="uni2074" unicode="&#x2074;" horiz-adv-x="610" 
d="M408 858q-19 0 -33.5 13.5t-14.5 31.5v107h-286q-21 0 -37 16q-16 19 -6 43l133 496q6 19 24 27.5t37 2.5t28 -23t3 -36l-117 -432h221v196q0 20 14.5 35t33.5 15q20 0 34.5 -15t14.5 -35v-196h63q20 0 34.5 -14.5t14.5 -34.5q0 -19 -14.5 -32t-34.5 -13h-63v-107
q0 -19 -14.5 -32t-34.5 -13z" />
    <glyph glyph-name="uni2075" unicode="&#x2075;" horiz-adv-x="583" 
d="M272 844q-78 0 -143 37.5t-102 103.5q-10 18 -5 36.5t21 27.5q19 11 38.5 5.5t29.5 -24.5q25 -41 68 -65.5t93 -24.5q74 0 125.5 47.5t51.5 116.5q0 73 -52 112t-133 39h-137q-25 0 -39 17q-14 24 -8 43l61 246q4 17 16.5 26.5t28.5 9.5h228q20 0 33.5 -13.5t13.5 -35.5
q0 -19 -13.5 -33t-33.5 -14h-189l-37 -151h76q126 0 202.5 -68t76.5 -178q0 -109 -78.5 -184.5t-192.5 -75.5z" />
    <glyph glyph-name="uni2076" unicode="&#x2076;" horiz-adv-x="618" 
d="M309 852q-112 0 -190 78.5t-78 189.5q0 19 2 34t5 28.5t13.5 35.5t18.5 38.5t30.5 53t39.5 64.5t54.5 89t67.5 110q15 26 42.5 26.5t42.5 -20.5t-1 -47l-96 -156q79 18 153 -12.5t119.5 -97t45.5 -146.5q0 -110 -79.5 -189t-189.5 -79zM135 1120q0 -71 51 -121.5
t123 -50.5t123 50.5t51 121.5q0 72 -51 122t-123 50t-123 -50t-51 -122z" />
    <glyph glyph-name="uni2077" unicode="&#x2077;" horiz-adv-x="536" 
d="M115 860q-11 0 -23 6q-17 9 -22 28t4 36l315 571h-319q-20 0 -35 14t-15 33q0 20 15 34.5t35 14.5h401q25 0 39 -24q12 -25 2 -45l-354 -641q-15 -27 -43 -27z" />
    <glyph glyph-name="uni2078" unicode="&#x2078;" horiz-adv-x="591" 
d="M297 862q-105 0 -180.5 70.5t-75.5 171.5q0 63 34.5 116t92.5 83q-57 47 -57 120q0 72 53.5 123t128.5 51q76 0 130 -51t54 -123t-55 -118q59 -30 94 -83.5t35 -117.5q0 -101 -74.5 -171.5t-179.5 -70.5zM135 1104q0 -61 48 -104.5t114 -43.5t115 43.5t49 104.5
q0 58 -49 100.5t-115 42.5t-114 -42.5t-48 -100.5zM203 1423q0 -35 27 -59.5t63 -24.5q40 0 67 24.5t27 59.5q0 33 -27.5 57.5t-66.5 24.5q-35 0 -62.5 -25t-27.5 -57z" />
    <glyph glyph-name="uni2079" unicode="&#x2079;" horiz-adv-x="618" 
d="M309 1597q112 0 190.5 -78.5t78.5 -189.5q0 -18 -2 -33t-5 -28.5t-13.5 -35t-19 -38.5t-30.5 -53.5t-39.5 -65t-54.5 -88.5t-68 -110q-9 -15 -24 -21.5t-28.5 -3t-25.5 12.5t-14 23.5t6 31.5l98 155q-79 -19 -153 11t-119 96.5t-45 146.5q0 110 79 189t189 79zM135 1329
q0 -72 51 -122t123 -50t123 50t51 122t-51 123t-123 51t-123 -51t-51 -123z" />
    <glyph glyph-name="uni2080" unicode="&#x2080;" horiz-adv-x="872" 
d="M436 -123q-155 0 -265 110t-110 265q0 154 110 264.5t265 110.5t265 -110.5t110 -264.5q0 -155 -110 -265t-265 -110zM158 252q0 -116 81.5 -198.5t196.5 -82.5q114 0 197.5 83t83.5 198q0 114 -83.5 196t-197.5 82q-115 0 -196.5 -82t-81.5 -196z" />
    <glyph glyph-name="uni2081" unicode="&#x2081;" horiz-adv-x="264" 
d="M168 -123q-19 0 -33 14.5t-14 34.5v592l-29 -10q-19 -6 -35 2t-24 27t-0.5 37.5t26.5 25.5l93 37q29 7 45 -6q20 -11 20 -41v-664q0 -20 -14.5 -34.5t-34.5 -14.5z" />
    <glyph glyph-name="uni2082" unicode="&#x2082;" horiz-adv-x="571" 
d="M84 -123q-35 0 -45 29q-11 27 6 51q52 56 136 147.5t143.5 157t64.5 70.5q23 29 26 64t-12 65q-41 73 -124 65q-95 -3 -146 -88q-8 -15 -26 -21t-37 3q-17 9 -23 27.5t2 37.5q69 120 223 136q70 5 127 -26.5t86 -90.5q30 -58 23 -120t-47 -114q-44 -52 -271 -299h293
q22 0 34.5 -13.5t12.5 -35.5q0 -19 -13 -32t-34 -13h-399z" />
    <glyph glyph-name="uni2083" unicode="&#x2083;" horiz-adv-x="538" 
d="M248 -125q-66 0 -125 29t-94 78q-10 14 -7 33.5t17 31.5q18 10 36 7t29 -17q50 -70 144 -70q66 0 112 38t46 91q0 57 -46 93t-118 36q-56 0 -56 47t52 47q60 0 94.5 29t34.5 70q0 40 -38 67.5t-93 26.5q-58 0 -105 -37q-38 -23 -65 10q-11 15 -9 33.5t19 30.5
q66 54 157 57q94 1 161 -54.5t67 -133.5q0 -84 -78 -139q54 -30 84.5 -78t30.5 -105q0 -92 -73.5 -156.5t-176.5 -64.5z" />
    <glyph glyph-name="uni2084" unicode="&#x2084;" horiz-adv-x="608" 
d="M406 -123q-19 0 -32.5 14t-13.5 33v105h-286q-21 0 -37 16q-15 23 -6 41l133 496q6 17 23.5 25.5t37.5 2.5q17 -6 26 -22t5 -35l-117 -432h221v198q0 19 13.5 33.5t32.5 14.5q20 0 35.5 -14.5t15.5 -33.5v-198h61q20 0 34.5 -13.5t14.5 -33.5q0 -19 -14.5 -32t-34.5 -13
h-61v-105q0 -19 -15.5 -33t-35.5 -14z" />
    <glyph glyph-name="uni2085" unicode="&#x2085;" horiz-adv-x="585" 
d="M272 -127q-76 0 -142 38t-103 103q-10 17 -4.5 36t22.5 30q17 9 37 3.5t29 -22.5q25 -41 68.5 -65.5t92.5 -24.5q74 0 125.5 47t51.5 117q0 73 -51.5 111.5t-131.5 38.5h-139q-25 0 -39 18q-14 21 -8 43l61 246q10 37 45 37h228q22 0 34.5 -13.5t12.5 -35.5
q0 -20 -13 -34t-34 -14h-189l-37 -151h78q124 0 200.5 -68.5t76.5 -177.5t-78 -185.5t-193 -76.5z" />
    <glyph glyph-name="uni2086" unicode="&#x2086;" horiz-adv-x="618" 
d="M309 -125q-112 0 -190 78.5t-78 189.5q0 19 2 34t5 28.5t13.5 35.5t18.5 38.5t30.5 53t39.5 64.5t54.5 89t67.5 110q15 26 42.5 26.5t42.5 -20.5t-1 -47l-96 -156q79 18 153 -12.5t119.5 -97t45.5 -146.5q0 -110 -79.5 -189t-189.5 -79zM135 143q0 -71 51 -121.5
t123 -50.5t123 50.5t51 121.5q0 72 -51 122t-123 50t-123 -50t-51 -122z" />
    <glyph glyph-name="uni2087" unicode="&#x2087;" horiz-adv-x="536" 
d="M115 -127q-7 0 -23 8q-17 9 -22 27t4 37l313 569h-317q-20 0 -35 14t-15 33q0 20 15 34.5t35 14.5h399q24 0 41 -24q9 -25 0 -47l-352 -639q-17 -27 -43 -27z" />
    <glyph glyph-name="uni2088" unicode="&#x2088;" horiz-adv-x="591" 
d="M297 -123q-105 0 -180.5 70.5t-75.5 169.5q0 64 34 116t93 82q-57 50 -57 123q0 71 53.5 122.5t128.5 51.5q76 0 130 -51.5t54 -122.5q0 -73 -55 -119q59 -30 94 -83.5t35 -118.5q0 -99 -74.5 -169.5t-179.5 -70.5zM135 117q0 -61 47.5 -103.5t114.5 -42.5t115.5 42.5
t48.5 103.5q0 60 -49 102.5t-115 42.5t-114 -42.5t-48 -102.5zM203 438q0 -36 27 -61t63 -25q40 0 67 24.5t27 61.5q0 33 -27.5 57.5t-66.5 24.5q-35 0 -62.5 -25t-27.5 -57z" />
    <glyph glyph-name="uni2089" unicode="&#x2089;" horiz-adv-x="618" 
d="M309 623q112 0 190.5 -79t78.5 -190q0 -18 -2 -33.5t-5 -29.5t-13.5 -35l-19 -38t-30.5 -52.5t-40 -65t-54.5 -88.5t-67.5 -110q-15 -26 -42.5 -26.5t-43 20.5t-0.5 47l98 155q-79 -18 -153 12.5t-119 97t-45 146.5q0 110 79 189.5t189 79.5zM135 354q0 -72 51 -122
t123 -50t123 50t51 122q0 71 -51 121.5t-123 50.5t-123 -50.5t-51 -121.5z" />
    <glyph glyph-name="franc" unicode="&#x20a3;" horiz-adv-x="1263" 
d="M336 0q-31 0 -53.5 22t-22.5 54v252h-137q-26 0 -44 17.5t-18 43.5t18 44t44 18h137v905q0 31 22.5 53.5t53.5 22.5h792q31 0 52.5 -22.5t21.5 -53.5t-22 -54.5t-52 -23.5h-714v-485h645q31 0 53.5 -23t22.5 -55q0 -31 -22.5 -53.5t-53.5 -22.5h-645v-188h164
q26 0 43.5 -18t17.5 -44t-17.5 -43.5t-43.5 -17.5h-164v-252q0 -32 -23 -54t-55 -22z" />
    <glyph glyph-name="Euro" unicode="&#x20ac;" horiz-adv-x="1271" 
d="M969 0q-235 0 -423 138t-259 356h-166q-24 0 -42 18.5t-18 44.5q0 25 18.5 43t41.5 18h137q-6 50 -6 99q0 26 4 76h-135q-24 0 -42 17.5t-18 43.5q0 24 18.5 42.5t41.5 18.5h160q65 227 255.5 373t432.5 146q70 0 159 -21q31 -6 48 -31.5t10 -56.5q-7 -32 -33.5 -48.5
t-58.5 -10.5q-57 14 -125 14q-180 0 -324 -101.5t-205 -263.5h379q26 0 44 -18t18 -43q0 -26 -18 -43.5t-44 -17.5h-411q-5 -63 -5 -76q0 -49 9 -99h407q26 0 44 -18t18 -43q0 -26 -18 -44.5t-44 -18.5h-370q67 -153 207.5 -246.5t312.5 -93.5q69 0 129 14q30 6 57 -11
t33 -48q6 -30 -11 -56.5t-47 -32.5q-88 -20 -161 -20z" />
    <glyph glyph-name="uni2116" unicode="&#x2116;" horiz-adv-x="2478" 
d="M199 0q-31 0 -53.5 23.5t-22.5 56.5v1282q0 25 14 45t37 27q57 17 88 -25l860 -1104v1057q0 32 22 55t54 23q33 0 55.5 -22.5t22.5 -55.5v-1282q0 -26 -14 -47.5t-37 -28.5q-8 -4 -27 -4q-39 0 -61 31l-858 1104v-1055q0 -34 -23 -57t-57 -23zM1403 952
q0 201 142.5 343.5t344.5 142.5q131 0 243 -65t177.5 -177t65.5 -244t-65.5 -243.5t-177.5 -176.5t-243 -65q-202 0 -344.5 142t-142.5 343zM1556 952q0 -137 98 -234t236 -97q136 0 233 97t97 234q0 138 -96.5 235t-233.5 97q-138 0 -236 -97t-98 -235z" />
    <glyph glyph-name="trademark" unicode="&#x2122;" horiz-adv-x="2897" 
d="M1073 1434q32 0 55 -23t23 -55t-23 -54t-55 -22h-383v-1202q0 -32 -23 -55t-55 -23q-31 0 -53 23t-22 55v1202h-381q-32 0 -55 22t-23 54t23 55t55 23h917zM1323 78v1282q0 26 15 46t40 28q23 8 47 0.5t39 -27.5l580 -793l579 793q37 43 89 27q24 -8 38.5 -28t14.5 -46
v-1282q0 -32 -23 -55t-55 -23q-31 0 -54.5 23t-23.5 55v1044l-502 -684q-25 -33 -64 -32t-61 32l-503 684v-1044q0 -32 -23 -55t-55 -23t-55 23t-23 55z" />
    <glyph glyph-name="oneeighth" unicode="&#x215b;" horiz-adv-x="1349" 
d="M164 674q-19 0 -33 14.5t-14 34.5v592l-29 -12q-19 -6 -35.5 2t-23.5 28q-8 19 -0.5 37t26.5 25l92 39q26 6 46 -7q20 -14 20 -41v-663q0 -20 -14.5 -34.5t-34.5 -14.5zM31 68l854 1351q13 20 35.5 24.5t44.5 -9.5q21 -10 26.5 -34t-8.5 -44l-852 -1352
q-12 -19 -34.5 -22.5t-45.5 8.5q-20 11 -26 33.5t6 44.5zM799 240q0 64 34 116t93 82q-58 51 -58 123q0 71 54 122.5t129 51.5q76 0 130 -51.5t54 -122.5q0 -73 -55 -119q59 -30 94 -83.5t35 -118.5q0 -99 -74.5 -169.5t-179.5 -70.5t-180.5 70.5t-75.5 169.5zM893 240
q0 -61 47.5 -103.5t114.5 -42.5t115.5 42.5t48.5 103.5q0 60 -49 102.5t-115 42.5t-114 -42.5t-48 -102.5zM961 561q0 -36 27 -61t63 -25q40 0 67 24.5t27 61.5q0 33 -27.5 57.5t-66.5 24.5q-35 0 -62.5 -25t-27.5 -57z" />
    <glyph glyph-name="threeeighths" unicode="&#x215c;" horiz-adv-x="1648" 
d="M260 700q-67 0 -126.5 28.5t-92.5 78.5q-11 15 -8 35t18 30q17 10 36 8t30 -16q51 -71 143 -71q67 0 113.5 38.5t46.5 90.5q0 58 -46 94.5t-120 36.5q-55 0 -55 47t51 47q61 0 96 28.5t35 69.5t-38.5 68.5t-92.5 25.5q-62 0 -107 -36q-15 -11 -34 -8t-31 18t-9.5 34
t19.5 29q71 58 158 58q94 1 160.5 -54.5t66.5 -134.5q0 -90 -78 -139q55 -30 86 -78t31 -106q0 -91 -74 -156.5t-178 -65.5zM330 68l854 1351q13 20 35.5 24.5t44.5 -9.5q21 -10 26.5 -34t-8.5 -44l-852 -1352q-12 -19 -34.5 -22.5t-45.5 8.5q-20 11 -26 33.5t6 44.5z
M1098 240q0 64 34 116t93 82q-58 51 -58 123q0 71 54 122.5t129 51.5q76 0 130 -51.5t54 -122.5q0 -73 -55 -119q59 -30 94 -83.5t35 -118.5q0 -99 -74.5 -169.5t-179.5 -70.5t-180.5 70.5t-75.5 169.5zM1192 240q0 -61 47.5 -103.5t114.5 -42.5t115.5 42.5t48.5 103.5
q0 60 -49 102.5t-115 42.5t-114 -42.5t-48 -102.5zM1260 561q0 -36 27 -61t63 -25q40 0 67 24.5t27 61.5q0 33 -27.5 57.5t-66.5 24.5q-35 0 -62.5 -25t-27.5 -57z" />
    <glyph glyph-name="fiveeighths" unicode="&#x215d;" horiz-adv-x="1683" 
d="M281 680q-78 0 -144.5 37.5t-101.5 103.5q-10 18 -5 36.5t21 27.5q19 11 38 5.5t28 -24.5q27 -41 70.5 -65.5t93.5 -24.5q74 0 125 47.5t51 116.5q0 73 -52 112.5t-133 39.5h-139q-24 0 -37 16q-14 24 -8 43l62 246q3 17 15.5 27t27.5 10h229q20 0 33.5 -14t13.5 -36
q0 -19 -13.5 -33t-33.5 -14h-189l-38 -151h77q126 0 202.5 -68t76.5 -178q0 -109 -78 -184.5t-192 -75.5zM365 68l854 1351q13 20 35 24.5t44 -9.5q22 -10 27.5 -34t-8.5 -44l-852 -1352q-12 -19 -34.5 -22.5t-45.5 8.5q-20 11 -26 33.5t6 44.5zM1130 240q0 64 34 116t93 82
q-57 50 -57 123q0 71 53.5 122.5t128.5 51.5q76 0 130.5 -51.5t54.5 -122.5q0 -73 -56 -119q59 -30 94 -83.5t35 -118.5q0 -99 -74.5 -169.5t-179.5 -70.5t-180.5 70.5t-75.5 169.5zM1225 240q0 -61 47.5 -103.5t113.5 -42.5q67 0 115.5 42.5t48.5 103.5q0 60 -49 102.5
t-115 42.5t-113.5 -42.5t-47.5 -102.5zM1292 561q0 -36 27 -61t63 -25q40 0 67.5 24.5t27.5 61.5q0 33 -28 57.5t-67 24.5q-35 0 -62.5 -25t-27.5 -57z" />
    <glyph glyph-name="seveneighths" unicode="&#x215e;" horiz-adv-x="1636" 
d="M115 696q-11 0 -23 6q-17 9 -22 28t4 36l315 571h-319q-20 0 -35 14t-15 33q0 20 15 35t35 15h401q23 0 41 -25q9 -25 0 -47l-354 -639q-15 -27 -43 -27zM317 68l854 1351q13 20 35.5 24.5t44.5 -9.5q22 -10 27.5 -34t-8.5 -44l-852 -1352q-12 -19 -34.5 -22.5t-45.5 8.5
q-20 11 -26.5 33.5t5.5 44.5zM1085 240q0 64 34 116t93 82q-57 50 -57 123q0 71 53.5 122.5t128.5 51.5q76 0 130.5 -51.5t54.5 -122.5q0 -73 -56 -119q59 -30 94 -83.5t35 -118.5q0 -99 -74.5 -169.5t-179.5 -70.5t-180.5 70.5t-75.5 169.5zM1180 240q0 -61 47.5 -103.5
t113.5 -42.5q67 0 115.5 42.5t48.5 103.5q0 60 -49 102.5t-115 42.5t-113.5 -42.5t-47.5 -102.5zM1247 561q0 -36 27 -61t63 -25q40 0 67.5 24.5t27.5 61.5q0 33 -28 57.5t-67 24.5q-35 0 -62.5 -25t-27.5 -57z" />
    <glyph glyph-name="arrowleft" unicode="&#x2190;" horiz-adv-x="1556" 
d="M84 662q-22 23 -22 54t22 54l272 272q23 23 54.5 23t54.5 -23q22 -22 22 -53t-22 -53l-146 -145h1100q32 0 54 -22t22 -54q0 -31 -22 -53.5t-54 -22.5h-1095l141 -143q22 -22 22 -54t-22 -55q-23 -22 -54.5 -22t-54.5 22z" />
    <glyph glyph-name="arrowup" unicode="&#x2191;" horiz-adv-x="823" 
d="M82 1030q-22 23 -22 54.5t22 54.5l276 272q22 22 53.5 22t53.5 -22l274 -272q22 -23 22 -54.5t-22 -54.5q-23 -22 -54 -22t-54 22l-144 144v-1098q0 -32 -22.5 -54t-54.5 -22q-30 0 -52 22t-22 54v1098l-146 -144q-22 -23 -53.5 -23t-54.5 23z" />
    <glyph glyph-name="arrowright" unicode="&#x2192;" horiz-adv-x="1556" 
d="M1092 1044q22 23 53.5 23t54.5 -23l273 -274q22 -22 22 -53t-22 -53l-273 -275q-23 -22 -54 -22t-54 22q-22 23 -22 54.5t22 54.5l143 143h-1098q-32 0 -54 22t-22 54q0 31 22 53.5t54 22.5h1098l-143 145q-23 22 -23 53t23 53z" />
    <glyph glyph-name="arrowdown" unicode="&#x2193;" horiz-adv-x="823" 
d="M82 295q-22 23 -22 54t22 54q23 22 54.5 22t53.5 -22l144 -143v1098q0 32 22.5 54t53.5 22q32 0 53.5 -22t21.5 -54v-1100l146 145q23 22 54 22t54 -22q22 -23 22 -54t-22 -54l-274 -272q-23 -22 -54.5 -22t-54.5 22z" />
    <glyph glyph-name="arrowboth" unicode="&#x2194;" horiz-adv-x="1705" 
d="M84 639q-22 22 -22.5 52t22.5 54l272 275q23 22 54.5 22t54.5 -22q22 -23 22 -54.5t-22 -54.5l-146 -145l1065 2l-143 145q-22 22 -22 53t22 54q23 22 54.5 22t54.5 -22l272 -275q23 -24 22.5 -54t-22.5 -52l-272 -274q-23 -23 -54.5 -23t-54.5 23q-22 22 -22 53t22 53
l145 145l-1064 -2l143 -143q22 -22 22 -54t-22 -55q-23 -22 -54.5 -22t-54.5 22z" />
    <glyph glyph-name="arrowupdn" unicode="&#x2195;" horiz-adv-x="823" 
d="M358 1456q22 23 53.5 23t53.5 -23l274 -272q23 -22 23 -53.5t-23 -53.5q-23 -23 -54 -23t-54 23l-144 144v-1049l146 143q22 23 52.5 23t55.5 -23q22 -22 22 -53.5t-22 -54.5l-276 -273q-22 -23 -53.5 -22.5t-53.5 22.5l-274 273q-23 24 -22.5 54t22.5 54q23 22 54.5 22
t54.5 -22l143 -145v1049l-146 -142q-22 -23 -53 -23t-53 23q-22 22 -22.5 52.5t22.5 54.5z" />
    <glyph glyph-name="uni2196" unicode="&#x2196;" horiz-adv-x="1181" 
d="M602 1163q0 -31 -22.5 -53.5t-53.5 -22.5l-202 -2l774 -774q23 -23 23.5 -54.5t-21.5 -53.5q-23 -23 -54.5 -23t-54.5 23l-778 778v-205q0 -32 -21.5 -54t-52.5 -22q-32 0 -55 22t-23 54l2 385q0 32 22 54t54 22l387 4q31 -2 53.5 -24.5t22.5 -53.5z" />
    <glyph glyph-name="uni2197" unicode="&#x2197;" horiz-adv-x="1181" 
d="M580 1163q0 31 22 53.5t53 24.5l387 -4q32 0 55 -22t23 -54v-385q0 -32 -22.5 -54t-53.5 -22q-32 0 -53.5 22t-21.5 54v205l-779 -778q-23 -23 -54 -23t-54 23q-22 22 -21.5 53.5t23.5 54.5l776 774l-205 2q-31 0 -53 22.5t-22 53.5z" />
    <glyph glyph-name="uni2198" unicode="&#x2198;" horiz-adv-x="1181" 
d="M580 256q0 32 22 54.5t53 21.5l205 2l-776 776q-23 23 -23.5 55t21.5 52q23 23 54 23t54 -23l779 -777v205q0 31 21.5 53.5t53.5 22.5q31 0 53.5 -22t22.5 -54v-387q0 -31 -23 -53.5t-55 -22.5l-387 -2q-31 2 -53 24t-22 52z" />
    <glyph glyph-name="uni2199" unicode="&#x2199;" horiz-adv-x="1181" 
d="M602 256q0 -30 -22.5 -52t-53.5 -24l-387 2q-32 0 -54 22.5t-22 53.5l-2 387q0 32 23 54t55 22q31 0 52.5 -22.5t21.5 -53.5v-205l778 777q23 23 54.5 23t54.5 -23q22 -20 21.5 -52t-23.5 -55l-774 -776l202 -2q31 2 53.5 -21t22.5 -55z" />
    <glyph glyph-name="minus" unicode="&#x2212;" horiz-adv-x="925" 
d="M164 637q-25 0 -43.5 18.5t-18.5 44.5q0 25 18.5 43.5t43.5 18.5h598q26 0 43.5 -18.5t17.5 -43.5q0 -26 -17.5 -44.5t-43.5 -18.5h-598z" />
    <glyph glyph-name="approxequal" unicode="&#x2248;" horiz-adv-x="1198" 
d="M408 655q-102 0 -185 58t-123 157q-12 28 -1 54t38 37q27 9 52.5 -2t35.5 -37q25 -58 72.5 -94.5t110.5 -36.5q37 0 69 17t80 54q37 30 65 49t78 36.5t103 17.5q100 0 179 -56t116 -153q11 -25 -1 -51.5t-38 -36.5q-27 -9 -53 2t-35 37q-19 54 -63.5 88t-104.5 34
q-46 0 -80.5 -17.5t-83.5 -55.5q-39 -31 -65 -48.5t-72.5 -35t-93.5 -17.5zM100 446q-12 28 -1 54t38 37q26 10 51.5 -1t36.5 -36q25 -58 72.5 -94.5t110.5 -36.5q38 0 71 17t78 54q38 30 65 47.5t77.5 35.5t103.5 18q100 0 179 -56t116 -151q10 -26 -1.5 -52.5t-37.5 -37.5
q-27 -9 -53 2t-35 37q-20 55 -64 89t-104 34q-32 0 -62.5 -11.5t-49 -24t-52.5 -38.5q-39 -31 -65 -48.5t-72.5 -35t-93.5 -17.5q-101 0 -184.5 58.5t-123.5 156.5z" />
    <glyph glyph-name="lessequal" unicode="&#x2264;" horiz-adv-x="823" 
d="M664 356q-22 0 -43 15l-484 315q-33 22 -33 62q0 34 31 57l486 328q27 18 55.5 12.5t46.5 -29.5q19 -25 14.5 -55t-30.5 -47l-400 -266l400 -256q25 -17 30 -48t-14 -59q-22 -29 -59 -29zM72 172q0 25 17 43t42 18h561q25 0 43.5 -18t18.5 -43q0 -26 -18.5 -44.5
t-43.5 -18.5h-561q-25 0 -42 18.5t-17 44.5z" />
    <glyph glyph-name="greaterequal" unicode="&#x2265;" horiz-adv-x="823" 
d="M160 356q-35 0 -60 29q-18 28 -13 59t30 48l401 256l-401 266q-26 17 -31 47t14 55q19 24 47.5 29.5t55.5 -12.5l485 -328q31 -21 31 -57q0 -42 -33 -62l-483 -315q-21 -15 -43 -15zM72 172q0 25 17 43t42 18h561q26 0 44 -18t18 -43q0 -26 -18 -44.5t-44 -18.5h-561
q-25 0 -42 18.5t-17 44.5z" />
    <glyph glyph-name="lozenge" unicode="&#x25ca;" horiz-adv-x="1011" 
d="M111 725q0 23 14 43l315 459q23 33 62 33q36 0 57 -31l322 -453q6 -6 14 -22q6 -12 6 -27q0 -23 -14 -43l-328 -461q-20 -30 -57 -30q-40 0 -62 32l-315 457q-14 17 -14 43zM274 725l230 -330l233 332l-233 330z" />
    <glyph glyph-name="A.ss01" horiz-adv-x="1392" 
d="M190 45q-20 -43 -64 -45t-70.5 32t-6.5 77l574 1284q22 46 71 45t70 -45l579 -1284q19 -43 -8.5 -77.5t-71 -32.5t-61.5 46l-510 1126z" />
    <glyph glyph-name="B.ss01" horiz-adv-x="1267" 
d="M205 0q-32 0 -55 23t-23 55v1280q0 31 23 54.5t55 23.5h454q169 0 283.5 -103.5t114.5 -255.5q0 -113 -74 -209q-44 -55 -53 -106q5 -7 12 -15t12 -13t16.5 -13.5t14 -10.5t17.5 -12l14 -10q184 -108 184 -291q0 -164 -116.5 -280.5t-280.5 -116.5h-598zM281 154h522
q100 0 170.5 71.5t70.5 171.5q0 131 -157 197q-112 47 -127 133q-18 93 76 193q65 68 65 157q0 88 -70 145.5t-172 57.5h-378v-1126z" />
    <glyph glyph-name="D.ss01" horiz-adv-x="1456" 
d="M594 965q0 12 -10 21t-23 9q-12 0 -21.5 -9t-9.5 -21t9.5 -21.5t21.5 -9.5q13 0 23 9.5t10 21.5zM143 168v14q15 -8 15 -26q0 -9 -8 -21q-3 6 -3 10l-2 9q-2 9 -2 14zM143 254v53q15 -11 15 -26q0 -16 -15 -27zM143 379v53q15 -11 15 -26q0 -16 -15 -27zM143 504v51
q15 -7 15 -25t-15 -26zM143 627v53q15 -11 15 -27q0 -15 -15 -26zM143 752v53q15 -11 15 -27q0 -15 -15 -26zM143 877v53q15 -11 15 -27q0 -15 -15 -26zM143 1001v52q15 -7 15 -27q0 -18 -15 -25zM143 1124v54q15 -11 15 -27t-15 -27zM143 1249v19q0 12 4 32q11 -11 11 -24
q0 -16 -15 -27zM158 219q0 12 9 21.5t21 9.5q13 0 22 -9.5t9 -21.5q0 -13 -8.5 -22t-22.5 -9q-12 0 -21 9t-9 22zM158 344q0 12 9 21.5t21 9.5q13 0 22 -9.5t9 -21.5q0 -14 -9 -23.5t-22 -9.5q-12 0 -21 10t-9 23zM158 467q0 13 9 22t21 9q14 0 22.5 -9t8.5 -22
q0 -12 -9 -21.5t-22 -9.5q-12 0 -21 9.5t-9 21.5zM158 592q0 12 9 21.5t21 9.5q13 0 22 -9.5t9 -21.5t-9 -21.5t-22 -9.5q-12 0 -21 9.5t-9 21.5zM158 717q0 12 9 21.5t21 9.5q13 0 22 -9.5t9 -21.5q0 -14 -9 -23.5t-22 -9.5q-12 0 -21 10t-9 23zM158 840q0 13 9 22.5
t21 9.5q13 0 22 -9t9 -23q0 -12 -9 -21.5t-22 -9.5q-12 0 -21 9.5t-9 21.5zM158 965q0 12 9 21t21 9q13 0 22 -9t9 -21t-9 -21.5t-22 -9.5q-12 0 -21 9.5t-9 21.5zM158 1090q0 12 9 21t21 9q13 0 22 -9t9 -21q0 -14 -8.5 -22.5t-22.5 -8.5q-12 0 -21 9t-9 22zM158 1212
q0 13 9 23t21 10q13 0 22 -9.5t9 -23.5q0 -12 -9 -21t-22 -9q-12 0 -21 9t-9 21zM158 1335q7 17 18 31q4 2 12 2q14 0 22.5 -9t8.5 -22q0 -12 -9 -21t-22 -9q-26 0 -30 28zM160 102q2 9 10 16t18 7q14 0 22.5 -8.5t8.5 -22.5q0 -12 -9 -21.5t-22 -9.5h-6q-15 22 -22 39z
M219 33q0 12 10 21t23 9q12 0 21.5 -9t9.5 -21q0 -14 -13 -27q-26 9 -49 25zM219 156q0 13 9.5 22.5t23.5 9.5q12 0 21.5 -9.5t9.5 -22.5q0 -12 -9.5 -21.5t-21.5 -9.5q-13 0 -23 9.5t-10 21.5zM219 281q0 13 9.5 21.5t23.5 8.5q12 0 21.5 -8.5t9.5 -21.5q0 -12 -9.5 -21.5
t-21.5 -9.5q-13 0 -23 9.5t-10 21.5zM219 406q0 12 10 21t23 9q12 0 21.5 -9t9.5 -21t-9.5 -21.5t-21.5 -9.5q-13 0 -23 9.5t-10 21.5zM219 530q0 12 10 21.5t23 9.5q12 0 21.5 -9.5t9.5 -21.5q0 -13 -9.5 -22.5t-21.5 -9.5q-14 0 -23.5 9.5t-9.5 22.5zM219 653q0 13 9.5 22
t23.5 9q12 0 21.5 -9t9.5 -22q0 -12 -9.5 -21t-21.5 -9q-13 0 -23 9t-10 21zM219 778q0 12 10 21.5t23 9.5q12 0 21.5 -9.5t9.5 -21.5t-9.5 -21t-21.5 -9q-13 0 -23 9t-10 21zM219 903q0 12 10 21.5t23 9.5q12 0 21.5 -9.5t9.5 -21.5q0 -13 -9.5 -22t-21.5 -9q-14 0 -23.5 9
t-9.5 22zM219 1026q0 14 9.5 23.5t23.5 9.5q12 0 21.5 -10t9.5 -23q0 -12 -9.5 -21.5t-21.5 -9.5q-13 0 -23 9.5t-10 21.5zM219 1151q0 12 10 21.5t23 9.5q12 0 21.5 -9.5t9.5 -21.5t-9.5 -21.5t-21.5 -9.5q-13 0 -23 9.5t-10 21.5zM219 1276q0 12 10 21.5t23 9.5
q12 0 21.5 -9.5t9.5 -21.5q0 -13 -9.5 -22t-21.5 -9q-14 0 -23.5 9t-9.5 22zM219 1401q0 1 1 3.5t1 4.5q21 12 45 18q17 -10 17 -26q0 -13 -9.5 -23t-21.5 -10q-14 0 -23.5 10t-9.5 23zM283 94q0 13 9 22t21 9t21.5 -9t9.5 -22q0 -12 -9.5 -21.5t-21.5 -9.5t-21 9.5t-9 21.5
zM283 219q0 12 9 21.5t21 9.5t21.5 -9.5t9.5 -21.5q0 -13 -9.5 -22t-21.5 -9t-21 9t-9 22zM283 344q0 12 9 21.5t21 9.5t21.5 -9.5t9.5 -21.5q0 -13 -9.5 -23t-21.5 -10t-21 10t-9 23zM283 467q0 13 9 22t21 9t21.5 -9t9.5 -22q0 -12 -9.5 -21.5t-21.5 -9.5t-21 9.5t-9 21.5
zM283 592q0 12 9 21.5t21 9.5t21.5 -9.5t9.5 -21.5t-9.5 -21.5t-21.5 -9.5t-21 9.5t-9 21.5zM283 717q0 12 9 21.5t21 9.5t21.5 -9.5t9.5 -21.5q0 -13 -9.5 -23t-21.5 -10t-21 10t-9 23zM283 840q0 13 9 22.5t21 9.5t21.5 -9.5t9.5 -22.5q0 -12 -9.5 -21.5t-21.5 -9.5
t-21 9.5t-9 21.5zM283 965q0 12 9 21t21 9t21.5 -9t9.5 -21t-9.5 -21.5t-21.5 -9.5t-21 9.5t-9 21.5zM283 1090q0 12 9 21t21 9t21.5 -9t9.5 -21q0 -13 -9.5 -22t-21.5 -9t-21 9t-9 22zM283 1212q0 13 9 23t21 10t21.5 -10t9.5 -23q0 -12 -9.5 -21t-21.5 -9t-21 9t-9 21z
M283 1337q0 13 9 22t21 9t21.5 -9t9.5 -22q0 -12 -9.5 -21t-21.5 -9t-21 9t-9 21zM301 1434h10h15q-4 -2 -13 -2q-8 0 -12 2zM305 0q2 0 4.5 1t3.5 1l9 -2h-13h-4zM344 33q0 12 9.5 21t21.5 9q13 0 23 -9t10 -21q0 -13 -9.5 -22t-23.5 -9q-12 0 -21.5 9t-9.5 22zM344 156
q0 13 9.5 22.5t21.5 9.5q14 0 23.5 -9.5t9.5 -22.5q0 -12 -10 -21.5t-23 -9.5q-12 0 -21.5 9.5t-9.5 21.5zM344 281q0 13 9.5 21.5t21.5 8.5q14 0 23.5 -8.5t9.5 -21.5q0 -12 -10 -21.5t-23 -9.5q-12 0 -21.5 9.5t-9.5 21.5zM344 406q0 12 9.5 21t21.5 9q13 0 23 -9t10 -21
t-10 -21.5t-23 -9.5q-12 0 -21.5 9.5t-9.5 21.5zM344 530q0 12 9.5 21.5t21.5 9.5q13 0 23 -9.5t10 -21.5q0 -13 -9.5 -22.5t-23.5 -9.5q-12 0 -21.5 9.5t-9.5 22.5zM344 653q0 13 9.5 22t21.5 9q14 0 23.5 -9t9.5 -22q0 -12 -10 -21t-23 -9q-12 0 -21.5 9t-9.5 21zM344 778
q0 12 9.5 21.5t21.5 9.5q13 0 23 -9.5t10 -21.5t-10 -21t-23 -9q-12 0 -21.5 9t-9.5 21zM344 903q0 12 9.5 21.5t21.5 9.5q13 0 23 -9.5t10 -21.5q0 -13 -9.5 -22t-23.5 -9q-12 0 -21.5 9t-9.5 22zM344 1026q0 13 9.5 23t21.5 10q13 0 23 -9.5t10 -23.5q0 -12 -10 -21.5
t-23 -9.5q-12 0 -21.5 9.5t-9.5 21.5zM344 1151q0 12 9.5 21.5t21.5 9.5q13 0 23 -9.5t10 -21.5t-10 -21.5t-23 -9.5q-12 0 -21.5 9.5t-9.5 21.5zM344 1276q0 12 9.5 21.5t21.5 9.5q13 0 23 -9.5t10 -21.5q0 -13 -9.5 -22t-23.5 -9q-12 0 -21.5 9t-9.5 22zM344 1401
q0 12 9.5 21.5t21.5 9.5q13 0 23 -9.5t10 -21.5q0 -13 -10 -23t-23 -10q-12 0 -21.5 10t-9.5 23zM408 94q0 14 8.5 22.5t21.5 8.5q12 0 21.5 -9t9.5 -22q0 -12 -9.5 -21.5t-21.5 -9.5q-13 0 -21.5 9.5t-8.5 21.5zM408 219q0 12 8.5 21.5t21.5 9.5q12 0 21.5 -9.5t9.5 -21.5
q0 -13 -9.5 -22t-21.5 -9q-13 0 -21.5 8.5t-8.5 22.5zM408 344q0 12 8.5 21.5t21.5 9.5q12 0 21.5 -9.5t9.5 -21.5q0 -13 -9.5 -23t-21.5 -10q-13 0 -21.5 9.5t-8.5 23.5zM408 467q0 14 8.5 22.5t21.5 8.5q12 0 21.5 -9t9.5 -22q0 -12 -9.5 -21.5t-21.5 -9.5
q-13 0 -21.5 9.5t-8.5 21.5zM408 592q0 12 8.5 21.5t21.5 9.5q12 0 21.5 -9.5t9.5 -21.5t-9.5 -21.5t-21.5 -9.5q-13 0 -21.5 9.5t-8.5 21.5zM408 717q0 12 8.5 21.5t21.5 9.5q12 0 21.5 -9.5t9.5 -21.5q0 -13 -9.5 -23t-21.5 -10q-13 0 -21.5 9.5t-8.5 23.5zM408 840
q0 14 8.5 23t21.5 9q12 0 21.5 -9.5t9.5 -22.5q0 -12 -9.5 -21.5t-21.5 -9.5q-13 0 -21.5 9.5t-8.5 21.5zM408 965q0 12 8.5 21t21.5 9q12 0 21.5 -9t9.5 -21t-9.5 -21.5t-21.5 -9.5q-13 0 -21.5 9.5t-8.5 21.5zM408 1090q0 12 8.5 21t21.5 9q12 0 21.5 -9t9.5 -21
q0 -13 -9.5 -22t-21.5 -9q-13 0 -21.5 8.5t-8.5 22.5zM408 1212q0 14 8.5 23.5t21.5 9.5q12 0 21.5 -10t9.5 -23q0 -12 -9.5 -21t-21.5 -9q-13 0 -21.5 9t-8.5 21zM408 1337q0 14 8.5 22.5t21.5 8.5q12 0 21.5 -9t9.5 -22q0 -12 -9.5 -21t-21.5 -9q-13 0 -21.5 9t-8.5 21z
M426 1434h25q-4 -2 -13 -2q-10 0 -12 2zM430 0q1 0 3.5 1t4.5 1l8 -2h-16zM469 33q0 12 9.5 21t21.5 9t21 -9t9 -21q0 -13 -9 -22t-21 -9t-21.5 9t-9.5 22zM469 156q0 13 9.5 22.5t21.5 9.5t21 -9.5t9 -22.5q0 -12 -9 -21.5t-21 -9.5t-21.5 9.5t-9.5 21.5zM469 281
q0 13 9.5 21.5t21.5 8.5t21 -8.5t9 -21.5q0 -12 -9 -21.5t-21 -9.5t-21.5 9.5t-9.5 21.5zM469 406q0 12 9.5 21t21.5 9t21 -9t9 -21t-9 -21.5t-21 -9.5t-21.5 9.5t-9.5 21.5zM469 530q0 12 9.5 21.5t21.5 9.5t21 -9.5t9 -21.5q0 -13 -9 -22.5t-21 -9.5t-21.5 9.5t-9.5 22.5z
M469 653q0 13 9.5 22t21.5 9t21 -9t9 -22q0 -12 -9 -21t-21 -9t-21.5 9t-9.5 21zM469 778q0 12 9.5 21.5t21.5 9.5t21 -9.5t9 -21.5t-9 -21t-21 -9t-21.5 9t-9.5 21zM469 903q0 12 9.5 21.5t21.5 9.5t21 -9.5t9 -21.5q0 -13 -9 -22t-21 -9t-21.5 9t-9.5 22zM469 1026
q0 13 9.5 23t21.5 10t21 -10t9 -23q0 -12 -9 -21.5t-21 -9.5t-21.5 9.5t-9.5 21.5zM469 1151q0 12 9.5 21.5t21.5 9.5t21 -9.5t9 -21.5t-9 -21.5t-21 -9.5t-21.5 9.5t-9.5 21.5zM469 1276q0 12 9.5 21.5t21.5 9.5t21 -9.5t9 -21.5q0 -13 -9 -22t-21 -9t-21.5 9t-9.5 22z
M469 1401q0 12 9.5 21.5t21.5 9.5t21 -9.5t9 -21.5q0 -13 -9 -23t-21 -10t-21.5 10t-9.5 23zM530 94q0 13 9.5 22t21.5 9q14 0 23.5 -9t9.5 -22q0 -12 -10 -21.5t-23 -9.5q-12 0 -21.5 9.5t-9.5 21.5zM530 219q0 12 9.5 21.5t21.5 9.5q13 0 23 -9.5t10 -21.5q0 -13 -9.5 -22
t-23.5 -9q-12 0 -21.5 9t-9.5 22zM530 344q0 12 9.5 21.5t21.5 9.5q13 0 23 -9.5t10 -21.5q0 -14 -10 -23.5t-23 -9.5q-12 0 -21.5 10t-9.5 23zM530 467q0 13 9.5 22t21.5 9q14 0 23.5 -9t9.5 -22q0 -12 -10 -21.5t-23 -9.5q-12 0 -21.5 9.5t-9.5 21.5zM530 592
q0 12 9.5 21.5t21.5 9.5q13 0 23 -9.5t10 -21.5t-10 -21.5t-23 -9.5q-12 0 -21.5 9.5t-9.5 21.5zM530 717q0 12 9.5 21.5t21.5 9.5q13 0 23 -9.5t10 -21.5q0 -13 -10 -23t-23 -10q-12 0 -21.5 10t-9.5 23zM530 840q0 13 9.5 22.5t21.5 9.5q14 0 23.5 -9.5t9.5 -22.5
q0 -12 -10 -21.5t-23 -9.5q-12 0 -21.5 9.5t-9.5 21.5zM530 1090q0 12 9.5 21t21.5 9q13 0 23 -9t10 -21q0 -13 -9.5 -22t-23.5 -9q-12 0 -21.5 9t-9.5 22zM530 1212q0 13 9.5 23t21.5 10q13 0 23 -9.5t10 -23.5q0 -12 -10 -21t-23 -9q-12 0 -21.5 9t-9.5 21zM530 1337
q0 13 9.5 22t21.5 9q14 0 23.5 -9t9.5 -22q0 -12 -10 -21t-23 -9q-12 0 -21.5 9t-9.5 21zM549 1434h26q-4 -2 -14 -2q-8 0 -12 2zM553 0q2 0 4.5 1t3.5 1q2 0 5 -1t5 -1h-18zM594 33q0 12 9 21t22 9q12 0 21 -9t9 -21q0 -13 -9 -22t-21 -9q-13 0 -22 9t-9 22zM594 156
q0 14 9 23t22 9q12 0 21 -9.5t9 -22.5q0 -12 -9 -21.5t-21 -9.5q-13 0 -22 9.5t-9 21.5zM594 281q0 13 8.5 21.5t22.5 8.5q12 0 21 -8.5t9 -21.5q0 -12 -9 -21.5t-21 -9.5q-13 0 -22 9.5t-9 21.5zM594 406q0 12 9 21t22 9q12 0 21 -9t9 -21t-9 -21.5t-21 -9.5q-13 0 -22 9.5
t-9 21.5zM594 530q0 12 9 21.5t22 9.5q12 0 21 -9.5t9 -21.5q0 -13 -9 -22.5t-21 -9.5q-13 0 -22 9t-9 23zM594 653q0 13 9 22t22 9q12 0 21 -9t9 -22q0 -12 -9 -21t-21 -9q-13 0 -22 9t-9 21zM594 778q0 12 9 21.5t22 9.5q12 0 21 -9.5t9 -21.5t-9 -21t-21 -9q-13 0 -22 9
t-9 21zM594 903q0 12 9 21.5t22 9.5q12 0 21 -9.5t9 -21.5q0 -13 -9 -22t-21 -9q-13 0 -22 9t-9 22zM594 1026q0 14 9 23.5t22 9.5q12 0 21 -10t9 -23q0 -12 -9 -21.5t-21 -9.5q-13 0 -22 9.5t-9 21.5zM594 1151q0 12 9 21.5t22 9.5q12 0 21 -9.5t9 -21.5t-9 -21.5t-21 -9.5
q-13 0 -22 9.5t-9 21.5zM594 1276q0 12 9 21.5t22 9.5q12 0 21 -9.5t9 -21.5q0 -13 -9 -22t-21 -9q-13 0 -22 8.5t-9 22.5zM594 1401q0 12 9 21.5t22 9.5q12 0 21 -9.5t9 -21.5q0 -13 -9 -23t-21 -10q-13 0 -22 9.5t-9 23.5zM655 94q0 13 9.5 22t21.5 9t21.5 -9t9.5 -22
q0 -12 -9.5 -21.5t-21.5 -9.5t-21.5 9.5t-9.5 21.5zM655 219q0 12 9.5 21.5t21.5 9.5t21.5 -9.5t9.5 -21.5q0 -13 -9.5 -22t-21.5 -9t-21.5 9t-9.5 22zM655 344q0 12 9.5 21.5t21.5 9.5t21.5 -9.5t9.5 -21.5q0 -13 -9.5 -23t-21.5 -10t-21.5 10t-9.5 23zM655 467
q0 13 9.5 22t21.5 9t21.5 -9t9.5 -22q0 -12 -9.5 -21.5t-21.5 -9.5t-21.5 9.5t-9.5 21.5zM655 592q0 12 9.5 21.5t21.5 9.5t21.5 -9.5t9.5 -21.5t-9.5 -21.5t-21.5 -9.5t-21.5 9.5t-9.5 21.5zM655 717q0 12 9.5 21.5t21.5 9.5t21.5 -9.5t9.5 -21.5q0 -13 -9.5 -23t-21.5 -10
t-21.5 10t-9.5 23zM655 840q0 13 9.5 22.5t21.5 9.5t21.5 -9.5t9.5 -22.5q0 -12 -9.5 -21.5t-21.5 -9.5t-21.5 9.5t-9.5 21.5zM655 965q0 12 9.5 21t21.5 9t21.5 -9t9.5 -21t-9.5 -21.5t-21.5 -9.5t-21.5 9.5t-9.5 21.5zM655 1090q0 12 9.5 21t21.5 9t21.5 -9t9.5 -21
q0 -13 -9.5 -22t-21.5 -9t-21.5 9t-9.5 22zM655 1212q0 13 9.5 23t21.5 10t21.5 -10t9.5 -23q0 -12 -9.5 -21t-21.5 -9t-21.5 9t-9.5 21zM655 1337q0 13 9.5 22t21.5 9t21.5 -9t9.5 -22q0 -12 -9.5 -21t-21.5 -9t-21.5 9t-9.5 21zM674 1434q14 0 22 -2h-10q-8 0 -12 2z
M680 0q1 0 3 1t3 1q2 0 4 -2h-10zM717 33q0 12 9.5 21t21.5 9q13 0 22.5 -9t9.5 -21q0 -15 -10 -25q-15 0 -35 -4q-18 11 -18 29zM717 156q0 13 9.5 22.5t21.5 9.5q14 0 23 -9t9 -23q0 -12 -9.5 -21.5t-22.5 -9.5q-12 0 -21.5 9.5t-9.5 21.5zM717 281q0 13 9.5 21.5
t21.5 8.5q14 0 23 -8.5t9 -21.5q0 -12 -9.5 -21.5t-22.5 -9.5q-12 0 -21.5 9.5t-9.5 21.5zM717 406q0 12 9.5 21t21.5 9q13 0 22.5 -9t9.5 -21t-9.5 -21.5t-22.5 -9.5q-12 0 -21.5 9.5t-9.5 21.5zM717 530q0 12 9.5 21.5t21.5 9.5q13 0 22.5 -9.5t9.5 -21.5q0 -14 -9 -23
t-23 -9q-12 0 -21.5 9.5t-9.5 22.5zM717 653q0 13 9.5 22t21.5 9q14 0 23 -9t9 -22q0 -12 -9.5 -21t-22.5 -9q-12 0 -21.5 9t-9.5 21zM717 778q0 12 9.5 21.5t21.5 9.5q13 0 22.5 -9.5t9.5 -21.5t-9.5 -21t-22.5 -9q-12 0 -21.5 9t-9.5 21zM717 903q0 12 9.5 21.5t21.5 9.5
q13 0 22.5 -9.5t9.5 -21.5q0 -13 -9 -22t-23 -9q-12 0 -21.5 9t-9.5 22zM717 1026q0 13 9.5 23t21.5 10q13 0 22.5 -9.5t9.5 -23.5q0 -12 -9.5 -21.5t-22.5 -9.5q-12 0 -21.5 9.5t-9.5 21.5zM717 1151q0 12 9.5 21.5t21.5 9.5q13 0 22.5 -9.5t9.5 -21.5t-9.5 -21.5
t-22.5 -9.5q-12 0 -21.5 9.5t-9.5 21.5zM717 1276q0 12 9.5 21.5t21.5 9.5q13 0 22.5 -9.5t9.5 -21.5q0 -13 -9 -22t-23 -9q-12 0 -21.5 9t-9.5 22zM717 1401q0 19 20 29q25 -5 29 -5q14 -11 14 -24q0 -14 -9.5 -23.5t-22.5 -9.5q-12 0 -21.5 10t-9.5 23zM780 94
q0 14 9 22.5t22 8.5q12 0 21.5 -9t9.5 -22q0 -12 -9.5 -21.5t-21.5 -9.5q-13 0 -22 9.5t-9 21.5zM780 219q0 12 9 21.5t22 9.5q12 0 21.5 -9.5t9.5 -21.5q0 -13 -9.5 -22t-21.5 -9q-13 0 -22 9t-9 22zM780 344q0 12 9 21.5t22 9.5q12 0 21.5 -9.5t9.5 -21.5q0 -13 -9.5 -23
t-21.5 -10q-13 0 -22 9.5t-9 23.5zM780 467q0 13 9 22t22 9q12 0 21.5 -9t9.5 -22q0 -12 -9.5 -21.5t-21.5 -9.5q-13 0 -22 9.5t-9 21.5zM780 592q0 12 9 21.5t22 9.5q12 0 21.5 -9.5t9.5 -21.5t-9.5 -21.5t-21.5 -9.5q-13 0 -22 9.5t-9 21.5zM780 717q0 12 9 21.5t22 9.5
q12 0 21.5 -9.5t9.5 -21.5q0 -13 -9.5 -23t-21.5 -10q-13 0 -22 9.5t-9 23.5zM780 840q0 14 9 23t22 9q12 0 21.5 -9.5t9.5 -22.5q0 -12 -9.5 -21.5t-21.5 -9.5q-13 0 -22 9.5t-9 21.5zM780 965q0 12 9 21t22 9q12 0 21.5 -9t9.5 -21t-9.5 -21.5t-21.5 -9.5q-13 0 -22 9.5
t-9 21.5zM780 1090q0 12 9 21t22 9q12 0 21.5 -9t9.5 -21q0 -13 -9.5 -22t-21.5 -9q-13 0 -22 8.5t-9 22.5zM780 1212q0 14 9 23.5t22 9.5q12 0 21.5 -10t9.5 -23q0 -12 -9.5 -21t-21.5 -9q-13 0 -22 9t-9 21zM780 1337q0 13 9 22t22 9q12 0 21.5 -9t9.5 -22q0 -12 -9.5 -21
t-21.5 -9q-13 0 -22 9t-9 21zM842 25v8q0 12 9 21t21 9q22 0 29 -20zM842 156q0 13 9 22.5t21 9.5q13 0 22 -9t9 -23q0 -12 -9 -21.5t-22 -9.5q-12 0 -21 9.5t-9 21.5zM842 281q0 13 9 21.5t21 8.5q14 0 22.5 -8.5t8.5 -21.5q0 -12 -9 -21.5t-22 -9.5q-12 0 -21 9.5t-9 21.5
zM842 406q0 12 9 21t21 9q13 0 22 -9t9 -21t-9 -21.5t-22 -9.5q-12 0 -21 9.5t-9 21.5zM842 530q0 12 9 21.5t21 9.5q13 0 22 -9.5t9 -21.5q0 -14 -9 -23t-22 -9q-12 0 -21 9.5t-9 22.5zM842 653q0 13 9 22t21 9q14 0 22.5 -9t8.5 -22q0 -12 -9 -21t-22 -9q-12 0 -21 9
t-9 21zM842 778q0 12 9 21.5t21 9.5q13 0 22 -9.5t9 -21.5t-9 -21t-22 -9q-12 0 -21 9t-9 21zM842 903q0 12 9 21.5t21 9.5q13 0 22 -9.5t9 -21.5q0 -13 -8.5 -22t-22.5 -9q-12 0 -21 9t-9 22zM842 1026q0 13 9 23t21 10q13 0 22 -9.5t9 -23.5q0 -12 -9 -21.5t-22 -9.5
q-12 0 -21 9.5t-9 21.5zM842 1151q0 12 9 21.5t21 9.5q13 0 22 -9.5t9 -21.5t-9 -21.5t-22 -9.5q-12 0 -21 9.5t-9 21.5zM842 1276q0 12 9 21.5t21 9.5q13 0 22 -9.5t9 -21.5q0 -14 -8.5 -22.5t-22.5 -8.5q-12 0 -21 9t-9 22zM842 1401q0 4 2 8l59 -18q-8 -23 -31 -23
q-12 0 -21 10t-9 23zM903 94q0 13 9.5 22t23.5 9q12 0 21.5 -9t9.5 -22q0 -12 -9.5 -21.5t-21.5 -9.5q-13 0 -23 9.5t-10 21.5zM903 219q0 12 10 21.5t23 9.5q12 0 21.5 -9.5t9.5 -21.5q0 -13 -9.5 -22t-21.5 -9q-14 0 -23.5 9t-9.5 22zM903 344q0 12 10 21.5t23 9.5
q12 0 21.5 -9.5t9.5 -21.5q0 -13 -9.5 -23t-21.5 -10q-14 0 -23.5 9.5t-9.5 23.5zM903 467q0 13 9.5 22t23.5 9q12 0 21.5 -9t9.5 -22q0 -12 -9.5 -21.5t-21.5 -9.5q-13 0 -23 9.5t-10 21.5zM903 592q0 12 10 21.5t23 9.5q12 0 21.5 -9.5t9.5 -21.5t-9.5 -21.5t-21.5 -9.5
q-13 0 -23 9.5t-10 21.5zM903 717q0 12 10 21.5t23 9.5q12 0 21.5 -9.5t9.5 -21.5q0 -13 -9.5 -23t-21.5 -10q-14 0 -23.5 10t-9.5 23zM903 840q0 13 9.5 22.5t23.5 9.5q12 0 21.5 -9.5t9.5 -22.5q0 -12 -9.5 -21.5t-21.5 -9.5q-13 0 -23 9.5t-10 21.5zM903 965q0 12 10 21
t23 9q12 0 21.5 -9t9.5 -21t-9.5 -21.5t-21.5 -9.5q-13 0 -23 9.5t-10 21.5zM903 1090q0 12 10 21t23 9q12 0 21.5 -9t9.5 -21q0 -13 -9.5 -22t-21.5 -9q-14 0 -23.5 9t-9.5 22zM903 1212q0 14 9.5 23.5t23.5 9.5q12 0 21.5 -10t9.5 -23q0 -12 -9.5 -21t-21.5 -9
q-13 0 -23 9t-10 21zM903 1337q0 13 9.5 22t23.5 9q12 0 21.5 -9t9.5 -22q0 -12 -9.5 -21t-21.5 -9q-13 0 -23 9t-10 21zM967 156q0 14 8.5 23t21.5 9q12 0 21.5 -9.5t9.5 -22.5q0 -12 -9.5 -21.5t-21.5 -9.5q-13 0 -21.5 9.5t-8.5 21.5zM967 281q0 13 8.5 21.5t21.5 8.5
q12 0 21.5 -8.5t9.5 -21.5q0 -12 -9.5 -21.5t-21.5 -9.5q-13 0 -21.5 9.5t-8.5 21.5zM967 406q0 12 8.5 21t21.5 9q12 0 21.5 -9t9.5 -21t-9.5 -21.5t-21.5 -9.5q-13 0 -21.5 9.5t-8.5 21.5zM967 530q0 12 8.5 21.5t21.5 9.5q12 0 21.5 -9.5t9.5 -21.5q0 -13 -9.5 -22.5
t-21.5 -9.5q-13 0 -21.5 9t-8.5 23zM967 653q0 14 8.5 22.5t21.5 8.5q12 0 21.5 -9t9.5 -22q0 -12 -9.5 -21t-21.5 -9q-13 0 -21.5 9t-8.5 21zM967 778q0 12 8.5 21.5t21.5 9.5q12 0 21.5 -9.5t9.5 -21.5t-9.5 -21t-21.5 -9q-13 0 -21.5 9t-8.5 21zM967 903q0 12 8.5 21.5
t21.5 9.5q12 0 21.5 -9.5t9.5 -21.5q0 -13 -9.5 -22t-21.5 -9q-13 0 -21.5 8.5t-8.5 22.5zM967 1026q0 14 8.5 23.5t21.5 9.5q12 0 21.5 -10t9.5 -23q0 -12 -9.5 -21.5t-21.5 -9.5q-13 0 -21.5 9.5t-8.5 21.5zM967 1151q0 12 8.5 21.5t21.5 9.5q12 0 21.5 -9.5t9.5 -21.5
t-9.5 -21.5t-21.5 -9.5q-13 0 -21.5 9.5t-8.5 21.5zM967 1276q0 12 8.5 21.5t21.5 9.5q12 0 21.5 -9.5t9.5 -21.5q0 -13 -9.5 -22t-21.5 -9q-13 0 -21.5 8.5t-8.5 22.5zM1028 219q0 12 9.5 21.5t21.5 9.5q13 0 22 -9.5t9 -21.5q0 -13 -9 -22t-22 -9q-12 0 -21.5 9t-9.5 22z
M1028 344q0 12 9.5 21.5t21.5 9.5q13 0 22 -9.5t9 -21.5q0 -14 -9 -23.5t-22 -9.5q-12 0 -21.5 10t-9.5 23zM1028 467q0 13 9.5 22t21.5 9q13 0 22 -9t9 -22q0 -12 -9 -21.5t-22 -9.5q-12 0 -21.5 9.5t-9.5 21.5zM1028 592q0 12 9.5 21.5t21.5 9.5q13 0 22 -9.5t9 -21.5
t-9 -21.5t-22 -9.5q-12 0 -21.5 9.5t-9.5 21.5zM1028 717q0 12 9.5 21.5t21.5 9.5q13 0 22 -9.5t9 -21.5q0 -14 -9 -23.5t-22 -9.5q-12 0 -21.5 10t-9.5 23zM1028 840q0 13 9.5 22.5t21.5 9.5q13 0 22 -9t9 -23q0 -12 -9 -21.5t-22 -9.5q-12 0 -21.5 9.5t-9.5 21.5z
M1028 965q0 12 9.5 21t21.5 9q13 0 22 -9t9 -21t-9 -21.5t-22 -9.5q-12 0 -21.5 9.5t-9.5 21.5zM1028 1090q0 12 9.5 21t21.5 9q13 0 22 -9t9 -21q0 -14 -9 -22.5t-22 -8.5q-12 0 -21.5 9t-9.5 22zM1028 1212q0 13 9.5 23t21.5 10q13 0 22 -9.5t9 -23.5q0 -12 -9 -21t-22 -9
q-12 0 -21.5 9t-9.5 21zM1030 106q8 19 29 19h2q-5 -3 -15.5 -9.5t-15.5 -9.5zM1030 1329q5 -4 16.5 -11t16.5 -11h-4q-23 0 -29 22zM1090 156q0 14 9 23t23 9q3 0 15 -4l-45 -37q0 2 -1 5t-1 4zM1090 281q0 13 9 21.5t23 8.5q12 0 21.5 -8.5t9.5 -21.5q0 -12 -9.5 -21.5
t-21.5 -9.5q-13 0 -22.5 9.5t-9.5 21.5zM1090 406q0 12 9.5 21t22.5 9q12 0 21.5 -9t9.5 -21t-9.5 -21.5t-21.5 -9.5q-13 0 -22.5 9.5t-9.5 21.5zM1090 530q0 12 9.5 21.5t22.5 9.5q12 0 21.5 -9.5t9.5 -21.5q0 -13 -9.5 -22.5t-21.5 -9.5q-14 0 -23 9t-9 23zM1090 653
q0 13 9 22t23 9q12 0 21.5 -9t9.5 -22q0 -12 -9.5 -21t-21.5 -9q-13 0 -22.5 9t-9.5 21zM1090 778q0 12 9.5 21.5t22.5 9.5q12 0 21.5 -9.5t9.5 -21.5t-9.5 -21t-21.5 -9q-13 0 -22.5 9t-9.5 21zM1090 903q0 12 9.5 21.5t22.5 9.5q12 0 21.5 -9.5t9.5 -21.5q0 -13 -9.5 -22
t-21.5 -9q-14 0 -23 9t-9 22zM1090 1026q0 14 9.5 23.5t22.5 9.5q12 0 21.5 -10t9.5 -23q0 -12 -9.5 -21.5t-21.5 -9.5q-13 0 -22.5 9.5t-9.5 21.5zM1090 1151q0 12 9.5 21.5t22.5 9.5q12 0 21.5 -9.5t9.5 -21.5t-9.5 -21.5t-21.5 -9.5q-13 0 -22.5 9.5t-9.5 21.5z
M1090 1276q0 2 1 5t1 5q15 -11 45 -37q-4 -4 -15 -4q-14 0 -23 9t-9 22zM1153 219q0 12 9.5 21.5t21.5 9.5q6 0 14 -4l-41 -43q-4 6 -4 16zM1153 344q0 12 9.5 21.5t21.5 9.5t21 -9.5t9 -21.5q0 -13 -9 -23t-21 -10t-21.5 10t-9.5 23zM1153 467q0 13 9.5 22t21.5 9t21 -9
t9 -22q0 -12 -9 -21.5t-21 -9.5t-21.5 9.5t-9.5 21.5zM1153 592q0 12 9.5 21.5t21.5 9.5t21 -9.5t9 -21.5t-9 -21.5t-21 -9.5t-21.5 9.5t-9.5 21.5zM1153 717q0 12 9.5 21.5t21.5 9.5t21 -9.5t9 -21.5q0 -13 -9 -23t-21 -10t-21.5 10t-9.5 23zM1153 840q0 13 9.5 22.5
t21.5 9.5t21 -9.5t9 -22.5q0 -12 -9 -21.5t-21 -9.5t-21.5 9.5t-9.5 21.5zM1153 965q0 12 9.5 21t21.5 9t21 -9t9 -21t-9 -21.5t-21 -9.5t-21.5 9.5t-9.5 21.5zM1153 1090q0 12 9.5 21t21.5 9t21 -9t9 -21q0 -13 -9 -22t-21 -9t-21.5 9t-9.5 22zM1153 1212q0 9 4 17
q24 -21 41 -43q-8 -4 -14 -4q-12 0 -21.5 9t-9.5 21zM1214 281q0 13 9.5 21.5t21.5 8.5h2q-25 -35 -30 -41q-3 6 -3 11zM1214 406q0 12 9.5 21t21.5 9q13 0 22 -9t9 -21t-9 -21.5t-22 -9.5q-12 0 -21.5 9.5t-9.5 21.5zM1214 530q0 12 9.5 21.5t21.5 9.5q13 0 22 -9.5
t9 -21.5q0 -14 -9 -23t-22 -9q-12 0 -21.5 9.5t-9.5 22.5zM1214 653q0 13 9.5 22t21.5 9q13 0 22 -9t9 -22q0 -12 -9 -21t-22 -9q-12 0 -21.5 9t-9.5 21zM1214 778q0 12 9.5 21.5t21.5 9.5q13 0 22 -9.5t9 -21.5t-9 -21t-22 -9q-12 0 -21.5 9t-9.5 21zM1214 903
q0 12 9.5 21.5t21.5 9.5q13 0 22 -9.5t9 -21.5q0 -13 -9 -22t-22 -9q-12 0 -21.5 9t-9.5 22zM1214 1026q0 13 9.5 23t21.5 10q13 0 22 -9.5t9 -23.5q0 -12 -9 -21.5t-22 -9.5q-12 0 -21.5 9.5t-9.5 21.5zM1214 1151q0 2 1.5 6t1.5 6q8 -9 32 -43h-4q-12 0 -21.5 9.5
t-9.5 21.5zM1276 467q0 13 9.5 22t23.5 9q15 0 26 -15l-18 -45q-2 -2 -8 -2q-13 0 -23 9.5t-10 21.5zM1276 592q0 12 10 21.5t23 9.5q12 0 21 -9.5t9 -21.5t-9 -21.5t-21 -9.5q-13 0 -23 9.5t-10 21.5zM1276 717q0 12 10 21.5t23 9.5q12 0 21 -9.5t9 -21.5q0 -13 -9 -23
t-21 -10q-13 0 -23 10t-10 23zM1276 840q0 13 9.5 22.5t23.5 9.5q12 0 21 -9.5t9 -22.5q0 -12 -9 -21.5t-21 -9.5q-13 0 -23 9.5t-10 21.5zM1276 965q0 12 10 21t23 9q6 0 10 -2q11 -26 16 -43q-10 -16 -26 -16q-13 0 -23 9.5t-10 21.5zM1339 530q0 20 17 27l-13 -45
q-4 12 -4 18zM1339 653q0 13 9.5 22t21.5 9h4q-1 -10 -3 -30.5t-3 -30.5q-12 2 -20.5 10t-8.5 20zM1339 778q0 12 8.5 21.5t20.5 9.5l6 -61h-4q-12 0 -21.5 9t-9.5 21zM1339 903q0 10 7 17q8 -26 10 -46q-17 7 -17 29z" />
    <glyph glyph-name="E.ss01" horiz-adv-x="1144" 
d="M213 0q-32 0 -55 23t-23 55v358q0 149 106 256t253 103h421q32 0 55 -23t23 -55t-23 -55t-55 -23h-421q-85 0 -144 -59t-59 -144v-282h702q32 0 55 -22t23 -54t-23 -55t-55 -23h-780zM135 889v467q0 32 23 55t55 23h780q32 0 55 -23t23 -55t-23 -54t-55 -22h-702v-391
q0 -31 -23 -54.5t-55 -23.5t-55 23.5t-23 54.5z" />
    <glyph glyph-name="H.ss01" horiz-adv-x="1337" 
d="M135 877q0 -31 23 -53.5t55 -22.5t55 22.5t23 53.5v481q0 31 -23 54.5t-55 23.5t-55 -23.5t-23 -54.5v-481zM135 78v377q0 143 99.5 243t238.5 97h391q76 0 129.5 53.5t53.5 128.5v381q0 31 22.5 54.5t54.5 23.5q31 0 53.5 -23.5t22.5 -54.5v-1280q0 -32 -22.5 -55
t-53.5 -23q-32 0 -54.5 23t-22.5 55v651q-31 -42 -79.5 -66t-103.5 -24h-391q-76 0 -129 -53.5t-53 -130.5v-377q0 -32 -23 -55t-55 -23t-55 23t-23 55z" />
    <glyph glyph-name="J.ss01" horiz-adv-x="1308" 
d="M629 0q-204 0 -364.5 131t-201.5 332q-7 32 11 59t51 35q33 6 60.5 -11.5t33.5 -49.5q31 -146 146.5 -241t263.5 -95q173 0 295.5 123t122.5 295v776q0 34 23.5 57t55.5 23q34 0 57 -23t23 -57v-776q0 -156 -77 -289t-210 -211t-290 -78z" />
    <glyph glyph-name="K.ss01" horiz-adv-x="1208" 
d="M1051 0q-32 0 -54 25l-465 458q-97 98 -97 234.5t97 234.5l465 461q22 22 54 22t55 -22q23 -23 23.5 -54.5t-21.5 -53.5l-465 -459q-53 -54 -53 -128t53 -128l465 -459q22 -23 21.5 -55.5t-23.5 -55.5q-23 -20 -55 -20zM127 78v1280q0 32 23 54t55 22t55 -22t23 -54
v-1280q0 -32 -23 -55t-55 -23t-55 23t-23 55z" />
    </font>
</defs>
</svg>
